osu file format v14

[General]
AudioFilename: audio.mp3
AudioLeadIn: 0
PreviewTime: 11081
Countdown: 0
SampleSet: Normal
StackLeniency: 0.7
Mode: 1
LetterboxInBreaks: 0
WidescreenStoryboard: 0

[Editor]
Bookmarks: 11180,16697,22214,27732,33249,55318,77387,93939,99456,110490,121525
DistanceSpacing: 2.1
BeatDivisor: 4
GridSize: 4
TimelineZoom: 2.3

[Metadata]
Title:I Hate You I Love You
TitleUnicode:I Hate You I Love You
Artist:DVRST
ArtistUnicode:DVRST
Creator:SWAKE
Version:Bittersweet Oni
Source:
Tags:dnb drum and & 'n' bass phonk instrumental electronic tachibana_ ryxliee english
BeatmapID:3541769
BeatmapSetID:1732773

[Difficulty]
HPDrainRate:6
CircleSize:5
OverallDifficulty:6
ApproachRate:5
SliderMultiplier:1.4
SliderTickRate:1

[Events]
//Background and Video events
0,0,"87187018_p0.jpg",0,24
//Break Periods
//Storyboard Layer 0 (Background)
//Storyboard Layer 1 (Fail)
//Storyboard Layer 2 (Pass)
//Storyboard Layer 3 (Foreground)
//Storyboard Layer 4 (Overlay)
//Storyboard Sound Samples

[TimingPoints]
133,344.827586206897,4,1,0,45,1,0
133,-133.333333333333,4,1,0,45,0,0
10644,-123.049487293803,4,1,0,50,0,0
10816,-114.285714285714,4,1,0,55,0,0
10989,-106.646058732612,4,1,0,60,0,0
11161,-100,4,1,0,65,0,0
20988,-103.218562874252,4,1,0,65,0,0
21160,-106.651198762568,4,1,0,65,0,0
21247,-108.475909537856,4,1,0,65,0,0
21333,-110.342068413683,4,1,0,65,0,0
21419,-112.273559943008,4,1,0,65,0,0
21505,-114.273876113528,4,1,0,65,0,0
21678,-118.521701761925,4,1,0,65,0,0
21850,-123.070058009817,4,1,0,65,0,0
22023,-128.011139475516,4,1,0,65,0,0
22195,-133.333333333333,4,1,0,65,0,0
23575,-133.333333333333,4,1,0,65,0,0
23747,-128.011139475516,4,1,0,65,0,0
23920,-123.070058009817,4,1,0,65,0,0
24092,-118.521701761925,4,1,0,65,0,0
24264,-114.297554910899,4,1,0,65,0,0
24437,-110.342068413683,4,1,0,65,0,0
24609,-106.671823631793,4,1,0,65,0,0
24782,-103.218562874252,4,1,0,65,0,0
24954,-100,4,1,0,65,0,0
32195,-109.071729957806,4,1,0,65,0,0
32282,-111.632928475034,4,1,0,65,0,0
32368,-114.285714285714,4,1,0,65,0,0
32540,-119.988395706411,4,1,0,65,0,0
32885,-133.333333333333,4,1,0,65,0,0
33233,-100,4,1,0,65,0,0
54264,-106.651198762568,4,1,0,60,0,0
54609,-114.273876113528,4,1,0,55,0,0
54954,-123.070058009817,4,1,0,50,0,0
55299,-133.333333333333,4,1,0,45,0,0
60816,-133.333333333333,4,1,0,45,0,0
61161,-131.454632087673,4,1,0,46,0,0
61333,-130.537643130416,4,1,0,46,0,0
61420,-130.078672270719,4,1,0,47,0,0
61506,-129.628138005101,4,1,0,47,0,0
61678,-128.736367757246,4,1,0,48,0,0
61851,-127.851704733532,4,1,0,49,0,0
62023,-126.984126984127,4,1,0,49,0,0
62195,-126.128244314694,4,1,0,50,0,0
62540,-124.445819156614,4,1,0,50,0,0
62713,-123.618952516291,4,1,0,51,0,0
62799,-123.211984330539,4,1,0,52,0,0
62885,-122.807686926883,4,1,0,52,0,0
63058,-122.002375356935,4,1,0,53,0,0
63230,-121.212121212121,4,1,0,53,0,0
63402,-120.432038713862,4,1,0,54,0,0
63575,-119.657484169176,4,1,0,55,0,0
63661,-119.276141066024,4,1,0,55,0,0
63747,-118.897220888281,4,1,0,56,0,0
63920,-118.142220917144,4,1,0,57,0,0
64006,-117.770459812172,4,1,0,57,0,0
64092,-117.40103102811,4,1,0,58,0,0
64264,-116.66908317626,4,1,0,58,0,0
64437,-115.942028985507,4,1,0,59,0,0
64609,-115.228105347319,4,1,0,60,0,0
64695,-114.874430446007,4,1,0,60,0,0
64782,-114.518845323656,4,1,0,61,0,0
64954,-113.822288233491,4,1,0,61,0,0
65127,-113.130177029513,4,1,0,62,0,0
65299,-112.450360432752,4,1,0,63,0,0
65471,-111.778665277537,4,1,0,63,0,0
65644,-111.111111111111,4,1,0,64,0,0
65989,-121.228116477523,4,1,0,64,0,0
66333,-133.333333333333,4,1,0,45,0,0
77368,-100,4,1,0,65,0,0
77540,-105.252442996743,4,1,0,65,0,0
77713,-111.123052122515,4,1,0,65,0,0
77885,-117.647058823529,4,1,0,65,0,0
78061,-100,4,1,0,65,0,0
78233,-105.252442996743,4,1,0,65,0,0
78402,-111.123052122515,4,1,0,65,0,0
78578,-117.647058823529,4,1,0,65,0,0
78750,-100,4,1,0,65,0,0
78922,-105.252442996743,4,1,0,65,0,0
79095,-111.123052122515,4,1,0,65,0,0
79267,-117.647058823529,4,1,0,65,0,0
79440,-100,4,1,0,65,0,0
79612,-105.252442996743,4,1,0,65,0,0
79785,-111.123052122515,4,1,0,65,0,0
79957,-117.647058823529,4,1,0,65,0,0
80130,-100,4,1,0,65,0,0
80302,-105.252442996743,4,1,0,65,0,0
80471,-111.123052122515,4,1,0,65,0,0
80647,-117.647058823529,4,1,0,65,0,0
80819,-100,4,1,0,65,0,0
80991,-105.252442996743,4,1,0,65,0,0
81164,-111.123052122515,4,1,0,65,0,0
81336,-117.647058823529,4,1,0,65,0,0
81509,-100,4,1,0,65,0,0
81681,-105.252442996743,4,1,0,65,0,0
81854,-111.123052122515,4,1,0,65,0,0
82026,-117.647058823529,4,1,0,65,0,0
82198,-100,4,1,0,65,0,0
82370,-105.252442996743,4,1,0,65,0,0
82543,-111.123052122515,4,1,0,65,0,0
82715,-117.647058823529,4,1,0,65,0,0
82885,-100,4,1,0,65,0,0
98230,-103.218562874252,4,1,0,65,0,0
98402,-106.651198762568,4,1,0,65,0,0
98489,-108.475909537856,4,1,0,65,0,0
98575,-110.342068413683,4,1,0,65,0,0
98661,-112.273559943008,4,1,0,65,0,0
98747,-114.273876113528,4,1,0,65,0,0
98920,-118.521701761925,4,1,0,65,0,0
99092,-123.070058009817,4,1,0,65,0,0
99265,-128.011139475516,4,1,0,65,0,0
99437,-133.333333333333,4,1,0,65,0,0
102195,-100,4,1,0,65,0,0
120127,-100,4,1,0,65,0,0
120299,-103.218562874252,4,1,0,63,0,0
120385,-104.906808672499,4,1,0,61,0,0
120471,-106.651198762568,4,1,0,59,0,0
120558,-108.475909537856,4,1,0,57,0,0
120644,-110.342068413683,4,1,0,55,0,0
120816,-114.273876113528,4,1,0,53,0,0
120989,-118.521701761925,4,1,0,51,0,0
121161,-123.070058009817,4,1,0,49,0,0
121333,-127.981438515081,4,1,0,47,0,0
121506,-133.333333333333,4,1,0,45,0,0
127023,-133.333333333333,4,1,0,45,0,0
127195,-134.226097788851,4,1,0,45,0,0
127282,-134.68223897504,4,1,0,44,0,0
127368,-135.136194395454,4,1,0,44,0,0
127540,-136.053348064554,4,1,0,43,0,0
127627,-136.522014570795,4,1,0,43,0,0
127713,-136.988478347239,4,1,0,42,0,0
127799,-137.458140647425,4,1,0,42,0,0
127885,-137.931034482759,4,1,0,41,0,0
128058,-138.89224572004,4,1,0,41,0,0
128230,-139.86127448992,4,1,0,40,0,0
128402,-140.843919774519,4,1,0,40,0,0
128575,-141.846305742965,4,1,0,39,0,0
128661,-142.34992981587,4,1,0,39,0,0
128747,-142.857142857143,4,1,0,38,0,0
128920,-143.888494762759,4,1,0,38,0,0
129092,-144.928754571056,4,1,0,38,0,0
129178,-145.454545454545,4,1,0,37,0,0
129264,-145.984165290656,4,1,0,37,0,0
129437,-147.061332423441,4,1,0,36,0,0
129782,-149.257607895762,4,1,0,36,0,0
129954,-150.377251515548,4,1,0,35,0,0
130040,-150.943396226415,4,1,0,35,0,0
130127,-151.520478115662,4,1,0,34,0,0
130299,-152.674459794545,4,1,0,34,0,0
130471,-153.846153846154,4,1,0,33,0,0
130558,-154.44568868981,4,1,0,33,0,0
130644,-155.042942578353,4,1,0,32,0,0
130816,-156.25141614175,4,1,0,32,0,0
131161,-158.733081668355,4,1,0,31,0,0
131506,-161.294849604715,4,1,0,31,0,0
131851,-163.940661848612,4,1,0,30,0,0
132195,-166.666666666667,4,1,0,30,0,0

[HitObjects]
266,176,133,5,8,0:0:0:0:
266,176,477,1,0,0:0:0:0:
266,176,650,1,0,0:0:0:0:
265,115,1512,1,8,0:0:0:0:
265,115,1857,1,0,0:0:0:0:
265,115,2029,1,0,0:0:0:0:
265,115,2546,1,8,0:0:0:0:
265,115,2891,1,0,0:0:0:0:
265,115,3236,1,8,0:0:0:0:
265,115,3408,1,0,0:0:0:0:
265,115,4270,1,0,0:0:0:0:
265,115,4788,1,0,0:0:0:0:
269,66,4960,1,8,0:0:0:0:
265,115,5133,1,0,0:0:0:0:
269,66,5305,1,8,0:0:0:0:
269,66,5477,1,0,0:0:0:0:
269,66,5650,1,8,0:0:0:0:
269,66,5995,1,0,0:0:0:0:
269,66,6167,1,0,0:0:0:0:
251,56,7029,1,8,0:0:0:0:
251,56,7374,1,0,0:0:0:0:
251,56,7546,1,0,0:0:0:0:
251,56,8064,1,8,0:0:0:0:
280,93,8408,1,0,0:0:0:0:
280,93,8753,1,0,0:0:0:0:
280,93,8926,1,8,0:0:0:0:
280,93,10477,1,0,0:0:0:0:
119,88,10650,1,8,0:0:0:0:
280,93,10822,1,0,0:0:0:0:
119,88,10995,1,8,0:0:0:0:
230,109,11167,1,0,0:0:0:0:
230,109,11339,1,0,0:0:0:0:
230,109,11426,1,0,0:0:0:0:
230,109,11512,1,8,0:0:0:0:
284,184,11598,1,8,0:0:0:0:
230,109,11684,1,0,0:0:0:0:
230,109,11857,1,8,0:0:0:0:
230,109,11943,1,8,0:0:0:0:
230,109,12029,1,0,0:0:0:0:
147,124,12201,1,0,0:0:0:0:
229,212,12288,1,0,0:0:0:0:
267,212,12374,1,8,0:0:0:0:
267,212,12460,1,0,0:0:0:0:
267,212,12546,1,8,0:0:0:0:
216,135,12719,1,8,0:0:0:0:
216,135,12891,1,8,0:0:0:0:
234,160,12977,1,0,0:0:0:0:
234,160,13064,1,0,0:0:0:0:
234,160,13236,1,8,0:0:0:0:
234,160,13322,1,8,0:0:0:0:
234,160,13408,1,0,0:0:0:0:
234,160,13495,1,0,0:0:0:0:
234,160,13581,1,8,0:0:0:0:
234,160,13753,1,8,0:0:0:0:
254,123,13926,1,0,0:0:0:0:
254,123,14012,1,8,0:0:0:0:
254,123,14098,1,0,0:0:0:0:
254,123,14184,1,0,0:0:0:0:
268,64,14270,1,8,0:0:0:0:
268,64,14443,1,8,0:0:0:0:
269,78,14615,1,0,0:0:0:0:
190,72,14701,1,0,0:0:0:0:
300,93,14788,1,0,0:0:0:0:
300,93,14960,1,0,0:0:0:0:
358,203,15046,1,8,0:0:0:0:
300,93,15133,1,8,0:0:0:0:
217,78,15219,1,8,0:0:0:0:
300,93,15305,1,0,0:0:0:0:
217,78,15477,1,0,0:0:0:0:
282,101,15650,1,8,0:0:0:0:
282,101,15736,1,0,0:0:0:0:
282,101,15822,1,0,0:0:0:0:
219,135,15908,1,0,0:0:0:0:
282,101,15995,1,8,0:0:0:0:
282,101,16167,1,0,0:0:0:0:
282,101,16339,1,8,0:0:0:0:
282,101,16512,1,8,0:0:0:0:
230,109,16684,1,0,0:0:0:0:
230,109,16857,1,8,0:0:0:0:
230,109,16943,1,8,0:0:0:0:
230,109,17029,1,8,0:0:0:0:
284,184,17115,1,8,0:0:0:0:
230,109,17201,1,0,0:0:0:0:
230,109,17374,1,0,0:0:0:0:
230,109,17460,1,0,0:0:0:0:
230,109,17546,1,8,0:0:0:0:
147,124,17719,1,8,0:0:0:0:
229,212,17805,1,0,0:0:0:0:
267,212,17891,1,8,0:0:0:0:
267,212,17977,1,8,0:0:0:0:
267,212,18064,1,0,0:0:0:0:
216,135,18236,1,0,0:0:0:0:
216,135,18408,1,8,0:0:0:0:
234,160,18495,1,8,0:0:0:0:
234,160,18581,1,0,0:0:0:0:
234,160,18753,1,8,0:0:0:0:
234,160,18839,1,8,0:0:0:0:
234,160,18926,1,8,0:0:0:0:
234,160,19012,1,0,0:0:0:0:
234,160,19098,1,8,0:0:0:0:
234,160,19270,1,8,0:0:0:0:
254,123,19443,1,0,0:0:0:0:
254,123,19529,1,0,0:0:0:0:
254,123,19615,1,0,0:0:0:0:
254,123,19701,1,0,0:0:0:0:
268,64,19788,1,8,0:0:0:0:
268,64,19960,1,8,0:0:0:0:
269,78,20133,1,8,0:0:0:0:
190,72,20219,1,0,0:0:0:0:
300,93,20305,1,0,0:0:0:0:
300,93,20477,1,0,0:0:0:0:
358,203,20564,1,0,0:0:0:0:
300,93,20650,1,0,0:0:0:0:
217,78,20736,1,8,0:0:0:0:
300,93,20822,1,0,0:0:0:0:
217,78,20995,1,0,0:0:0:0:
282,101,21167,1,8,0:0:0:0:
282,101,21253,1,0,0:0:0:0:
282,101,21339,1,0,0:0:0:0:
219,135,21426,1,0,0:0:0:0:
282,101,21512,1,8,0:0:0:0:
282,101,21684,1,0,0:0:0:0:
282,101,21857,1,8,0:0:0:0:
282,101,22029,1,8,0:0:0:0:
320,93,22201,1,0,0:0:0:0:
275,101,23581,5,8,0:0:0:0:
275,101,23753,1,0,0:0:0:0:
275,101,23926,1,8,0:0:0:0:
275,101,24098,1,0,0:0:0:0:
275,101,24270,1,8,0:0:0:0:
275,101,24443,1,0,0:0:0:0:
220,106,24615,1,8,0:0:0:0:
220,106,24788,1,0,0:0:0:0:
254,123,24960,1,0,0:0:0:0:
254,123,25133,1,0,0:0:0:0:
254,123,25219,1,0,0:0:0:0:
268,64,25305,1,8,0:0:0:0:
268,64,25477,1,8,0:0:0:0:
269,78,25650,1,0,0:0:0:0:
190,72,25736,1,0,0:0:0:0:
300,93,25822,1,0,0:0:0:0:
300,93,25995,1,0,0:0:0:0:
358,203,26081,1,8,0:0:0:0:
300,93,26167,1,8,0:0:0:0:
217,78,26253,1,8,0:0:0:0:
300,93,26339,1,0,0:0:0:0:
217,78,26512,1,0,0:0:0:0:
282,101,26684,1,8,0:0:0:0:
282,101,26770,1,0,0:0:0:0:
282,101,26857,1,0,0:0:0:0:
219,135,26943,1,0,0:0:0:0:
282,101,27029,1,8,0:0:0:0:
282,101,27201,1,0,0:0:0:0:
282,101,27374,1,8,0:0:0:0:
282,101,27546,1,8,0:0:0:0:
230,109,27719,1,0,0:0:0:0:
230,109,27891,1,0,0:0:0:0:
230,109,27977,1,0,0:0:0:0:
230,109,28064,1,8,0:0:0:0:
284,184,28150,1,8,0:0:0:0:
230,109,28236,1,0,0:0:0:0:
230,109,28408,1,8,0:0:0:0:
230,109,28495,1,8,0:0:0:0:
230,109,28581,1,0,0:0:0:0:
147,124,28753,1,0,0:0:0:0:
229,212,28839,1,0,0:0:0:0:
267,212,28926,1,8,0:0:0:0:
267,212,29012,1,0,0:0:0:0:
267,212,29098,1,8,0:0:0:0:
216,135,29270,1,8,0:0:0:0:
216,135,29443,1,8,0:0:0:0:
234,160,29529,1,0,0:0:0:0:
234,160,29615,1,0,0:0:0:0:
234,160,29788,1,8,0:0:0:0:
234,160,29874,1,8,0:0:0:0:
234,160,29960,1,0,0:0:0:0:
234,160,30046,1,0,0:0:0:0:
234,160,30133,1,8,0:0:0:0:
234,160,30305,1,8,0:0:0:0:
254,123,30477,1,0,0:0:0:0:
254,123,30564,1,8,0:0:0:0:
254,123,30650,1,0,0:0:0:0:
254,123,30736,1,0,0:0:0:0:
268,64,30822,1,8,0:0:0:0:
268,64,30995,1,8,0:0:0:0:
269,78,31167,1,0,0:0:0:0:
190,72,31253,1,0,0:0:0:0:
300,93,31339,1,0,0:0:0:0:
300,93,31512,1,0,0:0:0:0:
358,203,31598,1,8,0:0:0:0:
300,93,31684,1,8,0:0:0:0:
217,78,31770,1,8,0:0:0:0:
300,93,31857,1,0,0:0:0:0:
282,101,32201,1,0,0:0:0:0:
282,101,32288,1,0,0:0:0:0:
282,101,32374,1,0,0:0:0:0:
282,101,32546,1,8,0:0:0:0:
282,101,32891,1,8,0:0:0:0:
280,60,33236,1,0,0:0:0:0:
265,266,33408,1,8,0:0:0:0:
265,266,33581,1,8,0:0:0:0:
265,266,33667,1,8,0:0:0:0:
265,266,33753,1,0,0:0:0:0:
265,266,33926,1,8,0:0:0:0:
289,215,34098,1,0,0:0:0:0:
265,266,34270,1,8,0:0:0:0:
289,215,34357,1,0,0:0:0:0:
289,215,34443,1,8,0:0:0:0:
289,215,34529,1,8,0:0:0:0:
289,215,34615,1,0,0:0:0:0:
289,215,34960,1,8,0:0:0:0:
289,215,35133,1,0,0:0:0:0:
347,240,35219,1,0,0:0:0:0:
289,215,35305,1,8,0:0:0:0:
289,215,35477,1,0,0:0:0:0:
289,215,35650,1,8,0:0:0:0:
289,215,35822,1,8,0:0:0:0:
176,159,35995,1,0,0:0:0:0:
390,169,36110,1,8,0:0:0:0:
390,169,36224,1,0,0:0:0:0:
390,169,36339,1,8,0:0:0:0:
390,169,36454,1,0,0:0:0:0:
390,169,36569,1,0,0:0:0:0:
390,169,36684,1,8,0:0:0:0:
335,164,36857,1,0,0:0:0:0:
335,164,37029,1,8,0:0:0:0:
296,96,37201,1,8,0:0:0:0:
346,184,37288,1,8,0:0:0:0:
335,164,37374,1,0,0:0:0:0:
303,141,37546,1,0,0:0:0:0:
276,98,37719,1,8,0:0:0:0:
228,126,37805,1,0,0:0:0:0:
303,141,37891,1,0,0:0:0:0:
256,94,37977,1,0,0:0:0:0:
253,137,38064,1,8,0:0:0:0:
253,137,38236,1,0,0:0:0:0:
253,137,38408,1,8,0:0:0:0:
253,137,38581,1,8,0:0:0:0:
287,167,38753,1,0,0:0:0:0:
313,124,38926,1,8,0:0:0:0:
313,124,39012,1,8,0:0:0:0:
313,124,39098,1,0,0:0:0:0:
240,112,39270,1,8,0:0:0:0:
229,95,39443,1,0,0:0:0:0:
212,79,39788,1,0,0:0:0:0:
212,79,39960,1,8,0:0:0:0:
212,79,40133,1,0,0:0:0:0:
247,121,40305,1,0,0:0:0:0:
239,29,40391,1,0,0:0:0:0:
231,103,40477,1,8,0:0:0:0:
212,79,40650,1,8,0:0:0:0:
231,120,40822,1,0,0:0:0:0:
265,105,40908,1,0,0:0:0:0:
265,106,40995,1,8,0:0:0:0:
265,106,41081,1,0,0:0:0:0:
265,106,41167,1,8,0:0:0:0:
263,154,41339,1,0,0:0:0:0:
206,103,41512,1,8,0:0:0:0:
206,103,41598,1,8,0:0:0:0:
206,103,41684,1,0,0:0:0:0:
206,103,41857,1,8,0:0:0:0:
245,73,42029,1,0,0:0:0:0:
247,45,42115,1,8,0:0:0:0:
262,56,42201,1,0,0:0:0:0:
254,93,42374,5,0,0:0:0:0:
254,93,42546,1,8,0:0:0:0:
254,93,42719,1,0,0:0:0:0:
254,93,42805,1,0,0:0:0:0:
254,93,42891,1,8,0:0:0:0:
254,93,43064,1,0,0:0:0:0:
184,41,43150,1,8,0:0:0:0:
254,93,43236,1,8,0:0:0:0:
208,154,43322,1,8,0:0:0:0:
249,66,43408,1,0,0:0:0:0:
266,64,43581,5,8,0:0:0:0:
266,64,43753,1,0,0:0:0:0:
266,64,43926,1,8,0:0:0:0:
266,64,44098,1,8,0:0:0:0:
239,88,44270,1,0,0:0:0:0:
304,92,44615,1,8,0:0:0:0:
315,107,44788,1,0,0:0:0:0:
308,106,44960,1,0,0:0:0:0:
308,106,45046,1,8,0:0:0:0:
308,106,45133,1,0,0:0:0:0:
308,106,45305,1,8,0:0:0:0:
304,102,45391,1,8,0:0:0:0:
304,102,45477,1,8,0:0:0:0:
304,102,45650,1,0,0:0:0:0:
304,102,45736,1,0,0:0:0:0:
302,108,45822,1,0,0:0:0:0:
258,116,45995,1,8,0:0:0:0:
276,98,46081,1,8,0:0:0:0:
276,98,46167,1,0,0:0:0:0:
276,98,46339,1,8,0:0:0:0:
276,98,46512,1,0,0:0:0:0:
276,98,46684,1,8,0:0:0:0:
267,63,46770,1,8,0:0:0:0:
276,98,46857,1,8,0:0:0:0:
276,98,47029,1,0,0:0:0:0:
275,102,47115,1,0,0:0:0:0:
275,102,47201,1,8,0:0:0:0:
242,102,47288,1,0,0:0:0:0:
275,102,47374,1,8,0:0:0:0:
249,89,47546,1,8,0:0:0:0:
249,89,47719,1,8,0:0:0:0:
199,58,47805,1,0,0:0:0:0:
249,89,47891,1,0,0:0:0:0:
249,89,48064,1,8,0:0:0:0:
249,89,48150,1,8,0:0:0:0:
264,112,48236,1,0,0:0:0:0:
264,112,48322,1,8,0:0:0:0:
264,112,48408,1,0,0:0:0:0:
195,103,48581,1,0,0:0:0:0:
234,84,48753,1,0,0:0:0:0:
234,84,48839,1,0,0:0:0:0:
234,84,48926,1,8,0:0:0:0:
234,84,49012,1,0,0:0:0:0:
234,84,49098,1,8,0:0:0:0:
234,84,49270,1,0,0:0:0:0:
234,84,49443,1,8,0:0:0:0:
234,84,49615,1,8,0:0:0:0:
234,84,49788,1,0,0:0:0:0:
315,116,49960,1,8,0:0:0:0:
315,116,50046,1,0,0:0:0:0:
268,57,50133,1,8,0:0:0:0:
282,104,50305,1,0,0:0:0:0:
290,128,50477,1,0,0:0:0:0:
290,128,50564,1,8,0:0:0:0:
258,94,50650,1,0,0:0:0:0:
258,98,50822,1,8,0:0:0:0:
229,74,50908,1,8,0:0:0:0:
258,98,50995,1,0,0:0:0:0:
259,98,51167,1,8,0:0:0:0:
247,90,51253,1,8,0:0:0:0:
247,90,51339,1,0,0:0:0:0:
229,80,51512,1,8,0:0:0:0:
229,80,51598,1,8,0:0:0:0:
229,80,51684,1,0,0:0:0:0:
229,80,51770,1,0,0:0:0:0:
229,80,51857,1,8,0:0:0:0:
229,80,52029,1,8,0:0:0:0:
229,80,52201,1,0,0:0:0:0:
229,80,52288,1,8,0:0:0:0:
229,80,52374,1,0,0:0:0:0:
229,80,52546,1,0,0:0:0:0:
229,80,52633,1,8,0:0:0:0:
229,80,52719,1,0,0:0:0:0:
229,80,52805,5,0,0:0:0:0:
202,80,52891,1,8,0:0:0:0:
236,97,53064,1,0,0:0:0:0:
236,97,53236,1,8,0:0:0:0:
236,97,53322,1,8,0:0:0:0:
236,97,53408,1,0,0:0:0:0:
236,97,53581,1,0,0:0:0:0:
243,122,53926,5,8,0:0:0:0:
224,143,54270,1,0,0:0:0:0:
224,143,54615,1,8,0:0:0:0:
224,143,54960,1,0,0:0:0:0:
224,143,55305,1,0,0:0:0:0:
287,59,55650,1,8,0:0:0:0:
256,132,55822,1,8,0:0:0:0:
256,132,55908,1,8,0:0:0:0:
256,132,55995,1,0,0:0:0:0:
243,78,56167,1,0,0:0:0:0:
243,78,56339,1,8,0:0:0:0:
243,78,56512,1,8,0:0:0:0:
243,78,56684,1,0,0:0:0:0:
243,78,57029,1,8,0:0:0:0:
243,78,57201,1,0,0:0:0:0:
271,63,57546,1,0,0:0:0:0:
271,63,57719,1,8,0:0:0:0:
173,110,57891,1,0,0:0:0:0:
173,110,57977,1,0,0:0:0:0:
271,63,58064,1,8,0:0:0:0:
271,63,58236,1,0,0:0:0:0:
271,63,58408,1,8,0:0:0:0:
271,63,58581,1,0,0:0:0:0:
271,63,58753,1,8,0:0:0:0:
271,63,58926,1,8,0:0:0:0:
271,63,59098,1,0,0:0:0:0:
271,63,59270,1,8,0:0:0:0:
271,63,59443,1,8,0:0:0:0:
271,63,59788,1,0,0:0:0:0:
271,63,59960,1,0,0:0:0:0:
271,63,60133,1,8,0:0:0:0:
271,63,60477,1,8,0:0:0:0:
282,102,60822,1,0,0:0:0:0:
282,102,61167,1,8,0:0:0:0:
234,71,61339,1,0,0:0:0:0:
234,71,61426,1,0,0:0:0:0:
234,71,61512,1,8,0:0:0:0:
282,102,61684,1,0,0:0:0:0:
282,102,61857,1,8,0:0:0:0:
282,102,62029,1,8,0:0:0:0:
282,102,62201,1,0,0:0:0:0:
282,102,62546,1,8,0:0:0:0:
282,102,62719,1,8,0:0:0:0:
209,98,62805,1,8,0:0:0:0:
209,98,62891,1,0,0:0:0:0:
282,102,63064,1,0,0:0:0:0:
282,102,63236,1,8,0:0:0:0:
243,77,63408,1,8,0:0:0:0:
282,102,63581,1,0,0:0:0:0:
188,47,63667,1,8,0:0:0:0:
282,102,63753,1,0,0:0:0:0:
282,102,63926,1,8,0:0:0:0:
222,96,64012,1,8,0:0:0:0:
282,102,64098,1,0,0:0:0:0:
282,102,64270,1,8,0:0:0:0:
282,102,64443,1,0,0:0:0:0:
282,102,64615,1,0,0:0:0:0:
223,64,64701,1,0,0:0:0:0:
282,102,64788,1,8,0:0:0:0:
282,102,64960,1,0,0:0:0:0:
235,63,65133,1,0,0:0:0:0:
282,102,65305,1,8,0:0:0:0:
282,102,65477,1,0,0:0:0:0:
282,102,65650,1,8,0:0:0:0:
228,73,65995,1,0,0:0:0:0:
238,64,66339,1,8,0:0:0:0:
263,304,66857,1,0,0:0:0:0:
263,304,67719,1,8,0:0:0:0:
263,304,68236,1,0,0:0:0:0:
246,96,68753,1,8,0:0:0:0:
246,96,69098,1,0,0:0:0:0:
246,96,69443,1,0,0:0:0:0:
246,96,69615,1,0,0:0:0:0:
246,96,70477,1,0,0:0:0:0:
246,96,70995,1,0,0:0:0:0:
246,96,71167,1,8,0:0:0:0:
246,96,71339,1,0,0:0:0:0:
246,96,71512,1,8,0:0:0:0:
246,96,71684,1,0,0:0:0:0:
246,96,71857,1,8,0:0:0:0:
246,96,72374,1,0,0:0:0:0:
236,61,73236,1,8,0:0:0:0:
236,61,73753,1,0,0:0:0:0:
236,61,74270,1,8,0:0:0:0:
258,67,74615,5,0,0:0:0:0:
203,241,74701,1,0,0:0:0:0:
222,83,74788,1,8,0:0:0:0:
218,62,74874,1,0,0:0:0:0:
222,83,74960,1,8,0:0:0:0:
242,71,75133,1,0,0:0:0:0:
222,83,75305,1,8,0:0:0:0:
242,71,75650,1,8,0:0:0:0:
190,81,75822,1,8,0:0:0:0:
242,71,75995,1,0,0:0:0:0:
277,294,77374,5,8,0:0:0:0:
277,294,77546,1,0,0:0:0:0:
277,294,77719,1,8,0:0:0:0:
277,294,77891,1,0,0:0:0:0:
277,294,78064,1,8,0:0:0:0:
277,294,78236,1,0,0:0:0:0:
277,294,78408,1,8,0:0:0:0:
277,294,78581,1,0,0:0:0:0:
277,294,78753,1,8,0:0:0:0:
277,294,78926,1,0,0:0:0:0:
277,294,79098,1,8,0:0:0:0:
277,294,79270,1,0,0:0:0:0:
277,294,79443,1,8,0:0:0:0:
277,294,79615,1,0,0:0:0:0:
277,294,79788,1,8,0:0:0:0:
277,294,79960,1,0,0:0:0:0:
277,294,80133,1,8,0:0:0:0:
277,294,80305,1,8,0:0:0:0:
277,294,80477,1,0,0:0:0:0:
196,187,80650,1,0,0:0:0:0:
196,187,80822,1,8,0:0:0:0:
196,187,80995,1,8,0:0:0:0:
196,187,81167,1,0,0:0:0:0:
196,187,81339,1,0,0:0:0:0:
196,187,81512,1,8,0:0:0:0:
196,187,81684,1,8,0:0:0:0:
196,187,81857,5,0,0:0:0:0:
196,187,82029,1,0,0:0:0:0:
196,187,82201,1,8,0:0:0:0:
196,187,82374,1,8,0:0:0:0:
196,187,82546,1,0,0:0:0:0:
196,187,82719,1,0,0:0:0:0:
230,109,82891,1,0,0:0:0:0:
230,109,83064,1,0,0:0:0:0:
230,109,83150,1,0,0:0:0:0:
230,109,83236,1,8,0:0:0:0:
284,184,83322,1,8,0:0:0:0:
230,109,83408,1,0,0:0:0:0:
230,109,83581,1,8,0:0:0:0:
230,109,83667,1,8,0:0:0:0:
230,109,83753,1,0,0:0:0:0:
147,124,83926,1,0,0:0:0:0:
229,212,84012,1,0,0:0:0:0:
267,212,84098,1,8,0:0:0:0:
267,212,84184,1,0,0:0:0:0:
267,212,84270,1,8,0:0:0:0:
216,135,84443,1,8,0:0:0:0:
216,135,84615,1,8,0:0:0:0:
234,160,84701,1,0,0:0:0:0:
234,160,84788,1,0,0:0:0:0:
234,160,84960,1,8,0:0:0:0:
234,160,85046,1,8,0:0:0:0:
234,160,85133,1,0,0:0:0:0:
234,160,85219,1,0,0:0:0:0:
234,160,85305,1,8,0:0:0:0:
234,160,85477,1,8,0:0:0:0:
254,123,85650,1,0,0:0:0:0:
254,123,85736,1,8,0:0:0:0:
254,123,85822,1,0,0:0:0:0:
254,123,85908,1,0,0:0:0:0:
268,64,85995,1,8,0:0:0:0:
268,64,86167,1,8,0:0:0:0:
269,78,86339,1,0,0:0:0:0:
190,72,86426,1,0,0:0:0:0:
300,93,86512,1,0,0:0:0:0:
300,93,86684,1,0,0:0:0:0:
358,203,86770,1,8,0:0:0:0:
300,93,86857,1,8,0:0:0:0:
217,78,86943,1,8,0:0:0:0:
300,93,87029,1,0,0:0:0:0:
217,78,87201,1,0,0:0:0:0:
282,101,87374,1,8,0:0:0:0:
282,101,87460,5,0,0:0:0:0:
282,101,87546,1,0,0:0:0:0:
219,135,87633,1,0,0:0:0:0:
282,101,87719,1,8,0:0:0:0:
282,101,87891,1,0,0:0:0:0:
282,101,88064,1,8,0:0:0:0:
282,101,88236,1,8,0:0:0:0:
230,109,88408,1,0,0:0:0:0:
274,169,88581,1,8,0:0:0:0:
274,169,88667,1,0,0:0:0:0:
274,169,88753,1,0,0:0:0:0:
274,169,88926,1,0,0:0:0:0:
266,122,89098,1,8,0:0:0:0:
266,122,89184,1,8,0:0:0:0:
266,122,89270,1,0,0:0:0:0:
266,122,89443,1,0,0:0:0:0:
266,122,89529,1,0,0:0:0:0:
266,122,89615,1,8,0:0:0:0:
329,108,89701,1,0,0:0:0:0:
266,122,89788,1,8,0:0:0:0:
186,85,89874,1,8,0:0:0:0:
266,122,89960,1,0,0:0:0:0:
186,85,90133,1,8,0:0:0:0:
186,85,90305,1,0,0:0:0:0:
186,85,90477,1,8,0:0:0:0:
186,85,90564,1,0,0:0:0:0:
188,91,90650,1,8,0:0:0:0:
186,85,90822,1,8,0:0:0:0:
206,54,90908,1,8,0:0:0:0:
206,54,90995,1,8,0:0:0:0:
206,54,91167,1,0,0:0:0:0:
399,132,91282,1,8,0:0:0:0:
399,132,91397,1,0,0:0:0:0:
399,132,91512,1,8,0:0:0:0:
399,132,91627,1,8,0:0:0:0:
399,132,91742,1,0,0:0:0:0:
412,120,91857,1,8,0:0:0:0:
319,66,91943,1,8,0:0:0:0:
412,120,92029,1,0,0:0:0:0:
247,66,92201,1,8,0:0:0:0:
247,66,92288,1,8,0:0:0:0:
247,66,92374,1,8,0:0:0:0:
268,115,92546,1,8,0:0:0:0:
232,191,92633,1,8,0:0:0:0:
268,115,92719,1,0,0:0:0:0:
214,224,92805,1,0,0:0:0:0:
268,115,92891,1,8,0:0:0:0:
268,115,93064,1,8,0:0:0:0:
220,94,93236,1,8,0:0:0:0:
205,241,93322,1,8,0:0:0:0:
220,94,93408,1,0,0:0:0:0:
220,94,93581,1,8,0:0:0:0:
187,83,93753,1,8,0:0:0:0:
230,109,93926,1,0,0:0:0:0:
230,109,94098,1,8,0:0:0:0:
230,109,94184,1,8,0:0:0:0:
230,109,94270,1,8,0:0:0:0:
284,184,94357,1,8,0:0:0:0:
230,109,94443,1,0,0:0:0:0:
230,109,94615,1,0,0:0:0:0:
230,109,94701,1,0,0:0:0:0:
230,109,94788,1,8,0:0:0:0:
147,124,94960,1,8,0:0:0:0:
229,212,95046,1,0,0:0:0:0:
267,212,95133,1,8,0:0:0:0:
267,212,95219,1,8,0:0:0:0:
267,212,95305,1,0,0:0:0:0:
216,135,95477,1,0,0:0:0:0:
216,135,95650,1,8,0:0:0:0:
234,160,95736,1,8,0:0:0:0:
234,160,95822,1,0,0:0:0:0:
234,160,95995,1,8,0:0:0:0:
234,160,96081,1,8,0:0:0:0:
234,160,96167,1,8,0:0:0:0:
234,160,96253,1,0,0:0:0:0:
234,160,96339,1,8,0:0:0:0:
234,160,96512,1,8,0:0:0:0:
254,123,96684,1,0,0:0:0:0:
254,123,96770,1,0,0:0:0:0:
254,123,96857,1,0,0:0:0:0:
254,123,96943,1,0,0:0:0:0:
268,64,97029,1,8,0:0:0:0:
268,64,97201,1,8,0:0:0:0:
269,78,97374,1,8,0:0:0:0:
190,72,97460,1,0,0:0:0:0:
300,93,97546,1,0,0:0:0:0:
300,93,97719,1,0,0:0:0:0:
358,203,97805,1,0,0:0:0:0:
300,93,97891,1,0,0:0:0:0:
217,78,97977,1,8,0:0:0:0:
300,93,98064,1,0,0:0:0:0:
217,78,98236,1,0,0:0:0:0:
282,101,98408,1,8,0:0:0:0:
282,101,98495,1,0,0:0:0:0:
282,101,98581,1,0,0:0:0:0:
219,135,98667,5,0,0:0:0:0:
282,101,98753,1,8,0:0:0:0:
282,101,98926,1,0,0:0:0:0:
282,101,99098,1,8,0:0:0:0:
282,101,99270,1,8,0:0:0:0:
320,93,99443,1,0,0:0:0:0:
311,286,99788,5,8,0:0:0:0:
311,286,99960,1,0,0:0:0:0:
311,286,100133,1,8,0:0:0:0:
311,286,100219,1,8,0:0:0:0:
311,286,100305,1,0,0:0:0:0:
311,286,100477,1,8,0:0:0:0:
311,286,100650,1,8,0:0:0:0:
311,286,100822,1,0,0:0:0:0:
311,286,100908,1,0,0:0:0:0:
311,286,100995,1,8,0:0:0:0:
311,286,101167,1,8,0:0:0:0:
311,286,101339,1,0,0:0:0:0:
311,286,101512,1,0,0:0:0:0:
311,286,101598,1,0,0:0:0:0:
311,286,101684,1,0,0:0:0:0:
311,286,101857,1,8,0:0:0:0:
311,286,102201,1,8,0:0:0:0:
300,219,102374,1,0,0:0:0:0:
300,219,102546,1,8,0:0:0:0:
300,219,102633,1,8,0:0:0:0:
300,219,102719,1,0,0:0:0:0:
300,219,102891,1,8,0:0:0:0:
249,132,102977,1,8,0:0:0:0:
300,219,103064,1,8,0:0:0:0:
300,219,103236,1,8,0:0:0:0:
300,219,103322,1,0,0:0:0:0:
300,219,103408,1,0,0:0:0:0:
300,219,103581,1,8,0:0:0:0:
300,219,103753,1,0,0:0:0:0:
300,219,103839,1,0,0:0:0:0:
300,219,103926,1,8,0:0:0:0:
257,86,104012,1,0,0:0:0:0:
300,219,104098,1,8,0:0:0:0:
300,219,104270,1,8,0:0:0:0:
300,219,104357,1,8,0:0:0:0:
300,219,104443,1,0,0:0:0:0:
300,219,104615,1,8,0:0:0:0:
300,219,104788,1,8,0:0:0:0:
300,219,104960,1,0,0:0:0:0:
249,140,105133,1,0,0:0:0:0:
223,128,105219,1,0,0:0:0:0:
249,140,105305,1,8,0:0:0:0:
249,140,105477,1,8,0:0:0:0:
249,140,105650,1,8,0:0:0:0:
249,140,105736,1,8,0:0:0:0:
249,140,105822,1,0,0:0:0:0:
223,161,105995,1,8,0:0:0:0:
223,161,106167,1,0,0:0:0:0:
223,161,106339,1,8,0:0:0:0:
240,155,106426,1,8,0:0:0:0:
238,158,106512,1,0,0:0:0:0:
238,159,106598,1,0,0:0:0:0:
238,158,106684,1,8,0:0:0:0:
238,159,106857,1,8,0:0:0:0:
238,159,107029,1,0,0:0:0:0:
238,159,107201,1,8,0:0:0:0:
238,159,107288,1,0,0:0:0:0:
238,159,107374,1,8,0:0:0:0:
238,158,107546,1,8,0:0:0:0:
238,158,107719,1,0,0:0:0:0:
240,249,108064,1,8,0:0:0:0:
240,249,108236,1,0,0:0:0:0:
240,249,108408,1,8,0:0:0:0:
240,249,108495,1,8,0:0:0:0:
240,249,108581,1,0,0:0:0:0:
240,249,108753,1,0,0:0:0:0:
240,249,108926,1,8,0:0:0:0:
240,249,109098,1,0,0:0:0:0:
195,93,109184,1,0,0:0:0:0:
246,208,109270,1,8,0:0:0:0:
181,68,109357,1,0,0:0:0:0:
234,163,109443,1,8,0:0:0:0:
234,163,109615,1,0,0:0:0:0:
234,163,109788,1,8,0:0:0:0:
250,116,109960,1,0,0:0:0:0:
250,116,110133,1,8,0:0:0:0:
313,247,110219,1,8,0:0:0:0:
250,116,110305,1,0,0:0:0:0:
250,116,110477,1,0,0:0:0:0:
254,101,110650,1,8,0:0:0:0:
254,101,110736,1,8,0:0:0:0:
254,101,110822,1,0,0:0:0:0:
243,73,111167,1,0,0:0:0:0:
259,71,111253,1,0,0:0:0:0:
243,73,111339,1,8,0:0:0:0:
243,73,111426,1,8,0:0:0:0:
235,90,111512,1,0,0:0:0:0:
235,89,111684,1,0,0:0:0:0:
235,89,111857,1,8,0:0:0:0:
235,89,112029,1,0,0:0:0:0:
235,88,112115,1,0,0:0:0:0:
235,88,112201,1,8,0:0:0:0:
235,88,112374,1,0,0:0:0:0:
235,90,112546,1,8,0:0:0:0:
235,89,112633,1,8,0:0:0:0:
235,89,112719,1,0,0:0:0:0:
235,89,112891,1,8,0:0:0:0:
187,89,113236,1,0,0:0:0:0:
187,89,113408,1,0,0:0:0:0:
275,135,113495,1,0,0:0:0:0:
187,89,113581,1,8,0:0:0:0:
187,89,113667,1,0,0:0:0:0:
187,89,113753,1,8,0:0:0:0:
187,89,113926,1,8,0:0:0:0:
187,89,114098,1,0,0:0:0:0:
196,152,114184,1,0,0:0:0:0:
187,89,114270,1,8,0:0:0:0:
187,89,114443,1,0,0:0:0:0:
196,152,114615,1,8,0:0:0:0:
199,133,114788,1,0,0:0:0:0:
199,134,114960,1,8,0:0:0:0:
225,69,115046,1,8,0:0:0:0:
199,134,115133,1,0,0:0:0:0:
164,31,115305,1,8,0:0:0:0:
199,134,115477,1,0,0:0:0:0:
199,134,115650,1,8,0:0:0:0:
224,99,115736,1,0,0:0:0:0:
199,133,115822,1,8,0:0:0:0:
199,134,115995,1,0,0:0:0:0:
245,129,116167,1,0,0:0:0:0:
245,129,116253,1,0,0:0:0:0:
245,129,116339,1,8,0:0:0:0:
245,129,116512,1,0,0:0:0:0:
245,129,116684,1,8,0:0:0:0:
245,129,116770,1,8,0:0:0:0:
245,129,116857,1,0,0:0:0:0:
245,129,117029,1,8,0:0:0:0:
190,92,117115,1,0,0:0:0:0:
190,92,117201,1,0,0:0:0:0:
245,129,117374,1,8,0:0:0:0:
245,129,117546,1,0,0:0:0:0:
291,128,117633,1,0,0:0:0:0:
252,94,117719,1,8,0:0:0:0:
252,94,117891,1,0,0:0:0:0:
252,94,118064,1,8,0:0:0:0:
164,167,118150,1,8,0:0:0:0:
252,94,118236,1,0,0:0:0:0:
252,94,118408,1,8,0:0:0:0:
252,94,118495,1,0,0:0:0:0:
252,94,118581,1,0,0:0:0:0:
252,94,118753,1,0,0:0:0:0:
252,94,118839,1,8,0:0:0:0:
252,94,118926,1,0,0:0:0:0:
252,94,119012,1,8,0:0:0:0:
252,94,119098,1,8,0:0:0:0:
252,94,119270,1,8,0:0:0:0:
252,94,119443,1,8,0:0:0:0:
252,94,119529,1,8,0:0:0:0:
252,94,119615,1,0,0:0:0:0:
252,94,119701,1,0,0:0:0:0:
252,94,119788,1,8,0:0:0:0:
252,94,119960,5,8,0:0:0:0:
252,94,120133,1,0,0:0:0:0:
252,94,120305,1,8,0:0:0:0:
252,94,120391,1,0,0:0:0:0:
235,71,120477,1,8,0:0:0:0:
235,71,120564,1,8,0:0:0:0:
237,90,120650,1,0,0:0:0:0:
237,91,120822,1,8,0:0:0:0:
202,185,120995,5,0,0:0:0:0:
202,185,121167,5,8,0:0:0:0:
202,185,121339,1,8,0:0:0:0:
328,286,121512,5,0,0:0:0:0:
328,286,121857,1,8,0:0:0:0:
328,286,122029,1,0,0:0:0:0:
328,286,122115,1,0,0:0:0:0:
328,286,122201,1,8,0:0:0:0:
328,286,122288,1,8,0:0:0:0:
328,286,122374,1,0,0:0:0:0:
328,286,122546,1,8,0:0:0:0:
328,286,122719,1,0,0:0:0:0:
328,286,122891,1,0,0:0:0:0:
292,101,123064,1,0,0:0:0:0:
292,101,123150,1,0,0:0:0:0:
328,286,123236,1,8,0:0:0:0:
328,286,123408,1,0,0:0:0:0:
328,286,123581,1,8,0:0:0:0:
189,102,123667,1,8,0:0:0:0:
328,286,123753,1,0,0:0:0:0:
328,286,123926,1,8,0:0:0:0:
223,164,124270,1,8,0:0:0:0:
223,164,124443,1,0,0:0:0:0:
223,164,124529,1,0,0:0:0:0:
223,164,124615,1,8,0:0:0:0:
223,164,124788,1,0,0:0:0:0:
208,176,124874,1,8,0:0:0:0:
208,176,124960,1,8,0:0:0:0:
208,176,125046,1,8,0:0:0:0:
208,176,125133,1,0,0:0:0:0:
189,131,125305,1,8,0:0:0:0:
189,131,125477,1,0,0:0:0:0:
205,206,125650,1,8,0:0:0:0:
205,206,125995,1,0,0:0:0:0:
205,206,126339,1,8,0:0:0:0:
205,206,126684,1,0,0:0:0:0:
205,206,127029,1,0,0:0:0:0:
216,205,127201,1,0,0:0:0:0:
216,205,127288,1,0,0:0:0:0:
216,205,127374,1,8,0:0:0:0:
207,195,127546,1,8,0:0:0:0:
207,195,127633,1,0,0:0:0:0:
207,195,127719,1,8,0:0:0:0:
207,195,127805,1,8,0:0:0:0:
207,195,127891,1,0,0:0:0:0:
207,195,128064,1,8,0:0:0:0:
207,195,128236,1,8,0:0:0:0:
207,195,128408,1,0,0:0:0:0:
207,195,128581,1,8,0:0:0:0:
207,195,128667,1,0,0:0:0:0:
207,195,128753,1,8,0:0:0:0:
207,195,128926,1,0,0:0:0:0:
211,143,129098,1,8,0:0:0:0:
216,59,129184,1,8,0:0:0:0:
211,143,129270,1,0,0:0:0:0:
211,143,129443,1,8,0:0:0:0:
211,143,129788,1,8,0:0:0:0:
229,83,129960,1,0,0:0:0:0:
229,83,130046,1,0,0:0:0:0:
211,143,130133,1,8,0:0:0:0:
229,83,130305,1,0,0:0:0:0:
229,83,130477,1,0,0:0:0:0:
254,80,130564,1,0,0:0:0:0:
254,64,130650,1,8,0:0:0:0:
270,60,130822,5,0,0:0:0:0:
270,60,131167,1,8,0:0:0:0:
270,60,131512,1,0,0:0:0:0:
270,60,131857,1,8,0:0:0:0:
270,60,132201,1,0,0:0:0:0:
