osu file format v14

[General]
AudioFilename: audio.mp3
AudioLeadIn: 0
PreviewTime: 89759
Countdown: 0
SampleSet: Normal
StackLeniency: 0.7
Mode: 1
LetterboxInBreaks: 0
WidescreenStoryboard: 0

[Editor]
Bookmarks: 19943,29927,59880,89834,94826,99817,119786
DistanceSpacing: 1.4
BeatDivisor: 8
GridSize: 8
TimelineZoom: 1.488

[Metadata]
Title:Close Eyes
TitleUnicode:Close Eyes
Artist:DVRST
ArtistUnicode:DVRST
Creator:SWAKE
Version:Oni
Source:
Tags:ryxliee tachibana_ hip-hop rap english phonk house phonkhouse phonkwave project pat Still Ridin' Clean Kicking'n Doors electronic hip hop instrumental
BeatmapID:3998621
BeatmapSetID:1934919

[Difficulty]
HPDrainRate:5
CircleSize:5
OverallDifficulty:6
ApproachRate:5
SliderMultiplier:2.8
SliderTickRate:1

[Events]
//Background and Video events
0,0,"asd.png",0,-5
//Break Periods
//Storyboard Layer 0 (Background)
//Storyboard Layer 1 (Fail)
//Storyboard Layer 2 (Pass)
//Storyboard Layer 3 (Foreground)
//Storyboard Layer 4 (Overlay)
//Storyboard Sound Samples

[TimingPoints]
-22,624.02496099844,4,1,0,50,1,0
-22,-200,4,1,0,50,0,0
19946,-100,4,1,0,50,0,1
37419,-100,4,1,0,50,0,0
39915,-100,4,1,0,50,0,1
59884,-100,4,1,0,50,0,0
60350,-100.4329004329,4,1,0,50,0,0
60506,-100.869565217391,4,1,0,50,0,0
60818,-101.754385964912,4,1,0,50,0,0
62378,-106.422018348624,4,1,0,50,0,0
64250,-112.621359223301,4,1,0,50,0,0
64562,-113.725490196078,4,1,0,50,0,0
64874,-114.851485148515,4,1,0,50,0,0
65186,-116,4,1,0,50,0,0
65342,-116.582914572864,4,1,0,50,0,0
65498,-117.171717171717,4,1,0,50,0,0
65810,-118.367346938776,4,1,0,50,0,0
67370,-124.731182795699,4,1,0,50,0,0
68930,-131.818181818182,4,1,0,50,0,0
69242,-133.333333333333,4,1,0,50,0,0
69868,-133.333333333333,4,1,0,50,0,0
79775,-133.333333333333,4,1,0,25,0,0
84767,-133.333333333333,4,1,0,50,0,0
89837,-100,4,1,0,50,0,1
92333,-100,4,1,0,50,0,0
92411,-200,4,1,0,50,0,0
93579,-134.745054332683,4,1,0,50,0,0
94203,-114.787562307145,4,1,0,50,0,0
94358,-110.714285714286,4,1,0,50,0,0
94514,-106.896551724138,4,1,0,50,0,0
94670,-103.333333333333,4,1,0,50,0,0
94829,-100,4,1,0,50,0,1
98105,-100,4,1,0,50,0,0
99821,-100,4,1,0,50,0,1
119790,-100,4,1,0,50,0,0

[HitObjects]
199,244,9962,5,0,0:0:0:0:
199,244,10430,1,0,0:0:0:0:
295,124,10898,1,8,0:0:0:0:
292,123,12458,1,0,0:0:0:0:
292,123,12926,1,0,0:0:0:0:
292,123,13394,1,8,0:0:0:0:
292,123,14330,1,8,0:0:0:0:
292,123,14954,1,0,0:0:0:0:
292,123,15422,1,8,0:0:0:0:
292,123,15890,1,8,0:0:0:0:
281,106,17450,5,0,0:0:0:0:
281,106,17918,1,8,0:0:0:0:
280,111,18386,1,8,0:0:0:0:
228,164,19946,5,4,0:0:0:0:
265,181,20102,1,8,0:0:0:0:
232,222,20258,1,0,0:0:0:0:
232,222,20414,1,8,0:0:0:0:
232,222,20570,1,8,0:0:0:0:
267,190,20882,1,0,0:0:0:0:
267,190,21194,1,0,0:0:0:0:
267,190,21350,1,8,0:0:0:0:
267,190,21506,1,8,0:0:0:0:
267,190,21662,1,0,0:0:0:0:
267,190,21740,1,0,0:0:0:0:
304,129,21818,1,8,0:0:0:0:
304,129,22130,1,8,0:0:0:0:
304,117,22442,1,0,0:0:0:0:
304,117,22598,1,0,0:0:0:0:
306,117,22676,1,8,0:0:0:0:
306,117,22754,1,0,0:0:0:0:
332,73,22910,1,0,0:0:0:0:
306,117,23066,1,8,0:0:0:0:
311,100,23378,1,8,0:0:0:0:
311,100,23534,1,0,0:0:0:0:
311,100,23690,1,0,0:0:0:0:
311,100,23846,1,0,0:0:0:0:
311,100,24002,1,8,0:0:0:0:
311,100,24158,1,8,0:0:0:0:
296,102,24314,1,8,0:0:0:0:
296,102,24392,1,8,0:0:0:0:
296,102,24470,1,0,0:0:0:0:
296,102,24626,1,8,0:0:0:0:
296,102,24704,1,8,0:0:0:0:
294,103,24782,1,8,0:0:0:0:
336,87,24938,1,0,0:0:0:0:
194,73,25095,1,8,0:0:0:0:
210,65,25173,1,8,0:0:0:0:
331,94,25251,1,0,0:0:0:0:
436,117,25407,1,0,0:0:0:0:
207,63,25563,1,8,0:0:0:0:
194,73,25875,1,0,0:0:0:0:
194,73,26031,1,8,0:0:0:0:
197,73,26187,1,0,0:0:0:0:
218,111,26265,1,8,0:0:0:0:
208,103,26343,1,0,0:0:0:0:
208,103,26499,1,8,0:0:0:0:
208,103,26655,1,0,0:0:0:0:
230,117,26811,1,8,0:0:0:0:
231,117,26889,1,8,0:0:0:0:
234,116,26967,1,0,0:0:0:0:
234,116,27123,1,8,0:0:0:0:
244,121,27435,1,0,0:0:0:0:
244,121,27591,1,0,0:0:0:0:
245,121,27669,1,8,0:0:0:0:
244,121,27747,1,8,0:0:0:0:
245,121,27903,1,0,0:0:0:0:
245,121,28059,1,8,0:0:0:0:
244,121,28371,1,8,0:0:0:0:
244,121,28527,1,0,0:0:0:0:
245,121,28683,1,8,0:0:0:0:
245,121,28839,1,8,0:0:0:0:
245,121,28995,1,0,0:0:0:0:
244,121,29151,1,8,0:0:0:0:
244,121,29307,1,0,0:0:0:0:
244,121,29385,1,0,0:0:0:0:
244,121,29463,1,8,0:0:0:0:
403,178,29541,1,0,0:0:0:0:
245,121,29619,1,8,0:0:0:0:
228,164,29931,5,0,0:0:0:0:
265,181,30087,1,8,0:0:0:0:
232,222,30243,1,0,0:0:0:0:
232,222,30399,1,0,0:0:0:0:
232,222,30555,1,8,0:0:0:0:
267,190,30867,1,0,0:0:0:0:
267,190,31179,1,0,0:0:0:0:
267,190,31335,1,0,0:0:0:0:
267,190,31491,1,8,0:0:0:0:
267,190,31647,1,8,0:0:0:0:
267,190,31725,1,0,0:0:0:0:
304,129,31803,1,8,0:0:0:0:
304,129,32115,1,8,0:0:0:0:
304,117,32427,1,0,0:0:0:0:
304,117,32583,1,8,0:0:0:0:
306,117,32661,1,8,0:0:0:0:
306,117,32739,1,0,0:0:0:0:
332,73,32895,1,0,0:0:0:0:
306,117,33051,1,8,0:0:0:0:
311,100,33363,1,8,0:0:0:0:
311,100,33519,1,0,0:0:0:0:
311,100,33675,1,0,0:0:0:0:
311,100,33831,1,0,0:0:0:0:
311,100,33987,1,8,0:0:0:0:
311,100,34143,1,8,0:0:0:0:
296,102,34299,1,8,0:0:0:0:
296,102,34377,1,8,0:0:0:0:
296,102,34455,1,0,0:0:0:0:
296,102,34611,1,8,0:0:0:0:
296,102,34689,1,8,0:0:0:0:
294,103,34767,1,0,0:0:0:0:
336,87,34923,1,0,0:0:0:0:
194,73,35079,1,8,0:0:0:0:
210,65,35157,1,0,0:0:0:0:
331,94,35235,1,0,0:0:0:0:
436,117,35391,1,0,0:0:0:0:
207,63,35547,1,8,0:0:0:0:
194,73,35859,1,0,0:0:0:0:
194,73,36015,1,8,0:0:0:0:
197,73,36171,1,8,0:0:0:0:
218,111,36249,1,8,0:0:0:0:
208,103,36327,1,0,0:0:0:0:
208,103,36483,1,8,0:0:0:0:
208,103,36639,1,0,0:0:0:0:
230,117,36795,1,0,0:0:0:0:
231,117,36873,1,8,0:0:0:0:
234,116,36951,1,0,0:0:0:0:
234,116,37107,1,8,0:0:0:0:
244,121,37419,1,0,0:0:0:0:
244,121,37575,1,0,0:0:0:0:
245,121,37653,1,0,0:0:0:0:
244,121,37731,1,8,0:0:0:0:
245,121,37887,1,0,0:0:0:0:
245,121,38043,1,8,0:0:0:0:
244,121,38355,1,8,0:0:0:0:
244,121,38511,1,0,0:0:0:0:
245,121,38667,1,8,0:0:0:0:
245,121,38823,1,8,0:0:0:0:
245,121,38979,1,0,0:0:0:0:
244,121,39135,1,8,0:0:0:0:
310,81,39291,1,0,0:0:0:0:
292,88,39447,1,8,0:0:0:0:
292,89,39603,1,8,0:0:0:0:
292,89,39759,1,8,0:0:0:0:
409,182,39915,1,4,0:0:0:0:
409,182,40227,1,0,0:0:0:0:
409,182,40383,1,0,0:0:0:0:
409,182,40539,1,8,0:0:0:0:
409,182,40851,1,8,0:0:0:0:
409,182,41163,1,0,0:0:0:0:
409,182,41475,1,8,0:0:0:0:
409,182,41631,1,0,0:0:0:0:
409,182,41787,1,8,0:0:0:0:
409,182,41943,1,0,0:0:0:0:
409,182,42099,1,8,0:0:0:0:
402,184,42411,1,0,0:0:0:0:
402,184,42723,1,8,0:0:0:0:
256,125,42879,1,0,0:0:0:0:
305,62,43035,1,8,0:0:0:0:
256,125,43347,1,0,0:0:0:0:
256,142,43659,1,8,0:0:0:0:
252,134,43971,1,0,0:0:0:0:
252,134,44127,1,0,0:0:0:0:
252,134,44283,1,8,0:0:0:0:
429,106,44439,1,0,0:0:0:0:
252,134,44595,1,8,0:0:0:0:
274,173,44907,1,0,0:0:0:0:
331,163,45219,1,0,0:0:0:0:
331,163,45375,1,8,0:0:0:0:
331,163,45531,1,8,0:0:0:0:
331,163,45843,1,8,0:0:0:0:
331,163,46155,1,0,0:0:0:0:
331,163,46467,1,0,0:0:0:0:
331,163,46623,1,8,0:0:0:0:
331,163,46779,1,8,0:0:0:0:
327,167,46935,1,0,0:0:0:0:
327,167,47091,1,8,0:0:0:0:
327,167,47403,1,0,0:0:0:0:
327,167,47715,1,8,0:0:0:0:
327,167,47871,1,0,0:0:0:0:
327,167,48027,1,8,0:0:0:0:
327,167,48339,1,8,0:0:0:0:
327,167,48651,1,0,0:0:0:0:
327,167,48963,1,0,0:0:0:0:
327,167,49119,1,8,0:0:0:0:
327,167,49275,1,8,0:0:0:0:
327,167,49431,1,0,0:0:0:0:
327,167,49587,1,8,0:0:0:0:
327,167,49743,1,8,0:0:0:0:
409,182,49899,1,0,0:0:0:0:
409,182,50212,1,8,0:0:0:0:
409,182,50368,1,0,0:0:0:0:
409,182,50524,1,8,0:0:0:0:
409,182,50836,1,8,0:0:0:0:
409,182,51148,1,0,0:0:0:0:
409,182,51460,1,8,0:0:0:0:
409,182,51616,1,0,0:0:0:0:
409,182,51772,1,8,0:0:0:0:
409,182,51928,1,0,0:0:0:0:
409,182,52084,1,0,0:0:0:0:
402,184,52396,1,0,0:0:0:0:
402,184,52708,1,0,0:0:0:0:
256,125,52864,1,8,0:0:0:0:
305,62,53020,1,8,0:0:0:0:
256,125,53332,1,0,0:0:0:0:
256,142,53644,1,8,0:0:0:0:
252,134,53956,1,8,0:0:0:0:
252,134,54112,1,0,0:0:0:0:
252,134,54268,1,8,0:0:0:0:
429,106,54424,1,8,0:0:0:0:
252,134,54580,1,0,0:0:0:0:
274,173,54892,1,0,0:0:0:0:
331,163,55204,1,0,0:0:0:0:
331,163,55360,1,8,0:0:0:0:
331,163,55516,1,8,0:0:0:0:
331,163,55828,1,8,0:0:0:0:
331,163,56140,1,0,0:0:0:0:
331,163,56452,1,8,0:0:0:0:
331,163,56608,1,8,0:0:0:0:
331,163,56764,1,8,0:0:0:0:
327,167,56920,1,0,0:0:0:0:
327,167,57076,1,8,0:0:0:0:
327,167,57388,1,0,0:0:0:0:
327,167,57700,1,0,0:0:0:0:
327,167,57856,1,8,0:0:0:0:
327,167,58012,1,8,0:0:0:0:
327,167,58324,1,8,0:0:0:0:
327,167,58636,1,0,0:0:0:0:
327,167,58948,5,0,0:0:0:0:
327,167,59104,1,8,0:0:0:0:
327,167,59260,1,8,0:0:0:0:
209,159,59416,1,0,0:0:0:0:
327,167,59572,1,8,0:0:0:0:
327,167,59728,1,8,0:0:0:0:
327,167,59884,1,0,0:0:0:0:
320,232,60196,1,0,0:0:0:0:
320,232,60352,1,0,0:0:0:0:
320,232,60508,1,8,0:0:0:0:
320,232,60820,1,8,0:0:0:0:
190,306,62380,1,8,0:0:0:0:
258,281,64252,1,8,0:0:0:0:
258,281,64564,1,8,0:0:0:0:
258,281,64876,1,0,0:0:0:0:
258,281,65188,1,0,0:0:0:0:
258,281,65344,1,0,0:0:0:0:
258,281,65500,1,8,0:0:0:0:
258,281,65812,1,8,0:0:0:0:
231,170,67372,1,8,0:0:0:0:
231,170,68932,1,8,0:0:0:0:
231,170,69244,1,0,0:0:0:0:
301,76,69868,1,0,0:0:0:0:
374,126,70336,1,0,0:0:0:0:
374,126,70804,1,8,0:0:0:0:
313,130,71116,1,0,0:0:0:0:
313,130,71584,1,0,0:0:0:0:
313,130,72052,1,8,0:0:0:0:
313,130,72364,1,0,0:0:0:0:
313,130,72832,1,0,0:0:0:0:
313,130,73300,1,8,0:0:0:0:
313,130,73612,1,0,0:0:0:0:
313,130,74080,1,0,0:0:0:0:
313,130,74548,1,8,0:0:0:0:
313,130,74860,1,8,0:0:0:0:
274,136,75329,1,0,0:0:0:0:
274,136,75797,1,8,0:0:0:0:
274,136,76109,1,8,0:0:0:0:
274,136,76577,1,0,0:0:0:0:
274,136,77045,1,8,0:0:0:0:
274,136,77357,1,8,0:0:0:0:
274,136,77825,1,0,0:0:0:0:
274,136,78293,1,8,0:0:0:0:
274,136,78605,1,0,0:0:0:0:
274,136,79073,1,8,0:0:0:0:
274,136,79541,1,8,0:0:0:0:
367,285,79853,1,0,0:0:0:0:
312,157,80165,1,0,0:0:0:0:
312,157,80321,1,0,0:0:0:0:
353,181,80477,1,8,0:0:0:0:
312,157,80789,1,0,0:0:0:0:
336,183,80945,1,8,0:0:0:0:
336,183,81101,1,0,0:0:0:0:
305,68,81413,1,0,0:0:0:0:
325,199,81725,1,8,0:0:0:0:
305,73,81881,1,8,0:0:0:0:
305,73,82037,1,0,0:0:0:0:
286,66,82349,1,0,0:0:0:0:
284,78,82505,1,8,0:0:0:0:
283,79,82583,1,8,0:0:0:0:
284,78,82661,1,0,0:0:0:0:
283,63,82817,1,8,0:0:0:0:
325,199,82973,1,0,0:0:0:0:
324,55,83129,1,8,0:0:0:0:
324,55,83285,1,0,0:0:0:0:
324,55,83597,1,8,0:0:0:0:
388,78,83909,1,0,0:0:0:0:
197,146,84065,1,0,0:0:0:0:
308,211,84221,1,8,0:0:0:0:
280,98,84377,1,8,0:0:0:0:
280,98,84533,1,0,0:0:0:0:
308,211,84845,1,0,0:0:0:0:
308,211,85313,1,0,0:0:0:0:
308,211,85781,1,8,0:0:0:0:
308,211,86093,1,0,0:0:0:0:
308,211,86561,1,0,0:0:0:0:
308,211,87029,1,8,0:0:0:0:
308,211,87341,1,0,0:0:0:0:
308,211,87809,1,0,0:0:0:0:
308,211,88277,1,8,0:0:0:0:
308,211,88589,1,0,0:0:0:0:
308,211,89057,1,8,0:0:0:0:
308,211,89525,1,8,0:0:0:0:
312,296,89837,5,4,0:0:0:0:
264,215,89993,1,8,0:0:0:0:
264,215,90149,1,0,0:0:0:0:
264,215,90305,1,8,0:0:0:0:
264,215,90461,1,4,0:0:0:0:
373,203,90773,1,8,0:0:0:0:
282,190,91085,1,4,0:0:0:0:
282,190,91241,1,8,0:0:0:0:
235,180,91397,1,8,0:0:0:0:
235,180,91553,1,8,0:0:0:0:
235,180,91709,1,4,0:0:0:0:
235,180,92021,1,8,0:0:0:0:
317,138,93581,1,0,0:0:0:0:
317,138,94205,1,8,0:0:0:0:
116,183,94361,1,0,0:0:0:0:
317,138,94517,1,8,0:0:0:0:
148,205,94673,1,8,0:0:0:0:
336,87,94829,1,0,0:0:0:0:
194,73,94985,1,0,0:0:0:0:
210,65,95063,1,8,0:0:0:0:
331,94,95141,1,0,0:0:0:0:
436,117,95297,1,0,0:0:0:0:
207,63,95453,1,8,0:0:0:0:
194,73,95765,1,0,0:0:0:0:
194,73,95921,1,8,0:0:0:0:
197,73,96077,1,8,0:0:0:0:
218,111,96155,1,8,0:0:0:0:
208,103,96233,1,0,0:0:0:0:
208,103,96389,1,8,0:0:0:0:
208,103,96545,1,0,0:0:0:0:
230,117,96701,1,8,0:0:0:0:
231,117,96779,1,0,0:0:0:0:
234,116,96857,1,0,0:0:0:0:
234,116,97013,1,8,0:0:0:0:
244,121,97325,1,0,0:0:0:0:
244,121,97481,1,8,0:0:0:0:
245,121,97559,1,8,0:0:0:0:
244,121,97637,1,0,0:0:0:0:
245,121,97793,1,0,0:0:0:0:
245,121,97949,1,8,0:0:0:0:
224,97,98105,1,0,0:0:0:0:
244,121,98261,1,8,0:0:0:0:
244,121,98417,1,0,0:0:0:0:
245,121,98573,1,8,0:0:0:0:
245,121,98729,1,0,0:0:0:0:
476,241,98885,1,0,0:0:0:0:
445,210,99197,1,8,0:0:0:0:
331,179,99353,1,8,0:0:0:0:
245,121,99509,1,8,0:0:0:0:
334,193,99665,1,8,0:0:0:0:
228,164,99821,5,4,0:0:0:0:
265,181,99978,1,8,0:0:0:0:
232,222,100134,1,0,0:0:0:0:
232,222,100290,1,8,0:0:0:0:
232,222,100446,1,8,0:0:0:0:
267,190,100758,1,0,0:0:0:0:
267,190,101070,1,0,0:0:0:0:
267,190,101226,1,8,0:0:0:0:
267,190,101382,1,8,0:0:0:0:
267,190,101538,1,0,0:0:0:0:
267,190,101616,1,0,0:0:0:0:
304,129,101694,1,8,0:0:0:0:
318,199,101850,1,0,0:0:0:0:
304,129,102006,1,8,0:0:0:0:
304,117,102318,1,0,0:0:0:0:
304,117,102474,1,0,0:0:0:0:
306,117,102552,1,8,0:0:0:0:
306,117,102630,1,0,0:0:0:0:
332,73,102786,1,0,0:0:0:0:
306,117,102942,1,8,0:0:0:0:
430,158,103098,1,0,0:0:0:0:
311,100,103254,1,8,0:0:0:0:
311,100,103410,1,0,0:0:0:0:
311,100,103566,1,0,0:0:0:0:
311,100,103722,1,0,0:0:0:0:
311,100,103878,1,8,0:0:0:0:
311,100,104034,1,8,0:0:0:0:
296,102,104190,1,8,0:0:0:0:
296,102,104268,1,8,0:0:0:0:
296,102,104346,1,0,0:0:0:0:
296,102,104502,1,8,0:0:0:0:
296,102,104580,1,8,0:0:0:0:
294,103,104658,1,8,0:0:0:0:
336,87,104814,1,0,0:0:0:0:
194,73,104970,1,8,0:0:0:0:
210,65,105048,1,8,0:0:0:0:
331,94,105126,1,0,0:0:0:0:
436,117,105282,1,0,0:0:0:0:
207,63,105438,1,8,0:0:0:0:
194,73,105750,1,0,0:0:0:0:
194,73,105906,1,8,0:0:0:0:
197,73,106062,1,0,0:0:0:0:
218,111,106140,1,8,0:0:0:0:
208,103,106218,1,0,0:0:0:0:
208,103,106374,1,8,0:0:0:0:
208,103,106530,1,0,0:0:0:0:
230,117,106686,1,8,0:0:0:0:
231,117,106764,1,8,0:0:0:0:
234,116,106842,1,0,0:0:0:0:
234,116,106998,1,8,0:0:0:0:
244,121,107310,1,0,0:0:0:0:
244,121,107466,1,0,0:0:0:0:
245,121,107544,1,8,0:0:0:0:
244,121,107622,1,8,0:0:0:0:
245,121,107778,1,0,0:0:0:0:
245,121,107934,1,8,0:0:0:0:
268,228,108090,1,0,0:0:0:0:
244,121,108246,1,8,0:0:0:0:
244,121,108402,1,0,0:0:0:0:
245,121,108558,1,8,0:0:0:0:
245,121,108714,1,8,0:0:0:0:
245,121,108870,1,0,0:0:0:0:
244,121,109026,1,8,0:0:0:0:
244,121,109182,1,0,0:0:0:0:
244,121,109260,1,0,0:0:0:0:
244,121,109338,1,8,0:0:0:0:
403,178,109416,1,0,0:0:0:0:
245,121,109494,1,8,0:0:0:0:
228,164,109806,5,0,0:0:0:0:
265,181,109962,1,8,0:0:0:0:
232,222,110118,1,0,0:0:0:0:
232,222,110274,1,0,0:0:0:0:
232,222,110430,1,8,0:0:0:0:
267,190,110742,1,0,0:0:0:0:
267,190,111054,1,0,0:0:0:0:
267,190,111210,1,0,0:0:0:0:
267,190,111366,1,8,0:0:0:0:
267,190,111522,1,8,0:0:0:0:
267,190,111600,1,0,0:0:0:0:
304,129,111678,1,8,0:0:0:0:
399,161,111834,1,0,0:0:0:0:
304,129,111990,1,8,0:0:0:0:
304,117,112302,1,0,0:0:0:0:
304,117,112458,1,8,0:0:0:0:
306,117,112536,1,8,0:0:0:0:
306,117,112614,1,0,0:0:0:0:
332,73,112770,1,0,0:0:0:0:
306,117,112926,1,8,0:0:0:0:
393,167,113082,1,0,0:0:0:0:
311,100,113238,1,8,0:0:0:0:
311,100,113394,1,0,0:0:0:0:
311,100,113550,1,0,0:0:0:0:
311,100,113706,1,0,0:0:0:0:
311,100,113862,1,8,0:0:0:0:
311,100,114018,1,8,0:0:0:0:
296,102,114174,1,8,0:0:0:0:
296,102,114252,1,8,0:0:0:0:
296,102,114330,1,0,0:0:0:0:
296,102,114486,1,8,0:0:0:0:
296,102,114564,1,8,0:0:0:0:
294,103,114642,1,0,0:0:0:0:
336,87,114798,1,0,0:0:0:0:
194,73,114954,1,8,0:0:0:0:
210,65,115032,1,0,0:0:0:0:
331,94,115110,1,0,0:0:0:0:
436,117,115266,1,0,0:0:0:0:
207,63,115422,1,8,0:0:0:0:
194,73,115734,1,0,0:0:0:0:
194,73,115890,1,8,0:0:0:0:
197,73,116046,1,8,0:0:0:0:
218,111,116124,1,8,0:0:0:0:
208,103,116202,1,0,0:0:0:0:
208,103,116358,1,8,0:0:0:0:
208,103,116514,1,0,0:0:0:0:
230,117,116670,1,0,0:0:0:0:
231,117,116748,1,8,0:0:0:0:
234,116,116826,1,0,0:0:0:0:
234,116,116982,1,8,0:0:0:0:
244,121,117294,1,0,0:0:0:0:
244,121,117450,1,0,0:0:0:0:
245,121,117528,1,0,0:0:0:0:
244,121,117606,1,8,0:0:0:0:
245,121,117762,1,0,0:0:0:0:
245,121,117918,1,8,0:0:0:0:
377,198,118074,1,0,0:0:0:0:
244,121,118230,1,8,0:0:0:0:
244,121,118386,1,0,0:0:0:0:
245,121,118542,1,8,0:0:0:0:
245,121,118698,1,8,0:0:0:0:
245,121,118854,1,0,0:0:0:0:
244,121,119010,1,0,0:0:0:0:
285,114,119166,1,8,0:0:0:0:
283,71,119322,1,8,0:0:0:0:
245,121,119478,1,8,0:0:0:0:
283,71,119634,1,8,0:0:0:0:
409,182,119790,1,0,0:0:0:0:
371,80,120258,1,0,0:0:0:0:
