osu file format v14

[General]
AudioFilename: audio.ogg
AudioLeadIn: 0
PreviewTime: 69866
Countdown: 0
SampleSet: Soft
StackLeniency: 0.7
Mode: 3
LetterboxInBreaks: 0
SpecialStyle: 0
WidescreenStoryboard: 0

[Editor]
DistanceSpacing: 1.6
BeatDivisor: 8
GridSize: 4
TimelineZoom: 1.8

[Metadata]
Title:Close Eyes
TitleUnicode:Close Eyes
Artist:DVRST
ArtistUnicode:DVRST
Creator:Plutes
Version:Hard
Source:
Tags:hip-hop rap chordjacks cj english phonk house phonkhouse phonkwave project pat Still Ridin' Clean Kicking'n Doors
BeatmapID:3497870
BeatmapSetID:1603090

[Difficulty]
HPDrainRate:8
CircleSize:4
OverallDifficulty:8
ApproachRate:5
SliderMultiplier:1.4
SliderTickRate:1

[Events]
//Background and Video events
0,0,"bg.png",0,0
//Break Periods
//Storyboard Layer 0 (Background)
//Storyboard Layer 1 (Fail)
//Storyboard Layer 2 (Pass)
//Storyboard Layer 3 (Foreground)
//Storyboard Layer 4 (Overlay)
//Storyboard Sound Samples

[TimingPoints]
9959,624.02496099844,4,2,1,35,1,0
19943,-100,4,2,1,45,0,1
37416,-100,4,2,1,40,0,0
39912,-100,4,2,1,45,0,1
59880,-100,4,2,1,35,0,0
69865,-100,4,2,1,30,0,0
84217,-100,4,2,1,35,0,0
89210,-100,4,2,1,40,0,0
89834,-100,4,2,1,45,0,1
92330,-100,4,2,1,35,0,0
94202,-100,4,2,1,40,0,0
94826,-100,4,2,1,45,0,1
98258,-100,4,2,1,35,0,0
99194,-100,4,2,1,40,0,0
99818,-100,4,2,1,45,0,1
119787,-100,4,2,1,35,0,0

[HitObjects]
192,192,17447,5,0,0:0:0:0:
320,192,17915,1,0,0:0:0:0:
64,192,18383,1,0,0:0:0:0:
448,192,18695,1,0,0:0:0:0:
320,192,18851,1,0,0:0:0:0:
448,192,19007,1,0,0:0:0:0:
320,192,19163,1,0,0:0:0:0:
64,192,19319,1,0,0:0:0:0:
192,192,19475,1,0,0:0:0:0:
320,192,19631,1,0,0:0:0:0:
64,192,19787,1,0,0:0:0:0:
448,192,19943,1,0,0:0:0:0:
320,192,19943,1,0,0:0:0:0:
320,192,20099,1,0,0:0:0:0:
64,192,20255,1,0,0:0:0:0:
448,192,20255,1,0,0:0:0:0:
320,192,20411,1,0,0:0:0:0:
192,192,20411,1,0,0:0:0:0:
192,192,20567,1,0,0:0:0:0:
64,192,20567,1,0,0:0:0:0:
448,192,20567,1,0,0:0:0:0:
320,192,20723,1,0,0:0:0:0:
64,192,20879,1,0,0:0:0:0:
448,192,20879,1,0,0:0:0:0:
192,192,21035,1,0,0:0:0:0:
192,192,21191,1,0,0:0:0:0:
320,192,21191,1,0,0:0:0:0:
64,192,21347,1,0,0:0:0:0:
448,192,21503,1,0,0:0:0:0:
320,192,21503,1,0,0:0:0:0:
192,192,21659,1,0,0:0:0:0:
64,192,21659,1,0,0:0:0:0:
64,192,21815,1,0,0:0:0:0:
320,192,21815,1,0,0:0:0:0:
448,192,21815,1,0,0:0:0:0:
320,192,21971,1,0,0:0:0:0:
192,192,22127,1,0,0:0:0:0:
448,192,22127,1,0,0:0:0:0:
64,192,22283,1,0,0:0:0:0:
64,192,22439,1,0,0:0:0:0:
192,192,22439,1,0,0:0:0:0:
448,192,22595,1,0,0:0:0:0:
320,192,22751,1,0,0:0:0:0:
192,192,22751,1,0,0:0:0:0:
64,192,22907,1,0,0:0:0:0:
448,192,22907,1,0,0:0:0:0:
320,192,23063,1,0,0:0:0:0:
448,192,23063,1,0,0:0:0:0:
192,192,23063,1,0,0:0:0:0:
64,192,23219,1,0,0:0:0:0:
192,192,23375,1,0,0:0:0:0:
64,192,23375,1,0,0:0:0:0:
320,192,23531,1,0,0:0:0:0:
64,192,23687,1,0,0:0:0:0:
448,192,23687,1,0,0:0:0:0:
448,192,23843,1,0,0:0:0:0:
192,192,23999,1,0,0:0:0:0:
320,192,23999,1,0,0:0:0:0:
320,192,24155,1,0,0:0:0:0:
448,192,24155,1,0,0:0:0:0:
192,192,24311,1,0,0:0:0:0:
64,192,24311,1,0,0:0:0:0:
448,192,24311,1,0,0:0:0:0:
320,192,24467,1,0,0:0:0:0:
192,192,24467,1,0,0:0:0:0:
64,192,24623,1,0,0:0:0:0:
320,192,24623,1,0,0:0:0:0:
192,192,24779,1,0,0:0:0:0:
64,192,24779,1,0,0:0:0:0:
320,192,24935,1,0,0:0:0:0:
448,192,24935,1,0,0:0:0:0:
192,192,25091,1,0,0:0:0:0:
64,192,25247,1,0,0:0:0:0:
448,192,25247,1,0,0:0:0:0:
192,192,25403,1,0,0:0:0:0:
320,192,25403,1,0,0:0:0:0:
192,192,25559,1,0,0:0:0:0:
64,192,25559,1,0,0:0:0:0:
448,192,25559,1,0,0:0:0:0:
320,192,25715,1,0,0:0:0:0:
64,192,25871,1,0,0:0:0:0:
448,192,25871,1,0,0:0:0:0:
448,192,26027,1,0,0:0:0:0:
192,192,26183,1,0,0:0:0:0:
320,192,26183,1,0,0:0:0:0:
64,192,26339,1,0,0:0:0:0:
448,192,26495,1,0,0:0:0:0:
320,192,26495,1,0,0:0:0:0:
192,192,26651,1,0,0:0:0:0:
64,192,26651,1,0,0:0:0:0:
320,192,26807,1,0,0:0:0:0:
448,192,26807,1,0,0:0:0:0:
64,192,26807,1,0,0:0:0:0:
320,192,26963,1,0,0:0:0:0:
192,192,27119,1,0,0:0:0:0:
448,192,27119,1,0,0:0:0:0:
64,192,27275,1,0,0:0:0:0:
64,192,27431,1,0,0:0:0:0:
192,192,27431,1,0,0:0:0:0:
448,192,27587,1,0,0:0:0:0:
320,192,27743,1,0,0:0:0:0:
192,192,27743,1,0,0:0:0:0:
64,192,27899,1,0,0:0:0:0:
448,192,27899,1,0,0:0:0:0:
320,192,28055,1,0,0:0:0:0:
448,192,28055,1,0,0:0:0:0:
192,192,28055,1,0,0:0:0:0:
64,192,28211,1,0,0:0:0:0:
64,192,28367,1,0,0:0:0:0:
192,192,28367,1,0,0:0:0:0:
320,192,28523,1,0,0:0:0:0:
64,192,28679,1,0,0:0:0:0:
448,192,28679,1,0,0:0:0:0:
192,192,28835,1,0,0:0:0:0:
192,192,28991,1,0,0:0:0:0:
320,192,28991,1,0,0:0:0:0:
448,192,29147,1,0,0:0:0:0:
320,192,29147,1,0,0:0:0:0:
64,192,29303,1,0,0:0:0:0:
192,192,29303,1,0,0:0:0:0:
448,192,29303,1,0,0:0:0:0:
320,192,29459,1,0,0:0:0:0:
192,192,29459,1,0,0:0:0:0:
64,192,29615,1,0,0:0:0:0:
320,192,29615,1,0,0:0:0:0:
64,192,29771,1,0,0:0:0:0:
448,192,29771,1,0,0:0:0:0:
320,192,29927,1,0,0:0:0:0:
448,192,29927,1,0,0:0:0:0:
192,192,30083,1,0,0:0:0:0:
64,192,30239,1,0,0:0:0:0:
192,192,30239,1,0,0:0:0:0:
320,192,30395,1,0,0:0:0:0:
448,192,30395,1,0,0:0:0:0:
192,192,30551,1,0,0:0:0:0:
448,192,30551,1,0,0:0:0:0:
64,192,30551,1,0,0:0:0:0:
64,192,30707,1,0,0:0:0:0:
320,192,30863,1,0,0:0:0:0:
448,192,30863,1,0,0:0:0:0:
192,192,31019,1,0,0:0:0:0:
320,192,31175,1,0,0:0:0:0:
192,192,31175,1,0,0:0:0:0:
448,192,31331,1,0,0:0:0:0:
64,192,31487,1,0,0:0:0:0:
448,192,31487,1,0,0:0:0:0:
192,192,31643,1,0,0:0:0:0:
320,192,31643,1,0,0:0:0:0:
64,192,31799,1,0,0:0:0:0:
320,192,31799,1,0,0:0:0:0:
448,192,31799,1,0,0:0:0:0:
192,192,31955,1,0,0:0:0:0:
192,192,32111,1,0,0:0:0:0:
448,192,32111,1,0,0:0:0:0:
320,192,32267,1,0,0:0:0:0:
192,192,32423,1,0,0:0:0:0:
64,192,32423,1,0,0:0:0:0:
448,192,32579,1,0,0:0:0:0:
320,192,32735,1,0,0:0:0:0:
64,192,32735,1,0,0:0:0:0:
64,192,32891,1,0,0:0:0:0:
192,192,32891,1,0,0:0:0:0:
320,192,33047,1,0,0:0:0:0:
448,192,33047,1,0,0:0:0:0:
192,192,33047,1,0,0:0:0:0:
320,192,33203,1,0,0:0:0:0:
64,192,33359,1,0,0:0:0:0:
448,192,33359,1,0,0:0:0:0:
192,192,33515,1,0,0:0:0:0:
64,192,33671,1,0,0:0:0:0:
320,192,33671,1,0,0:0:0:0:
64,192,33827,1,0,0:0:0:0:
192,192,33983,1,0,0:0:0:0:
448,192,33983,1,0,0:0:0:0:
320,192,34139,1,0,0:0:0:0:
448,192,34139,1,0,0:0:0:0:
320,192,34295,1,0,0:0:0:0:
192,192,34295,1,0,0:0:0:0:
64,192,34295,1,0,0:0:0:0:
448,192,34451,1,0,0:0:0:0:
64,192,34451,1,0,0:0:0:0:
320,192,34607,1,0,0:0:0:0:
192,192,34607,1,0,0:0:0:0:
64,192,34763,1,0,0:0:0:0:
320,192,34763,1,0,0:0:0:0:
192,192,34919,1,0,0:0:0:0:
448,192,34919,1,0,0:0:0:0:
320,192,35076,1,0,0:0:0:0:
192,192,35232,1,0,0:0:0:0:
64,192,35232,1,0,0:0:0:0:
192,192,35388,1,0,0:0:0:0:
320,192,35388,1,0,0:0:0:0:
64,192,35544,1,0,0:0:0:0:
320,192,35544,1,0,0:0:0:0:
448,192,35544,1,0,0:0:0:0:
64,192,35700,1,0,0:0:0:0:
192,192,35856,1,0,0:0:0:0:
448,192,35856,1,0,0:0:0:0:
320,192,36012,1,0,0:0:0:0:
320,192,36168,1,0,0:0:0:0:
192,192,36168,1,0,0:0:0:0:
64,192,36324,1,0,0:0:0:0:
64,192,36480,1,0,0:0:0:0:
448,192,36480,1,0,0:0:0:0:
192,192,36636,1,0,0:0:0:0:
320,192,36636,1,0,0:0:0:0:
64,192,36792,1,0,0:0:0:0:
320,192,36792,1,0,0:0:0:0:
448,192,36792,1,0,0:0:0:0:
448,192,36948,1,0,0:0:0:0:
192,192,37104,1,0,0:0:0:0:
64,192,37104,1,0,0:0:0:0:
320,192,37260,1,0,0:0:0:0:
448,192,37416,1,0,0:0:0:0:
448,192,37572,1,0,0:0:0:0:
64,192,37650,1,0,0:0:0:0:
320,192,37728,1,0,0:0:0:0:
192,192,37884,1,0,0:0:0:0:
448,192,38040,1,0,0:0:0:0:
64,192,38040,1,0,0:0:0:0:
320,192,38040,1,0,0:0:0:0:
192,192,38196,1,0,0:0:0:0:
192,192,38352,1,0,0:0:0:0:
320,192,38508,1,0,0:0:0:0:
448,192,38664,1,0,0:0:0:0:
64,192,38820,1,0,0:0:0:0:
320,192,38976,1,0,0:0:0:0:
448,192,39132,1,0,0:0:0:0:
64,192,39132,1,0,0:0:0:0:
320,192,39288,1,0,0:0:0:0:
320,192,39444,1,0,0:0:0:0:
64,192,39600,1,0,0:0:0:0:
448,192,39600,1,0,0:0:0:0:
192,192,39756,1,0,0:0:0:0:
64,192,39912,1,0,0:0:0:0:
320,192,39912,1,0,0:0:0:0:
448,192,40068,1,0,0:0:0:0:
448,192,40224,1,0,0:0:0:0:
192,192,40224,1,0,0:0:0:0:
320,192,40380,1,0,0:0:0:0:
64,192,40380,1,0,0:0:0:0:
448,192,40536,1,0,0:0:0:0:
64,192,40536,1,0,0:0:0:0:
192,192,40536,1,0,0:0:0:0:
320,192,40692,1,0,0:0:0:0:
192,192,40848,1,0,0:0:0:0:
320,192,40848,1,0,0:0:0:0:
64,192,41004,1,0,0:0:0:0:
64,192,41160,1,0,0:0:0:0:
448,192,41160,1,0,0:0:0:0:
192,192,41316,1,0,0:0:0:0:
320,192,41472,1,0,0:0:0:0:
448,192,41472,1,0,0:0:0:0:
64,192,41628,1,0,0:0:0:0:
448,192,41628,1,0,0:0:0:0:
320,192,41784,1,0,0:0:0:0:
192,192,41784,1,0,0:0:0:0:
64,192,41784,1,0,0:0:0:0:
448,192,41940,1,0,0:0:0:0:
192,192,42096,1,0,0:0:0:0:
320,192,42096,1,0,0:0:0:0:
64,192,42252,1,0,0:0:0:0:
320,192,42408,1,0,0:0:0:0:
448,192,42408,1,0,0:0:0:0:
192,192,42564,1,0,0:0:0:0:
64,192,42720,1,0,0:0:0:0:
448,192,42720,1,0,0:0:0:0:
192,192,42876,1,0,0:0:0:0:
320,192,42876,1,0,0:0:0:0:
192,192,43032,1,0,0:0:0:0:
64,192,43032,1,0,0:0:0:0:
448,192,43032,1,0,0:0:0:0:
64,192,43188,1,0,0:0:0:0:
320,192,43344,1,0,0:0:0:0:
448,192,43344,1,0,0:0:0:0:
192,192,43500,1,0,0:0:0:0:
64,192,43656,1,0,0:0:0:0:
320,192,43656,1,0,0:0:0:0:
448,192,43812,1,0,0:0:0:0:
192,192,43968,1,0,0:0:0:0:
64,192,43968,1,0,0:0:0:0:
448,192,44124,1,0,0:0:0:0:
64,192,44124,1,0,0:0:0:0:
320,192,44280,1,0,0:0:0:0:
192,192,44280,1,0,0:0:0:0:
448,192,44280,1,0,0:0:0:0:
320,192,44436,1,0,0:0:0:0:
64,192,44592,1,0,0:0:0:0:
192,192,44592,1,0,0:0:0:0:
448,192,44748,1,0,0:0:0:0:
448,192,44904,1,0,0:0:0:0:
64,192,44904,1,0,0:0:0:0:
192,192,45060,1,0,0:0:0:0:
320,192,45216,1,0,0:0:0:0:
192,192,45216,1,0,0:0:0:0:
320,192,45372,1,0,0:0:0:0:
448,192,45372,1,0,0:0:0:0:
448,192,45528,1,0,0:0:0:0:
192,192,45528,1,0,0:0:0:0:
64,192,45528,1,0,0:0:0:0:
64,192,45684,1,0,0:0:0:0:
320,192,45840,1,0,0:0:0:0:
448,192,45840,1,0,0:0:0:0:
192,192,45996,1,0,0:0:0:0:
320,192,46152,1,0,0:0:0:0:
192,192,46152,1,0,0:0:0:0:
448,192,46308,1,0,0:0:0:0:
64,192,46464,1,0,0:0:0:0:
448,192,46464,1,0,0:0:0:0:
192,192,46620,1,0,0:0:0:0:
320,192,46620,1,0,0:0:0:0:
320,192,46776,1,0,0:0:0:0:
448,192,46776,1,0,0:0:0:0:
64,192,46776,1,0,0:0:0:0:
192,192,46932,1,0,0:0:0:0:
192,192,47088,1,0,0:0:0:0:
448,192,47088,1,0,0:0:0:0:
320,192,47244,1,0,0:0:0:0:
192,192,47400,1,0,0:0:0:0:
64,192,47400,1,0,0:0:0:0:
448,192,47556,1,0,0:0:0:0:
320,192,47712,1,0,0:0:0:0:
64,192,47712,1,0,0:0:0:0:
448,192,47868,1,0,0:0:0:0:
192,192,47868,1,0,0:0:0:0:
448,192,48024,1,0,0:0:0:0:
64,192,48024,1,0,0:0:0:0:
320,192,48024,1,0,0:0:0:0:
192,192,48180,1,0,0:0:0:0:
448,192,48336,1,0,0:0:0:0:
192,192,48336,1,0,0:0:0:0:
448,192,48492,1,0,0:0:0:0:
64,192,48648,1,0,0:0:0:0:
320,192,48648,1,0,0:0:0:0:
192,192,48804,1,0,0:0:0:0:
448,192,48960,1,0,0:0:0:0:
64,192,48960,1,0,0:0:0:0:
192,192,49116,1,0,0:0:0:0:
64,192,49116,1,0,0:0:0:0:
192,192,49272,1,0,0:0:0:0:
320,192,49272,1,0,0:0:0:0:
448,192,49272,1,0,0:0:0:0:
64,192,49428,1,0,0:0:0:0:
64,192,49584,1,0,0:0:0:0:
320,192,49584,1,0,0:0:0:0:
320,192,49740,1,0,0:0:0:0:
192,192,49896,1,0,0:0:0:0:
448,192,49896,1,0,0:0:0:0:
64,192,50052,1,0,0:0:0:0:
64,192,50208,1,0,0:0:0:0:
320,192,50208,1,0,0:0:0:0:
192,192,50364,1,0,0:0:0:0:
448,192,50364,1,0,0:0:0:0:
320,192,50520,1,0,0:0:0:0:
448,192,50520,1,0,0:0:0:0:
64,192,50520,1,0,0:0:0:0:
192,192,50676,1,0,0:0:0:0:
192,192,50832,1,0,0:0:0:0:
320,192,50832,1,0,0:0:0:0:
448,192,50988,1,0,0:0:0:0:
64,192,51144,1,0,0:0:0:0:
192,192,51144,1,0,0:0:0:0:
320,192,51300,1,0,0:0:0:0:
448,192,51456,1,0,0:0:0:0:
64,192,51456,1,0,0:0:0:0:
320,192,51612,1,0,0:0:0:0:
192,192,51612,1,0,0:0:0:0:
320,192,51768,1,0,0:0:0:0:
448,192,51768,1,0,0:0:0:0:
64,192,51768,1,0,0:0:0:0:
192,192,51924,1,0,0:0:0:0:
192,192,52080,1,0,0:0:0:0:
320,192,52080,1,0,0:0:0:0:
64,192,52236,1,0,0:0:0:0:
448,192,52392,1,0,0:0:0:0:
64,192,52392,1,0,0:0:0:0:
320,192,52548,1,0,0:0:0:0:
192,192,52704,1,0,0:0:0:0:
64,192,52704,1,0,0:0:0:0:
448,192,52860,1,0,0:0:0:0:
64,192,52860,1,0,0:0:0:0:
192,192,53016,1,0,0:0:0:0:
320,192,53016,1,0,0:0:0:0:
448,192,53016,1,0,0:0:0:0:
320,192,53172,1,0,0:0:0:0:
64,192,53328,1,0,0:0:0:0:
448,192,53328,1,0,0:0:0:0:
192,192,53484,1,0,0:0:0:0:
192,192,53640,1,0,0:0:0:0:
64,192,53640,1,0,0:0:0:0:
448,192,53796,1,0,0:0:0:0:
320,192,53952,1,0,0:0:0:0:
192,192,53952,1,0,0:0:0:0:
448,192,54108,1,0,0:0:0:0:
64,192,54108,1,0,0:0:0:0:
64,192,54264,1,0,0:0:0:0:
320,192,54264,1,0,0:0:0:0:
448,192,54264,1,0,0:0:0:0:
192,192,54420,1,0,0:0:0:0:
192,192,54576,1,0,0:0:0:0:
64,192,54576,1,0,0:0:0:0:
448,192,54732,1,0,0:0:0:0:
320,192,54888,1,0,0:0:0:0:
192,192,54888,1,0,0:0:0:0:
64,192,55044,1,0,0:0:0:0:
448,192,55200,1,0,0:0:0:0:
64,192,55200,1,0,0:0:0:0:
320,192,55356,1,0,0:0:0:0:
192,192,55356,1,0,0:0:0:0:
320,192,55512,1,0,0:0:0:0:
448,192,55512,1,0,0:0:0:0:
64,192,55512,1,0,0:0:0:0:
192,192,55668,1,0,0:0:0:0:
192,192,55824,1,0,0:0:0:0:
320,192,55824,1,0,0:0:0:0:
448,192,55980,1,0,0:0:0:0:
64,192,56136,1,0,0:0:0:0:
192,192,56136,1,0,0:0:0:0:
320,192,56292,1,0,0:0:0:0:
448,192,56448,1,0,0:0:0:0:
64,192,56448,1,0,0:0:0:0:
320,192,56604,1,0,0:0:0:0:
64,192,56604,1,0,0:0:0:0:
192,192,56760,1,0,0:0:0:0:
320,192,56760,1,0,0:0:0:0:
448,192,56760,1,0,0:0:0:0:
64,192,56916,1,0,0:0:0:0:
64,192,57072,1,0,0:0:0:0:
192,192,57072,1,0,0:0:0:0:
320,192,57228,1,0,0:0:0:0:
448,192,57384,1,0,0:0:0:0:
64,192,57384,1,0,0:0:0:0:
192,192,57540,1,0,0:0:0:0:
192,192,57696,1,0,0:0:0:0:
320,192,57696,1,0,0:0:0:0:
448,192,57852,1,0,0:0:0:0:
320,192,57852,1,0,0:0:0:0:
448,192,58008,1,0,0:0:0:0:
64,192,58008,1,0,0:0:0:0:
192,192,58008,1,0,0:0:0:0:
64,192,58164,1,0,0:0:0:0:
192,192,58320,1,0,0:0:0:0:
320,192,58320,1,0,0:0:0:0:
320,192,58476,1,0,0:0:0:0:
64,192,58632,1,0,0:0:0:0:
448,192,58632,1,0,0:0:0:0:
192,192,58788,1,0,0:0:0:0:
320,192,58944,1,0,0:0:0:0:
64,192,58944,1,0,0:0:0:0:
192,192,59100,1,0,0:0:0:0:
64,192,59100,1,0,0:0:0:0:
192,192,59256,1,0,0:0:0:0:
320,192,59256,1,0,0:0:0:0:
448,192,59256,1,0,0:0:0:0:
448,192,59412,1,0,0:0:0:0:
64,192,59568,1,0,0:0:0:0:
192,192,59568,1,0,0:0:0:0:
192,192,59724,1,0,0:0:0:0:
64,192,59880,1,0,0:0:0:0:
320,192,59880,1,0,0:0:0:0:
64,192,60037,1,0,0:0:0:0:
192,192,60193,1,0,0:0:0:0:
320,192,60349,1,0,0:0:0:0:
448,192,60505,1,0,0:0:0:0:
64,192,60505,1,0,0:0:0:0:
320,192,60661,1,0,0:0:0:0:
192,192,60817,1,0,0:0:0:0:
64,192,60817,1,0,0:0:0:0:
320,192,60973,1,0,0:0:0:0:
320,192,61129,1,0,0:0:0:0:
448,192,61285,1,0,0:0:0:0:
64,192,61441,1,0,0:0:0:0:
320,192,61441,1,0,0:0:0:0:
192,192,61597,1,0,0:0:0:0:
448,192,61753,1,0,0:0:0:0:
320,192,61753,1,0,0:0:0:0:
192,192,61909,1,0,0:0:0:0:
192,192,62065,1,0,0:0:0:0:
64,192,62221,1,0,0:0:0:0:
192,192,62377,1,0,0:0:0:0:
448,192,62377,1,0,0:0:0:0:
320,192,62533,1,0,0:0:0:0:
320,192,62689,1,0,0:0:0:0:
192,192,62845,1,0,0:0:0:0:
64,192,63001,1,0,0:0:0:0:
448,192,63001,1,0,0:0:0:0:
192,192,63157,1,0,0:0:0:0:
320,192,63313,1,0,0:0:0:0:
448,192,63313,1,0,0:0:0:0:
64,192,63469,1,0,0:0:0:0:
192,192,63625,1,0,0:0:0:0:
192,192,63781,1,0,0:0:0:0:
448,192,63937,1,0,0:0:0:0:
64,192,63937,1,0,0:0:0:0:
192,192,64093,1,0,0:0:0:0:
320,192,64249,1,0,0:0:0:0:
448,192,64249,1,0,0:0:0:0:
64,192,64405,1,0,0:0:0:0:
64,192,64561,1,0,0:0:0:0:
192,192,64717,1,0,0:0:0:0:
448,192,64873,1,0,0:0:0:0:
320,192,64873,1,0,0:0:0:0:
192,192,65029,1,0,0:0:0:0:
192,192,65185,1,0,0:0:0:0:
320,192,65341,1,0,0:0:0:0:
448,192,65497,1,0,0:0:0:0:
64,192,65497,1,0,0:0:0:0:
192,192,65653,1,0,0:0:0:0:
320,192,65809,1,0,0:0:0:0:
64,192,65809,1,0,0:0:0:0:
448,192,65965,1,0,0:0:0:0:
448,192,66121,1,0,0:0:0:0:
64,192,66277,1,0,0:0:0:0:
448,192,66433,1,0,0:0:0:0:
192,192,66433,1,0,0:0:0:0:
320,192,66589,1,0,0:0:0:0:
64,192,66745,1,0,0:0:0:0:
448,192,66745,1,0,0:0:0:0:
192,192,66901,1,0,0:0:0:0:
192,192,67057,1,0,0:0:0:0:
320,192,67213,1,0,0:0:0:0:
448,192,67369,1,0,0:0:0:0:
64,192,67369,1,0,0:0:0:0:
320,192,67525,1,0,0:0:0:0:
320,192,67681,1,0,0:0:0:0:
192,192,67837,1,0,0:0:0:0:
64,192,67993,1,0,0:0:0:0:
448,192,67993,1,0,0:0:0:0:
320,192,68149,1,0,0:0:0:0:
192,192,68305,1,0,0:0:0:0:
64,192,68305,1,0,0:0:0:0:
320,192,68461,1,0,0:0:0:0:
320,192,68617,1,0,0:0:0:0:
192,192,68773,1,0,0:0:0:0:
64,192,68929,1,0,0:0:0:0:
448,192,68929,1,0,0:0:0:0:
320,192,69085,1,0,0:0:0:0:
64,192,69241,128,0,69865:0:0:0:0:
448,192,69865,128,0,72361:0:0:0:0:
192,192,70333,1,0,0:0:0:0:
64,192,70801,1,0,0:0:0:0:
192,192,71113,1,0,0:0:0:0:
192,192,71581,1,0,0:0:0:0:
64,192,72049,1,0,0:0:0:0:
320,192,72361,1,0,0:0:0:0:
320,192,72829,1,0,0:0:0:0:
192,192,73297,1,0,0:0:0:0:
320,192,73609,1,0,0:0:0:0:
320,192,74077,1,0,0:0:0:0:
192,192,74233,128,0,74857:0:0:0:0:
448,192,74545,1,0,0:0:0:0:
320,192,74857,128,0,76729:0:0:0:0:
448,192,75325,1,0,0:0:0:0:
64,192,75793,1,0,0:0:0:0:
448,192,76105,1,0,0:0:0:0:
448,192,76573,1,0,0:0:0:0:
64,192,76729,128,0,77353:0:0:0:0:
192,192,77041,1,0,0:0:0:0:
320,192,77353,1,0,0:0:0:0:
320,192,77821,1,0,0:0:0:0:
192,192,78289,1,0,0:0:0:0:
320,192,78601,1,0,0:0:0:0:
64,192,79069,1,0,0:0:0:0:
448,192,79537,1,0,0:0:0:0:
64,192,79849,128,0,82345:0:0:0:0:
192,192,79849,1,0,0:0:0:0:
448,192,80473,1,0,0:0:0:0:
192,192,80473,1,0,0:0:0:0:
320,192,80785,1,0,0:0:0:0:
448,192,80785,1,0,0:0:0:0:
192,192,81409,1,0,0:0:0:0:
448,192,81409,1,0,0:0:0:0:
320,192,81721,1,0,0:0:0:0:
192,192,81721,1,0,0:0:0:0:
448,192,82345,128,0,84217:0:0:0:0:
320,192,82345,1,0,0:0:0:0:
192,192,82969,1,0,0:0:0:0:
64,192,82969,1,0,0:0:0:0:
320,192,83281,1,0,0:0:0:0:
64,192,83281,1,0,0:0:0:0:
320,192,83905,1,0,0:0:0:0:
192,192,83905,1,0,0:0:0:0:
64,192,84217,1,0,0:0:0:0:
192,192,84217,1,0,0:0:0:0:
320,192,84373,1,0,0:0:0:0:
448,192,84529,1,0,0:0:0:0:
192,192,84685,1,0,0:0:0:0:
64,192,84841,1,0,0:0:0:0:
320,192,84841,1,0,0:0:0:0:
64,192,85310,1,0,0:0:0:0:
448,192,85466,1,0,0:0:0:0:
320,192,85466,1,0,0:0:0:0:
192,192,85778,1,0,0:0:0:0:
64,192,85778,1,0,0:0:0:0:
448,192,86090,1,0,0:0:0:0:
192,192,86402,1,0,0:0:0:0:
320,192,86402,1,0,0:0:0:0:
64,192,86558,1,0,0:0:0:0:
320,192,86714,1,0,0:0:0:0:
448,192,86714,1,0,0:0:0:0:
192,192,87026,1,0,0:0:0:0:
64,192,87026,1,0,0:0:0:0:
448,192,87338,1,0,0:0:0:0:
448,192,87806,1,0,0:0:0:0:
192,192,87962,1,0,0:0:0:0:
64,192,87962,1,0,0:0:0:0:
320,192,88274,1,0,0:0:0:0:
448,192,88586,1,0,0:0:0:0:
448,192,89054,1,0,0:0:0:0:
192,192,89210,128,0,89834:0:0:0:0:
320,192,89210,1,0,0:0:0:0:
64,192,89366,1,0,0:0:0:0:
320,192,89522,1,0,0:0:0:0:
448,192,89522,1,0,0:0:0:0:
448,192,89678,1,0,0:0:0:0:
64,192,89834,1,0,0:0:0:0:
320,192,89834,1,0,0:0:0:0:
192,192,89990,1,0,0:0:0:0:
448,192,90146,1,0,0:0:0:0:
192,192,90146,1,0,0:0:0:0:
320,192,90302,1,0,0:0:0:0:
64,192,90302,1,0,0:0:0:0:
320,192,90458,1,0,0:0:0:0:
448,192,90458,1,0,0:0:0:0:
192,192,90458,1,0,0:0:0:0:
448,192,90614,1,0,0:0:0:0:
64,192,90770,1,0,0:0:0:0:
320,192,90770,1,0,0:0:0:0:
192,192,90926,1,0,0:0:0:0:
448,192,91082,1,0,0:0:0:0:
64,192,91082,1,0,0:0:0:0:
320,192,91238,1,0,0:0:0:0:
192,192,91394,1,0,0:0:0:0:
320,192,91394,1,0,0:0:0:0:
448,192,91550,1,0,0:0:0:0:
64,192,91550,1,0,0:0:0:0:
192,192,91706,1,0,0:0:0:0:
64,192,91706,1,0,0:0:0:0:
320,192,91706,1,0,0:0:0:0:
192,192,91862,1,0,0:0:0:0:
448,192,92018,1,0,0:0:0:0:
320,192,92018,1,0,0:0:0:0:
64,192,92174,1,0,0:0:0:0:
192,192,92330,1,0,0:0:0:0:
320,192,92486,1,0,0:0:0:0:
64,192,92564,1,0,0:0:0:0:
320,192,92642,1,0,0:0:0:0:
448,192,92798,1,0,0:0:0:0:
192,192,92954,1,0,0:0:0:0:
64,192,92954,1,0,0:0:0:0:
64,192,93110,1,0,0:0:0:0:
192,192,93266,1,0,0:0:0:0:
320,192,93422,1,0,0:0:0:0:
448,192,93578,128,0,94202:0:0:0:0:
192,192,93734,1,0,0:0:0:0:
64,192,93890,1,0,0:0:0:0:
320,192,94046,1,0,0:0:0:0:
64,192,94202,128,0,94514:0:0:0:0:
192,192,94202,1,0,0:0:0:0:
448,192,94358,1,0,0:0:0:0:
192,192,94514,128,0,94826:0:0:0:0:
320,192,94514,1,0,0:0:0:0:
64,192,94670,1,0,0:0:0:0:
320,192,94826,1,0,0:0:0:0:
448,192,94826,1,0,0:0:0:0:
64,192,94982,1,0,0:0:0:0:
192,192,95138,1,0,0:0:0:0:
320,192,95138,1,0,0:0:0:0:
64,192,95294,1,0,0:0:0:0:
448,192,95294,1,0,0:0:0:0:
448,192,95450,1,0,0:0:0:0:
64,192,95450,1,0,0:0:0:0:
192,192,95450,1,0,0:0:0:0:
192,192,95606,1,0,0:0:0:0:
320,192,95762,1,0,0:0:0:0:
64,192,95762,1,0,0:0:0:0:
448,192,95918,1,0,0:0:0:0:
192,192,96074,1,0,0:0:0:0:
320,192,96074,1,0,0:0:0:0:
64,192,96230,1,0,0:0:0:0:
448,192,96386,1,0,0:0:0:0:
320,192,96386,1,0,0:0:0:0:
192,192,96542,1,0,0:0:0:0:
320,192,96542,1,0,0:0:0:0:
64,192,96698,1,0,0:0:0:0:
448,192,96698,1,0,0:0:0:0:
192,192,96698,1,0,0:0:0:0:
64,192,96854,1,0,0:0:0:0:
320,192,97010,1,0,0:0:0:0:
448,192,97010,1,0,0:0:0:0:
320,192,97166,1,0,0:0:0:0:
64,192,97322,1,0,0:0:0:0:
192,192,97322,1,0,0:0:0:0:
448,192,97478,1,0,0:0:0:0:
320,192,97634,1,0,0:0:0:0:
64,192,97634,1,0,0:0:0:0:
192,192,97790,1,0,0:0:0:0:
64,192,97790,1,0,0:0:0:0:
192,192,97946,1,0,0:0:0:0:
320,192,97946,1,0,0:0:0:0:
448,192,97946,1,0,0:0:0:0:
320,192,98102,1,0,0:0:0:0:
448,192,98258,1,0,0:0:0:0:
64,192,98258,1,0,0:0:0:0:
320,192,98414,1,0,0:0:0:0:
192,192,98570,1,0,0:0:0:0:
64,192,98726,1,0,0:0:0:0:
448,192,98882,1,0,0:0:0:0:
64,192,98960,1,0,0:0:0:0:
448,192,99038,1,0,0:0:0:0:
192,192,99194,1,0,0:0:0:0:
320,192,99194,1,0,0:0:0:0:
64,192,99350,1,0,0:0:0:0:
320,192,99506,1,0,0:0:0:0:
448,192,99506,1,0,0:0:0:0:
192,192,99662,1,0,0:0:0:0:
64,192,99818,1,0,0:0:0:0:
448,192,99818,1,0,0:0:0:0:
192,192,99974,1,0,0:0:0:0:
320,192,100130,1,0,0:0:0:0:
64,192,100130,1,0,0:0:0:0:
192,192,100286,1,0,0:0:0:0:
64,192,100286,1,0,0:0:0:0:
320,192,100442,1,0,0:0:0:0:
448,192,100442,1,0,0:0:0:0:
192,192,100442,1,0,0:0:0:0:
320,192,100598,1,0,0:0:0:0:
64,192,100754,1,0,0:0:0:0:
448,192,100754,1,0,0:0:0:0:
448,192,100910,1,0,0:0:0:0:
192,192,101066,1,0,0:0:0:0:
64,192,101066,1,0,0:0:0:0:
64,192,101222,1,0,0:0:0:0:
320,192,101378,1,0,0:0:0:0:
192,192,101378,1,0,0:0:0:0:
192,192,101534,1,0,0:0:0:0:
448,192,101534,1,0,0:0:0:0:
320,192,101690,1,0,0:0:0:0:
448,192,101690,1,0,0:0:0:0:
64,192,101690,1,0,0:0:0:0:
192,192,101846,1,0,0:0:0:0:
192,192,102002,1,0,0:0:0:0:
64,192,102002,1,0,0:0:0:0:
448,192,102158,1,0,0:0:0:0:
192,192,102314,1,0,0:0:0:0:
320,192,102314,1,0,0:0:0:0:
64,192,102470,1,0,0:0:0:0:
64,192,102626,1,0,0:0:0:0:
192,192,102626,1,0,0:0:0:0:
192,192,102782,1,0,0:0:0:0:
448,192,102782,1,0,0:0:0:0:
64,192,102938,1,0,0:0:0:0:
320,192,102938,1,0,0:0:0:0:
448,192,102938,1,0,0:0:0:0:
320,192,103094,1,0,0:0:0:0:
192,192,103250,1,0,0:0:0:0:
448,192,103250,1,0,0:0:0:0:
64,192,103406,1,0,0:0:0:0:
192,192,103562,1,0,0:0:0:0:
64,192,103562,1,0,0:0:0:0:
448,192,103718,1,0,0:0:0:0:
320,192,103874,1,0,0:0:0:0:
64,192,103874,1,0,0:0:0:0:
192,192,104030,1,0,0:0:0:0:
64,192,104030,1,0,0:0:0:0:
192,192,104186,1,0,0:0:0:0:
320,192,104186,1,0,0:0:0:0:
448,192,104186,1,0,0:0:0:0:
320,192,104342,1,0,0:0:0:0:
64,192,104498,1,0,0:0:0:0:
448,192,104498,1,0,0:0:0:0:
192,192,104654,1,0,0:0:0:0:
320,192,104810,1,0,0:0:0:0:
192,192,104810,1,0,0:0:0:0:
64,192,104966,1,0,0:0:0:0:
448,192,105122,1,0,0:0:0:0:
64,192,105122,1,0,0:0:0:0:
320,192,105278,1,0,0:0:0:0:
448,192,105278,1,0,0:0:0:0:
192,192,105434,1,0,0:0:0:0:
64,192,105434,1,0,0:0:0:0:
320,192,105434,1,0,0:0:0:0:
448,192,105590,1,0,0:0:0:0:
320,192,105746,1,0,0:0:0:0:
64,192,105746,1,0,0:0:0:0:
192,192,105902,1,0,0:0:0:0:
448,192,106058,1,0,0:0:0:0:
192,192,106058,1,0,0:0:0:0:
64,192,106214,1,0,0:0:0:0:
320,192,106370,1,0,0:0:0:0:
192,192,106370,1,0,0:0:0:0:
64,192,106526,1,0,0:0:0:0:
192,192,106526,1,0,0:0:0:0:
64,192,106682,1,0,0:0:0:0:
320,192,106682,1,0,0:0:0:0:
448,192,106682,1,0,0:0:0:0:
320,192,106838,1,0,0:0:0:0:
192,192,106994,1,0,0:0:0:0:
448,192,106994,1,0,0:0:0:0:
448,192,107150,1,0,0:0:0:0:
64,192,107306,1,0,0:0:0:0:
192,192,107306,1,0,0:0:0:0:
320,192,107462,1,0,0:0:0:0:
448,192,107618,1,0,0:0:0:0:
64,192,107618,1,0,0:0:0:0:
192,192,107774,1,0,0:0:0:0:
64,192,107774,1,0,0:0:0:0:
192,192,107930,1,0,0:0:0:0:
320,192,107930,1,0,0:0:0:0:
448,192,107930,1,0,0:0:0:0:
64,192,108086,1,0,0:0:0:0:
64,192,108242,1,0,0:0:0:0:
320,192,108242,1,0,0:0:0:0:
192,192,108398,1,0,0:0:0:0:
448,192,108554,1,0,0:0:0:0:
64,192,108554,1,0,0:0:0:0:
192,192,108710,1,0,0:0:0:0:
320,192,108866,1,0,0:0:0:0:
448,192,108866,1,0,0:0:0:0:
192,192,109022,1,0,0:0:0:0:
448,192,109022,1,0,0:0:0:0:
320,192,109178,1,0,0:0:0:0:
192,192,109178,1,0,0:0:0:0:
64,192,109178,1,0,0:0:0:0:
448,192,109334,1,0,0:0:0:0:
64,192,109334,1,0,0:0:0:0:
448,192,109490,1,0,0:0:0:0:
192,192,109490,1,0,0:0:0:0:
320,192,109490,1,0,0:0:0:0:
64,192,109646,1,0,0:0:0:0:
320,192,109646,1,0,0:0:0:0:
192,192,109802,1,0,0:0:0:0:
448,192,109802,1,0,0:0:0:0:
320,192,109959,1,0,0:0:0:0:
64,192,110115,1,0,0:0:0:0:
192,192,110115,1,0,0:0:0:0:
192,192,110271,1,0,0:0:0:0:
320,192,110271,1,0,0:0:0:0:
64,192,110427,1,0,0:0:0:0:
320,192,110427,1,0,0:0:0:0:
448,192,110427,1,0,0:0:0:0:
192,192,110583,1,0,0:0:0:0:
192,192,110739,1,0,0:0:0:0:
448,192,110739,1,0,0:0:0:0:
320,192,110895,1,0,0:0:0:0:
64,192,111051,1,0,0:0:0:0:
192,192,111051,1,0,0:0:0:0:
448,192,111207,1,0,0:0:0:0:
320,192,111363,1,0,0:0:0:0:
64,192,111363,1,0,0:0:0:0:
192,192,111519,1,0,0:0:0:0:
448,192,111519,1,0,0:0:0:0:
448,192,111675,1,0,0:0:0:0:
64,192,111675,1,0,0:0:0:0:
320,192,111675,1,0,0:0:0:0:
192,192,111831,1,0,0:0:0:0:
192,192,111987,1,0,0:0:0:0:
320,192,111987,1,0,0:0:0:0:
64,192,112143,1,0,0:0:0:0:
448,192,112299,1,0,0:0:0:0:
64,192,112299,1,0,0:0:0:0:
320,192,112455,1,0,0:0:0:0:
192,192,112611,1,0,0:0:0:0:
448,192,112611,1,0,0:0:0:0:
64,192,112767,1,0,0:0:0:0:
320,192,112767,1,0,0:0:0:0:
64,192,112923,1,0,0:0:0:0:
320,192,112923,1,0,0:0:0:0:
192,192,112923,1,0,0:0:0:0:
192,192,113079,1,0,0:0:0:0:
64,192,113235,1,0,0:0:0:0:
448,192,113235,1,0,0:0:0:0:
320,192,113391,1,0,0:0:0:0:
192,192,113547,1,0,0:0:0:0:
448,192,113547,1,0,0:0:0:0:
64,192,113703,1,0,0:0:0:0:
320,192,113859,1,0,0:0:0:0:
192,192,113859,1,0,0:0:0:0:
64,192,114015,1,0,0:0:0:0:
192,192,114015,1,0,0:0:0:0:
64,192,114171,1,0,0:0:0:0:
320,192,114171,1,0,0:0:0:0:
448,192,114171,1,0,0:0:0:0:
192,192,114327,1,0,0:0:0:0:
320,192,114327,1,0,0:0:0:0:
192,192,114483,1,0,0:0:0:0:
448,192,114483,1,0,0:0:0:0:
448,192,114639,1,0,0:0:0:0:
320,192,114639,1,0,0:0:0:0:
192,192,114795,1,0,0:0:0:0:
64,192,114795,1,0,0:0:0:0:
320,192,114951,1,0,0:0:0:0:
448,192,115107,1,0,0:0:0:0:
64,192,115107,1,0,0:0:0:0:
320,192,115263,1,0,0:0:0:0:
192,192,115263,1,0,0:0:0:0:
192,192,115419,1,0,0:0:0:0:
448,192,115419,1,0,0:0:0:0:
64,192,115419,1,0,0:0:0:0:
64,192,115575,1,0,0:0:0:0:
320,192,115731,1,0,0:0:0:0:
192,192,115731,1,0,0:0:0:0:
320,192,115887,1,0,0:0:0:0:
448,192,116043,1,0,0:0:0:0:
64,192,116043,1,0,0:0:0:0:
192,192,116199,1,0,0:0:0:0:
320,192,116355,1,0,0:0:0:0:
448,192,116355,1,0,0:0:0:0:
192,192,116511,1,0,0:0:0:0:
320,192,116511,1,0,0:0:0:0:
64,192,116667,1,0,0:0:0:0:
448,192,116667,1,0,0:0:0:0:
192,192,116667,1,0,0:0:0:0:
320,192,116823,1,0,0:0:0:0:
64,192,116979,1,0,0:0:0:0:
448,192,116979,1,0,0:0:0:0:
192,192,117135,1,0,0:0:0:0:
64,192,117291,1,0,0:0:0:0:
192,192,117291,1,0,0:0:0:0:
448,192,117447,1,0,0:0:0:0:
448,192,117603,1,0,0:0:0:0:
320,192,117603,1,0,0:0:0:0:
192,192,117759,1,0,0:0:0:0:
64,192,117759,1,0,0:0:0:0:
320,192,117915,1,0,0:0:0:0:
192,192,117915,1,0,0:0:0:0:
448,192,117915,1,0,0:0:0:0:
64,192,118071,1,0,0:0:0:0:
64,192,118227,1,0,0:0:0:0:
192,192,118227,1,0,0:0:0:0:
448,192,118383,1,0,0:0:0:0:
320,192,118539,1,0,0:0:0:0:
64,192,118539,1,0,0:0:0:0:
320,192,118695,1,0,0:0:0:0:
448,192,118851,1,0,0:0:0:0:
192,192,118851,1,0,0:0:0:0:
320,192,119007,1,0,0:0:0:0:
192,192,119007,1,0,0:0:0:0:
64,192,119163,1,0,0:0:0:0:
448,192,119163,1,0,0:0:0:0:
320,192,119163,1,0,0:0:0:0:
192,192,119319,1,0,0:0:0:0:
64,192,119319,1,0,0:0:0:0:
192,192,119475,1,0,0:0:0:0:
448,192,119475,1,0,0:0:0:0:
320,192,119631,1,0,0:0:0:0:
448,192,119787,1,0,0:0:0:0:
448,192,120255,1,0,0:0:0:0:
64,192,122322,1,0,0:0:0:0:
320,192,124779,1,0,0:0:0:0:
192,192,127275,1,0,0:0:0:0:
64,192,128874,1,0,0:0:0:0:
