osu file format v14

[General]
AudioFilename: audio.mp3
AudioLeadIn: 0
PreviewTime: 62587
Countdown: 0
SampleSet: Soft
StackLeniency: 0.7
Mode: 0
LetterboxInBreaks: 0
WidescreenStoryboard: 1

[Editor]
Bookmarks: 13695,27171,44948,62726,80504,98282,116059,133837,151615,169393,187171,204948,222726,240504
DistanceSpacing: 1
BeatDivisor: 4
GridSize: 4
TimelineZoom: 1

[Metadata]
Title:Casi Humanos
TitleUnicode:Casi Humanos
Artist:DVICIO
ArtistUnicode:DVICIO
Creator:ezek
Version:Forestezek's Easy
Source:
Tags:DTM9 Nowa love amor que tienes tu underforest
BeatmapID:1269595
BeatmapSetID:600898

[Difficulty]
HPDrainRate:2
CircleSize:3
OverallDifficulty:2
ApproachRate:2.5
SliderMultiplier:1.1
SliderTickRate:1

[Events]
//Background and Video events
Video,-520,"Furries.avi"
0,0,"CuteBG.jpg",0,0
//Break Periods
2,204871,207119
//Storyboard Layer 0 (Background)
//Storyboard Layer 1 (Fail)
//Storyboard Layer 2 (Pass)
//Storyboard Layer 3 (Foreground)
Sprite,Foreground,Centre,"BC.png",320,240 S,0,238,,0.45 F,0,238,518,0,1 M,0,238,13976,102.3269,441.8742 F,0,518,13695,1 F,0,13695,13976,1,0
Sprite,Foreground,Centre,"furrest.png",320,240 S,0,13695,,0.45 F,0,13695,13976,0,1 M,0,13695,27448,490,441.8742 F,0,13976,27171,1 F,0,27171,27448,1,0
Sprite,Foreground,Centre,"BC.png",320,240 S,0,27171,,0.45 F,0,27171,27451,0,1 M,0,27171,40909,102.3269,441.8742 F,0,27451,44948,1 M,0,40909,45226,102.3269,441.8742 F,0,44948,45226,1,0
Sprite,Foreground,Centre,"furrest.png",320,240 S,0,44948,,0.45 F,0,44948,45229,0,1 M,0,44948,63004,490,441.8742 F,0,45229,62726,1 F,0,62726,63004,1,0
Sprite,Foreground,Centre,"BC.png",320,240 S,0,62726,,0.45 F,0,62726,63006,0,1 M,0,62726,76464,102.3269,441.8742 F,0,63006,80503,1 M,0,76464,80781,102.3269,441.8742 F,0,80503,80781,1,0
Sprite,Foreground,Centre,"BC.png",320,240 S,0,98282,,0.45 F,0,98282,98562,0,1 M,0,98282,112020,102.3269,441.8742 F,0,98562,116059,1 M,0,112020,116337,102.3269,441.8742 F,0,116059,116337,1,0
Sprite,Foreground,Centre,"BC.png",320,240 S,0,133837,,0.45 F,0,133837,134117,0,1 M,0,133837,147575,102.3269,441.8742 F,0,134117,151614,1 M,0,147575,151892,102.3269,441.8742 F,0,151614,151892,1,0
Sprite,Foreground,Centre,"BC.png",320,240 S,0,169393,,0.45 F,0,169393,169673,0,1 M,0,169393,183131,102.3269,441.8742 F,0,169673,187170,1 M,0,183131,187448,102.3269,441.8742 F,0,187170,187448,1,0
Sprite,Foreground,Centre,"furrest.png",320,240 S,0,80504,,0.45 F,0,80504,80785,0,1 M,0,80504,98560,490,441.8742 F,0,80785,98282,1 F,0,98282,98560,1,0
Sprite,Foreground,Centre,"furrest.png",320,240 M,0,116059,,490,441.8742 S,0,116059,,0.45 F,0,116059,116340,0,1 F,0,116340,133837,1 F,0,133837,134115,1,0
Sprite,Foreground,Centre,"furrest.png",320,240 M,0,151615,,490,441.8742 S,0,151615,,0.45 F,0,151615,151896,0,1 F,0,151896,169393,1 F,0,169393,169671,1,0
Sprite,Foreground,Centre,"furrest.png",320,240 M,0,187171,,490,441.8742 S,0,187171,,0.45 F,0,187171,187452,0,1 F,0,187452,204949,1 F,0,204949,205227,1,0
Sprite,Foreground,Centre,"furrest.png",320,240 M,0,222726,,490,441.8742 S,0,222726,,0.45 F,0,222726,223007,0,1 F,0,223007,240504,1 F,0,240504,240782,1,0
Sprite,Foreground,Centre,"BC.png",320,240 S,0,208559,,0.45 F,0,208559,208698,1,0 M,0,208559,209115,517.193,442.4594,104.6673,438.9485 F,0,208698,208837,0,1 F,0,208837,208976,1,0 F,0,208976,209115,0,1 M,0,209115,223004,104.6673,438.9485
Sprite,Foreground,Centre,"BC.png",320,240 M,0,209393,,104.6673,438.9485 F,0,209393,209948,1,0 S,0,209393,209948,0.45,0.5845828
//Storyboard Sound Samples

[TimingPoints]
238,560.747663551402,4,2,1,100,1,0
27171,555.555555555556,4,2,1,100,1,0
62726,-100,4,2,1,100,0,1
79948,-100,4,2,1,100,0,0
80504,-100,4,2,1,100,0,1
97171,-100,4,2,1,100,0,0
133837,-100,4,2,1,100,0,1
151059,-100,4,2,1,100,0,0
151615,-100,4,2,1,100,0,1
169393,-100,4,2,1,100,0,0
213837,-100,4,2,1,100,0,1
222171,-100,4,2,1,100,0,0
222726,-100,4,2,1,100,0,1
239393,-100,4,2,1,100,0,0

[Colours]
Combo1 : 198,198,198
Combo2 : 100,100,255
Combo3 : 236,238,157
Combo4 : 40,211,225

[HitObjects]
134,79,238,6,0,P|84:64|35:101,2,110,2|2|2,0:0|0:0|0:0,0:0:0:0:
216,151,1920,1,2,0:0:0:0:
301,220,2480,2,0,P|351:235|400:198,2,110,2|2|2,0:0|0:0|0:0,0:0:0:0:
216,151,4163,1,2,0:0:0:0:
219,260,4723,6,0,P|325:321|418:303,1,220,2|2,0:0|0:0,0:0:0:0:
487,219,6406,1,2,0:0:0:0:
417,134,6966,2,0,L|430:23,2,110,2|2|2,0:0|0:0|0:0,0:0:0:0:
208,63,9209,6,0,P|159:53|93:79,1,110,2|2,0:0|0:0,0:0:0:0:
50,168,10331,2,0,L|-8:158,2,55,2|0|2,0:0|0:0|0:0,0:0:0:0:
124,249,11452,2,0,P|172:287|278:292,1,165,2|0,0:0|0:0,0:0:0:0:
442,77,13695,6,0,P|359:68|327:66,1,110,2|2,0:0|0:0,0:0:0:0:
225,91,14817,2,0,P|221:62|218:16,2,55,2|0|2,0:0|0:0|0:0,0:0:0:0:
123,131,15938,2,0,P|92:181|117:301,1,165,2|0,0:0|0:0,0:0:0:0:
186,355,17340,1,0,0:0:0:0:
269,283,17901,6,0,L|440:267,1,165,0|2,0:0|0:0,0:0:0:0:
463,161,19303,2,0,B|474:104|474:104|455:50,1,110,2|2,0:0|0:0,0:0:0:0:
346,54,20424,2,0,B|289:43|289:43|239:60,1,110,2|2,0:0|0:0,0:0:0:0:
135,94,21546,2,0,L|132:36,2,55,2|0|2,0:0|0:0|0:0,0:0:0:0:
70,183,22667,6,0,P|114:203|197:187,1,110,2|2,0:0|0:0,0:0:0:0:
273,150,23789,2,0,P|317:130|400:146,1,110,2|2,0:0|0:0,0:0:0:0:
338,237,24910,2,0,L|348:351,2,110,2|2|0,0:0|0:0|0:0,0:0:0:0:
228,226,26593,1,4,1:3:0:0:
138,298,27171,6,0,P|90:274|67:222,1,110,4|0,3:0|1:0,0:0:0:0:
31,121,28282,2,0,L|-12:83,2,55,4|0|0,3:0|0:0|1:0,0:0:0:0:
137,148,29393,2,0,P|186:167|214:217,1,110,4|0,3:0|1:0,0:0:0:0:
234,323,30504,2,0,L|350:343,1,110,4|0,3:0|1:0,0:0:0:0:
441,293,31615,6,0,L|467:186,1,110,4|0,3:0|1:0,0:0:0:0:
422,85,32726,2,0,P|430:58|447:32,2,55,4|0|0,3:0|0:0|1:0,0:0:0:0:
336,154,33837,2,0,P|285:123|229:116,1,110,4|0,3:0|1:0,0:0:0:0:
134,157,34948,1,4,3:0:0:0:
145,266,35504,1,0,1:0:0:0:
237,325,36059,6,0,B|280:296|280:296|346:304,1,110,4|0,3:0|1:0,0:0:0:0:
446,322,37171,1,4,3:0:0:0:
399,222,37726,1,0,1:0:0:0:
359,119,38282,2,0,P|384:84|391:10,1,110,4|0,3:0|1:0,0:0:0:0:
284,37,39393,2,0,L|203:35,2,55,4|0|0,3:0|0:0|1:0,0:0:0:0:
392,18,40504,6,0,P|436:36|467:93,1,110,4|0,3:0|1:0,0:0:0:0:
449,197,41615,1,4,3:0:0:0:
362,265,42171,1,0,1:0:0:0:
258,302,42726,2,0,L|265:379,2,55,4|0|0,3:0|0:0|1:0,0:0:0:0:
148,287,43837,2,0,L|141:364,2,55,4|0|0,3:0|0:0|1:0,0:0:0:0:
58,221,44948,6,0,L|72:108,1,110,4|0,3:0|1:0,0:0:0:0:
179,88,46059,2,0,P|180:44|179:18,2,55,4|0|0,3:0|0:0|1:0,0:0:0:0:
287,108,47171,2,0,P|343:120|402:92,1,110,4|0,3:0|1:0,0:0:0:0:
463,183,48282,2,0,P|482:208|502:236,2,55,4|0|0,3:0|0:0|1:0,0:0:0:0:
367,237,49393,6,0,L|247:232,1,110,4|0,3:0|1:0,0:0:0:0:
167,296,50504,2,0,L|47:301,1,110,4|0,3:0|1:0,0:0:0:0:
44,191,51615,2,0,P|36:137|48:79,1,110,4|0,3:0|1:0,0:0:0:0:
156,78,52726,2,0,P|166:131|158:185,1,110,4|0,3:0|1:0,0:0:0:0:
167,296,53837,6,0,P|214:325|288:313,1,110,4|0,3:0|1:0,0:0:0:0:
376,307,54948,2,0,L|381:371,2,55,4|0|0,3:0|0:0|1:0,0:0:0:0:
467,246,56059,2,0,P|464:190|465:119,1,110,4|0,3:0|1:0,0:0:0:0:
420,34,57171,2,0,P|464:27|486:24,2,55,4|0|0,3:0|0:0|1:0,0:0:0:0:
346,115,58282,6,0,P|305:124|238:114,1,110,4|0,3:0|1:0,0:0:0:0:
140,63,59393,2,0,P|86:53|32:63,1,110,4|0,3:0|1:0,0:0:0:0:
8,171,60504,1,4,3:0:0:0:
64,265,61059,1,0,1:0:0:0:
162,313,61615,2,0,L|152:369,2,55,8|4|4,3:0|3:0|1:2,0:0:0:0:
262,268,62726,6,0,L|372:280,1,110,4|0,3:0|1:0,0:0:0:0:
465,222,63837,2,0,P|485:177|474:117,1,110,4|0,3:0|1:0,0:0:0:0:
391,46,64948,2,0,L|281:34,1,110,4|0,3:0|1:0,0:0:0:0:
187,91,66059,2,0,P|174:53|173:30,2,55,4|2|0,3:0|0:0|1:0,0:0:0:0:
256,176,67171,6,0,B|229:223|229:223|182:258,1,110,4|0,3:0|1:0,0:0:0:0:
74,248,68282,2,0,B|100:200|100:200|147:165,1,110,4|0,3:0|1:0,0:0:0:0:
231,98,69393,1,4,3:0:0:0:
330,144,69948,1,0,1:0:0:0:
418,78,70504,2,0,L|429:24,2,55,4|0|4,3:0|0:0|1:2,0:0:0:0:
444,184,71615,6,0,B|443:225|443:225|458:251|458:251|457:290,1,110,4|0,0:1|1:0,0:0:0:0:
351,314,72726,2,0,B|351:272|351:272|336:246|336:246|337:207,1,110,4|0,3:0|1:0,0:0:0:0:
229,229,73837,2,0,B|228:270|228:270|243:296|243:296|242:335,1,110,4|0,3:0|1:0,0:0:0:0:
135,359,74948,2,0,B|135:317|135:317|120:291|120:291|121:252,1,110,4|0,3:0|1:0,0:0:0:0:
16,217,76059,6,0,P|0:167|14:111,2,110,4|0|4,3:0|1:0|3:0,0:0:0:0:
110,161,77726,1,0,1:0:0:0:
205,106,78282,2,0,P|220:159|207:212,2,110,4|0|2,3:0|1:0|0:0,0:0:0:0:
276,22,79948,1,4,1:2:0:0:
385,35,80504,6,0,P|398:79|383:147,1,110,4|0,1:2|1:0,0:0:0:0:
317,227,81615,2,0,P|304:271|319:339,1,110,4|0,3:0|1:0,0:0:0:0:
207,312,82726,2,0,P|150:314|78:311,1,110,4|0,3:0|1:0,0:0:0:0:
63,207,83837,2,0,L|3:197,2,55,4|0|0,3:0|0:0|1:0,0:0:0:0:
172,191,84948,6,0,P|226:192|281:190,1,110,4|0,3:0|1:0,0:0:0:0:
390,171,86059,2,0,P|403:117|379:60,1,110,4|0,3:0|1:0,0:0:0:0:
279,35,87171,1,4,3:0:0:0:
195,106,87726,1,0,1:0:0:0:
103,44,88282,2,0,L|47:39,2,55,4|0|0,3:0|0:0|1:0,0:0:0:0:
64,147,89393,6,0,L|51:260,1,110,4|0,1:2|1:0,0:0:0:0:
148,309,90504,2,0,L|160:199,1,110,4|0,3:0|1:0,0:0:0:0:
265,167,91615,2,0,L|252:280,1,110,4|0,3:0|1:0,0:0:0:0:
349,329,92726,2,0,L|361:219,1,110,4|0,3:0|1:0,0:0:0:0:
395,115,93837,6,0,P|441:103|503:119,2,110,4|0|4,3:0|1:0|3:0,0:0:0:0:
288,141,95504,1,0,1:0:0:0:
210,62,96059,2,0,L|100:51,1,110,4|0,3:0|1:0,0:0:0:0:
15,121,97171,1,0,1:0:0:0:
48,338,98282,6,0,P|96:298|141:294,1,110,4|0,3:0|1:0,0:0:0:0:
237,348,99393,2,0,L|353:352,1,110,4|0,3:0|1:0,0:0:0:0:
429,278,100504,1,4,3:0:0:0:
392,174,101059,2,0,L|419:108,2,55,0|0|4,1:0|0:0|3:0,0:0:0:0:
282,180,102171,1,0,1:0:0:0:
195,111,102726,6,0,P|123:104|92:122,1,110,4|0,3:0|1:0,0:0:0:0:
143,219,103837,2,0,P|215:226|246:208,1,110,4|0,3:0|1:0,0:0:0:0:
319,126,104948,1,4,3:0:0:0:
428,137,105504,2,0,L|445:82,2,55,0|0|4,1:0|0:0|3:0,0:0:0:0:
441,246,106615,1,0,1:0:0:0:
345,299,107171,6,0,P|372:333|440:354,2,110,4|0|4,3:0|1:0|3:0,0:0:0:0:
317,192,108837,1,0,1:0:0:0:
326,82,109393,2,0,P|353:48|421:27,1,110,4|0,3:0|1:0,0:0:0:0:
498,98,110504,2,0,P|503:124|499:162,2,55,4|0|0,3:0|0:0|1:0,0:0:0:0:
393,133,111615,6,0,L|273:141,1,110,4|0,3:0|1:0,0:0:0:0:
177,108,112726,1,4,3:0:0:0:
102,27,113282,1,0,1:0:0:0:
30,110,113837,2,0,L|-24:100,2,55,4|0|0,3:0|0:0|1:0,0:0:0:0:
119,174,114948,2,0,L|173:164,2,55,4|0|0,3:0|0:0|1:0,0:0:0:0:
48,259,116059,6,0,B|102:272|102:272|168:259,1,110,4|0,3:0|1:0,0:0:0:0:
254,309,117171,2,0,L|250:387,2,55,4|0|0,3:0|0:0|1:0,0:0:0:0:
309,213,118282,2,0,B|362:202|362:202|416:215,1,110,4|0,3:0|1:0,0:0:0:0:
499,143,119393,2,0,L|494:78,2,55,4|0|0,3:0|0:0|1:0,0:0:0:0:
395,105,120504,6,0,P|334:98|281:113,1,110,4|0,3:0|1:0,0:0:0:0:
183,144,121615,2,0,P|122:151|69:136,1,110,4|0,3:0|1:0,0:0:0:0:
35,241,122726,2,0,L|24:355,1,110,4|0,3:0|1:0,0:0:0:0:
134,347,123837,2,0,L|246:355,1,110,4|0,3:0|1:0,0:0:0:0:
326,282,124948,6,0,P|338:227|319:166,1,110,4|0,3:0|1:0,0:0:0:0:
327,65,126059,2,0,L|392:57,2,55,4|0|0,3:0|0:0|1:0,0:0:0:0:
217,81,127171,2,0,P|176:70|88:92,1,110,4|0,3:0|1:0,0:0:0:0:
31,157,128282,2,0,L|16:231,2,55,4|0|0,3:0|0:0|1:0,0:0:0:0:
129,206,129393,6,0,P|117:261|127:319,1,110,4|0,3:0|1:0,0:0:0:0:
235,313,130504,2,0,P|242:258|231:205,1,110,4|0,3:0|1:0,0:0:0:0:
283,108,131615,1,2,0:0:0:0:
355,190,132171,1,0,1:0:0:0:
433,112,132726,2,0,L|504:109,2,55,4|4|4,3:0|3:0|1:2,0:0:0:0:
355,190,133837,6,0,P|304:225|277:274,1,110,4|0,3:0|1:0,0:0:0:0:
206,347,134948,2,0,L|76:341,1,110,4|0,3:0|1:0,0:0:0:0:
23,259,136059,2,0,P|9:203|21:142,1,110,4|0,3:0|1:0,0:0:0:0:
104,84,137171,2,0,L|96:22,2,55,4|2|0,3:0|0:0|1:0,0:0:0:0:
208,118,138282,6,0,B|266:103|264:137|329:112,1,110,4|0,3:0|1:0,0:0:0:0:
425,99,139393,2,0,B|439:147|439:147|426:209,1,110,4|0,3:0|1:0,0:0:0:0:
351,286,140504,1,4,3:0:0:0:
256,229,141059,1,0,1:0:0:0:
163,289,141615,2,0,P|127:291|93:281,2,55,4|0|4,3:0|0:0|1:2,0:0:0:0:
139,181,142726,6,0,B|142:131|101:135|116:76,1,110,4|0,1:2|1:0,0:0:0:0:
224,62,143837,2,0,B|209:119|250:115|247:165,1,110,4|0,3:0|1:0,0:0:0:0:
355,143,144948,2,0,B|358:93|317:97|332:38,1,110,4|0,3:0|1:0,0:0:0:0:
440,23,146059,2,0,B|425:80|466:76|463:126,1,110,4|0,3:0|1:0,0:0:0:0:
405,220,147171,6,0,P|468:216|515:253,2,110,4|0|4,3:0|1:0|3:0,0:0:0:0:
321,291,148837,1,0,1:0:0:0:
218,251,149393,2,0,L|245:141,1,110,4|0,3:0|1:0,0:0:0:0:
243,34,150504,2,0,L|291:5,2,55,4|2|4,3:0|0:0|1:2,0:0:0:0:
127,35,151615,6,0,P|114:79|128:144,1,110,4|0,1:2|1:0,0:0:0:0:
195,227,152726,2,0,P|208:271|196:336,1,110,4|0,3:0|1:0,0:0:0:0:
305,312,153837,2,0,P|362:314|424:312,1,110,4|0,3:0|1:0,0:0:0:0:
449,207,154948,2,0,L|516:200,2,55,4|0|0,3:0|0:0|1:0,0:0:0:0:
340,191,156059,6,0,P|285:192|230:190,1,110,4|0,3:0|1:0,0:0:0:0:
122,171,157170,2,0,P|109:117|133:60,1,110,4|0,3:0|1:0,0:0:0:0:
233,35,158281,1,4,3:0:0:0:
317,106,158836,1,0,1:0:0:0:
409,44,159392,2,0,L|465:39,2,55,4|0|0,3:0|0:0|1:0,0:0:0:0:
447,147,160504,6,0,B|456:202|456:202|445:259,1,110,4|0,0:0|1:0,0:0:0:0:
342,294,161615,2,0,B|331:240|331:240|340:185,1,110,4|0,3:0|1:0,0:0:0:0:
232,168,162726,2,0,B|241:223|241:223|230:280,1,110,4|0,3:0|1:0,0:0:0:0:
127,315,163837,2,0,B|116:261|116:261|125:206,1,110,4|0,3:0|1:0,0:0:0:0:
115,97,164947,6,0,P|69:85|7:101,2,110,4|0|4,3:0|1:0|3:0,0:0:0:0:
217,137,166614,1,0,1:0:0:0:
299,64,167170,2,0,L|409:53,1,110,4|0,3:0|1:0,0:0:0:0:
472,142,168282,2,0,L|484:195,2,55,4|4|2,3:0|3:0|0:0,0:0:0:0:
366,111,169393,6,0,P|312:164|287:248,1,165,4|0,1:2|0:0,0:0:0:0:
142,326,171059,1,0,1:0:0:0:
42,278,171615,2,0,B|52:231|52:231|40:173|40:173|55:103,1,165,2|0,0:0|0:0,0:0:0:0:
204,51,173282,1,0,1:0:0:0:
301,101,173837,6,0,P|382:75|457:126,2,165,2|2|0,0:0|0:0|1:0,0:0:0:0:
255,201,176059,2,0,P|174:227|99:176,2,165,2|2|4,0:0|0:0|1:2,0:0:0:0:
358,164,178282,6,0,P|425:206|440:305,1,165,4|0,0:0|0:0,0:0:0:0:
286,333,179948,1,0,1:0:0:0:
250,228,180504,2,0,B|231:174|231:174|246:124|246:124|228:67,1,165,2|0,0:0|0:0,0:0:0:0:
63,53,182171,1,4,1:2:0:0:
146,124,182726,6,0,B|98:169|46:159|46:159|-2:203,2,165,2|2|0,0:0|0:0|1:0,0:0:0:0:
230,194,184948,2,0,B|185:242|195:294|195:294|151:342,2,165,2|0|0,0:0|3:0|1:0,0:0:0:0:
283,98,187171,6,0,B|353:123|374:73|445:98,2,165,4|4|0,0:0|3:0|1:0,0:0:0:0:
258,205,189393,2,0,P|251:332|249:392,2,165,2|6|0,0:0|3:0|1:0,0:0:0:0:
180,127,191615,6,0,P|122:109|72:123,1,110,4|0,0:0|1:0,0:0:0:0:
69,230,192726,2,0,P|127:248|177:234,1,110,2|0,0:0|1:0,0:0:0:0:
278,267,193837,2,0,L|414:278,1,110,2|0,0:0|1:0,0:0:0:0:
394,166,194948,2,0,P|398:126|399:93,2,55,2|0|0,0:0|0:0|1:0,0:0:0:0:
292,124,196059,6,0,P|232:85|133:110,2,165,4|0|0,0:0|0:0|1:0,0:0:0:0:
206,193,198282,2,0,P|168:246|190:353,2,165,2|0|0,0:0|0:0|1:0,0:0:0:0:
270,281,200504,6,0,L|385:271,1,110,4|0,0:0|1:0,0:0:0:0:
417,167,201615,2,0,L|307:176,1,110,4|0,3:0|1:0,0:0:0:0:
256,192,202726,12,4,204671,1:2:0:0:
90,137,208559,6,0,B|128:110|128:110|174:152|174:152|224:118,1,165,0|4,1:0|1:2,0:0:0:0:
324,85,209948,2,0,L|339:25,2,55,0|0|2,1:0|0:0|0:0,0:0:0:0:
390,172,211059,1,0,1:0:0:0:
402,281,211615,2,0,P|456:259|497:201,2,110,2|0|4,0:0|1:0|3:0,0:0:0:0:
295,254,213282,1,4,1:2:0:0:
213,327,213837,6,0,B|164:333|164:333|147:330|147:330|93:336,1,110,4|0,0:0|1:0,0:0:0:0:
157,238,214948,2,0,B|206:232|206:232|223:235|223:235|277:229,1,110,4|0,3:0|1:0,0:0:0:0:
317,133,216059,2,0,B|268:139|268:139|251:136|251:136|197:142,1,110,4|0,3:0|1:0,0:0:0:0:
258,42,217171,2,0,B|307:36|307:36|324:39|324:39|378:33,1,110,4|4,3:0|1:2,0:0:0:0:
451,105,218282,6,0,B|464:158|464:158|453:215,2,110,4|0|4,0:0|1:0|3:0,0:0:0:0:
367,34,219948,1,0,1:0:0:0:
295,118,220504,2,0,P|236:111|185:132,1,110,4|0,3:0|1:0,0:0:0:0:
90,176,221615,2,0,L|86:118,2,55,2|0|4,0:0|0:0|1:2,0:0:0:0:
50,278,222726,6,0,P|121:289|165:289,1,110,4|0,1:2|1:0,0:0:0:0:
261,330,223838,2,0,P|332:319|376:319,1,110,4|0,3:0|1:0,0:0:0:0:
430,226,224948,2,0,L|488:235,2,55,4|0|0,3:0|0:0|1:0,0:0:0:0:
321,209,226059,2,0,L|317:99,1,110,4|0,3:0|1:0,0:0:0:0:
211,69,227171,6,0,P|152:85|84:70,1,110,4|0,3:0|1:0,0:0:0:0:
38,166,228282,2,0,P|28:233|26:283,1,110,4|0,3:0|1:0,0:0:0:0:
106,350,229393,1,4,3:0:0:0:
199,292,229948,1,0,1:0:0:0:
300,333,230504,2,0,L|374:344,2,55,4|0|4,3:0|0:0|1:2,0:0:0:0:
348,233,231615,6,0,P|365:176|347:105,1,110,4|0,0:0|1:0,0:0:0:0:
248,114,232726,2,0,P|231:171|249:242,1,110,4|0,3:0|1:0,0:0:0:0:
162,300,233837,2,0,L|45:308,1,110,4|0,3:0|1:0,0:0:0:0:
17,203,234948,2,0,L|126:195,1,110,4|0,3:0|1:0,0:0:0:0:
159,89,236059,6,0,L|50:97,2,110,4|0|4,0:0|1:0|3:0,0:0:0:0:
256,192,237726,12,0,239393,1:0:0:0:
