osu file format v14

[General]
AudioFilename: audio.mp3
AudioLeadIn: 0
PreviewTime: 62587
Countdown: 0
SampleSet: Soft
StackLeniency: 0.7
Mode: 0
LetterboxInBreaks: 0
WidescreenStoryboard: 1

[Editor]
Bookmarks: 13695,27171,44948,62726,80504,98282,116059,133837,151615,169393,187171,204948,222726,240504
DistanceSpacing: 1.2
BeatDivisor: 4
GridSize: 4
TimelineZoom: 1

[Metadata]
Title:Casi Humanos
TitleUnicode:Casi Humanos
Artist:DVICIO
ArtistUnicode:DVICIO
Creator:ezek
Version:Normal
Source:
Tags:DTM9 Nowa love amor que tienes tu underforest
BeatmapID:1269594
BeatmapSetID:600898

[Difficulty]
HPDrainRate:4
CircleSize:3
OverallDifficulty:4
ApproachRate:4
SliderMultiplier:1.4
SliderTickRate:1

[Events]
//Background and Video events
Video,-520,"Furries.avi"
0,0,"CuteBG.jpg",0,0
//Break Periods
2,204871,207239
//Storyboard Layer 0 (Background)
//Storyboard Layer 1 (Fail)
//Storyboard Layer 2 (Pass)
//Storyboard Layer 3 (Foreground)
//Storyboard Sound Samples

[TimingPoints]
238,560.747663551402,4,2,1,100,1,0
238,-133.333333333333,4,2,1,100,0,0
27171,555.555555555556,4,2,1,100,1,0
62726,-90.9090909090909,4,2,1,100,0,1
79948,-90.9090909090909,4,2,1,100,0,0
80504,-90.9090909090909,4,2,1,100,0,1
97171,-100,4,2,1,100,0,0
133837,-90.9090909090909,4,2,1,100,0,1
151059,-90.9090909090909,4,2,1,100,0,0
151615,-90.9090909090909,4,2,1,100,0,1
169393,-100,4,2,1,100,0,0
213837,-90.9090909090909,4,2,1,100,0,1
222171,-90.9090909090909,4,2,1,100,0,0
222726,-90.9090909090909,4,2,1,100,0,1
239393,-100,4,2,1,100,0,0

[Colours]
Combo1 : 198,198,198
Combo2 : 100,100,255
Combo3 : 236,238,157
Combo4 : 40,211,225

[HitObjects]
93,237,238,6,0,P|72:181|75:123,1,105.000004005432,2|2,0:0|0:0,0:0:0:0:
104,82,1079,1,0,0:0:0:0:
154,43,1359,2,0,L|270:36,1,105.000004005432,2|2,0:0|0:0,0:0:0:0:
365,104,2480,2,0,P|357:151|361:207,1,105.000004005432,2|2,0:0|0:0,0:0:0:0:
395,261,3322,1,0,0:0:0:0:
357,311,3602,2,0,L|242:321,1,105.000004005432,2|2,0:0|0:0,0:0:0:0:
130,287,4723,6,0,P|89:250|72:201,1,105.000004005432,2|2,0:0|0:0,0:0:0:0:
67,141,5565,1,0,0:0:0:0:
125,116,5845,2,0,P|166:153|183:202,1,105.000004005432,2|2,0:0|0:0,0:0:0:0:
229,315,6966,5,2,0:0:0:0:
349,350,7527,1,2,0:0:0:0:
458,287,8088,1,2,0:0:0:0:
339,64,9209,6,0,P|306:64|277:68,1,52.5000020027161,2|0,0:0|0:0,0:0:0:0:
232,99,9770,2,0,L|123:90,1,105.000004005432,2|2,0:0|0:0,0:0:0:0:
40,182,10892,2,0,L|55:241,1,52.5000020027161,2|0,0:0|0:0,0:0:0:0:
90,284,11453,6,0,P|143:276|199:293,1,105.000004005432,2|2,0:0|0:0,0:0:0:0:
229,339,12294,1,0,0:0:0:0:
229,339,12574,1,2,0:0:0:0:
351,368,13135,1,2,0:0:0:0:
435,275,13695,6,0,L|445:216,1,52.5000020027161,2|0,0:0|0:0,0:0:0:0:
454,160,14256,2,0,P|427:119|375:80,1,105.000004005432,2|2,0:0|0:0,0:0:0:0:
264,43,15378,2,0,P|235:37|205:38,1,52.5000020027161,2|0,0:0|0:0,0:0:0:0:
151,53,15938,6,0,L|139:161,1,105.000004005432,2|2,0:0|0:0,0:0:0:0:
89,196,16780,1,0,0:0:0:0:
124,316,17340,2,0,P|177:303|233:316,1,105.000004005432
342,360,18462,1,0,0:0:0:0:
431,57,19864,5,2,0:0:0:0:
431,57,20144,2,0,P|442:102|443:164,1,105.000004005432,0|0,0:0|0:0,0:0:0:0:
423,220,20985,2,0,L|450:268,2,52.5000020027161,2|0|2,0:0|0:0|0:0,0:0:0:0:
366,191,21826,2,0,L|257:189,1,105.000004005432,0|0,0:0|0:0,0:0:0:0:
197,188,22667,5,2,0:0:0:0:
108,277,23228,1,2,0:0:0:0:
16,190,23789,1,2,0:0:0:0:
104,100,24350,1,2,0:0:0:0:
198,16,24910,6,0,L|260:12,2,52.5000020027161,2|0|2,0:0|0:0|0:0,0:0:0:0:
104,100,26032,1,2,0:0:0:0:
104,100,26593,1,4,1:3:0:0:
136,271,27171,6,0,P|191:319|265:336,1,140,4|0,3:0|1:0,0:0:0:0:
334,308,28004,1,0,0:0:0:0:
409,271,28282,2,0,P|398:228|419:132,1,140,4|0,3:0|1:0,0:0:0:0:
462,65,29115,1,0,0:0:0:0:
396,12,29393,6,0,L|244:24,1,140,4|0,3:0|1:0,0:0:0:0:
196,81,30226,2,0,L|44:93,1,140,2|0,0:0|0:0,0:0:0:0:
2,156,31059,1,0,1:0:0:0:
108,286,31615,6,0,P|139:243|220:218,1,140,4|0,3:0|1:0,0:0:0:0:
300,238,32448,1,0,0:0:0:0:
338,312,32726,2,0,L|313:381,2,70,4|0|0,3:0|0:0|1:0,0:0:0:0:
418,287,33559,1,0,0:0:0:0:
383,210,33837,6,0,P|370:162|389:66,1,140,4|0,3:0|1:0,0:0:0:0:
460,36,34671,2,0,B|396:45|396:45|315:9,1,140,2|0,0:0|0:0,0:0:0:0:
247,40,35504,2,0,L|168:49,1,70,0|0,1:0|0:0,0:0:0:0:
105,91,36059,6,0,P|98:143|117:240,1,140,4|0,3:0|1:0,0:0:0:0:
179,291,36893,1,0,0:0:0:0:
179,291,37171,1,4,3:0:0:0:
346,333,37726,1,0,1:0:0:0:
346,333,38004,6,0,P|324:281|316:193,1,140,2|0,0:0|0:0,0:0:0:0:
331,115,38837,1,0,1:0:0:0:
409,84,39115,1,0,0:0:0:0:
467,144,39393,2,0,P|489:196|497:284,1,140,4|0,3:0|1:0,0:0:0:0:
440,340,40226,1,0,0:0:0:0:
440,340,40504,6,0,L|298:343,1,140,4|0,3:0|1:0,0:0:0:0:
220,314,41337,1,0,0:0:0:0:
220,314,41615,2,0,L|78:317,1,140,4|0,3:0|1:0,0:0:0:0:
19,259,42448,1,0,0:0:0:0:
61,186,42726,6,0,L|50:116,2,70,4|0|0,3:0|0:0|1:0,0:0:0:0:
143,201,43559,1,0,0:0:0:0:
225,215,43837,2,0,L|236:285,2,70,4|0|0,3:0|0:0|1:0,0:0:0:0:
326,80,44948,6,0,P|390:52|458:84,1,140,4|0,3:0|1:0,0:0:0:0:
390,134,45782,1,0,0:0:0:0:
395,217,46059,2,0,L|403:358,1,140,4|0,3:0|1:0,0:0:0:0:
234,346,47171,6,0,P|170:374|102:342,1,140,4|0,3:0|1:0,0:0:0:0:
170,292,48005,1,0,0:0:0:0:
165,209,48282,2,0,L|157:68,1,140,4|0,3:0|1:0,0:0:0:0:
73,75,49115,1,0,0:0:0:0:
73,75,49393,6,0,L|82:214,1,140,4|0,3:0|1:0,0:0:0:0:
90,298,50226,1,0,0:0:0:0:
167,265,50504,2,0,P|240:251|304:277,1,140,4|0,3:0|1:0,0:0:0:0:
372,316,51337,6,0,P|440:304|492:259,1,140,0|0,0:0|0:0,0:0:0:0:
473,177,52171,2,0,L|429:114,1,70,0|0,1:0|0:0,0:0:0:0:
360,80,52726,2,0,P|292:92|240:137,1,140,4|0,3:0|1:0,0:0:0:0:
178,293,53837,6,0,P|123:317|50:261,1,140,4|0,3:0|1:0,0:0:0:0:
35,198,54671,1,0,0:0:0:0:
35,198,54948,2,0,L|96:64,1,140,4|0,3:0|1:0,0:0:0:0:
259,47,56059,6,0,P|314:23|387:79,1,140,4|0,3:0|1:0,0:0:0:0:
402,142,56893,1,0,0:0:0:0:
402,142,57170,2,0,L|341:276,1,140,4|0,3:0|1:0,0:0:0:0:
287,331,58004,1,0,0:0:0:0:
207,304,58282,6,0,L|130:322,2,70,4|0|0,3:0|0:0|1:0,0:0:0:0:
273,150,59393,2,0,L|350:132,2,70,4|0|0,3:0|0:0|1:0,0:0:0:0:
189,154,60226,6,0,P|132:107|122:40,1,140,2|2,0:0|0:0,0:0:0:0:
197,8,61059,1,0,1:0:0:0:
267,53,61337,2,0,L|346:62,1,70,4|8,3:0|3:0,0:0:0:0:
409,103,61893,1,4,3:0:0:0:
409,103,62171,2,0,P|418:157|414:192,1,70,4|2,1:2|0:0,0:0:0:0:
385,258,62726,6,0,P|310:237|232:240,1,154.000004699707,4|0,3:0|1:0,0:0:0:0:
152,281,63559,1,0,0:0:0:0:
62,256,63837,2,0,L|-15:277,2,77.0000023498536,4|0|0,3:0|0:0|1:0,0:0:0:0:
97,170,64671,1,0,0:0:0:0:
144,91,64948,6,0,L|293:55,1,154.000004699707,4|0,3:0|1:0,0:0:0:0:
383,30,65782,2,0,P|434:34|478:123,1,154.000004699707,0|2,0:0|0:0,0:0:0:0:
406,174,66615,2,0,P|368:163|328:164,1,77.0000023498536,0|2,1:0|0:0,0:0:0:0:
238,175,67171,6,0,P|227:230|242:333,1,154.000004699707,4|0,3:0|1:0,0:0:0:0:
328,349,68004,1,0,0:0:0:0:
411,308,68282,2,0,L|494:327,2,77.0000023498536,4|0|0,3:0|0:0|1:0,0:0:0:0:
353,235,69115,1,0,0:0:0:0:
353,235,69393,6,0,L|364:73,1,154.000004699707,2|0,0:0|1:0,0:0:0:0:
280,39,70226,2,0,P|208:65|126:61,1,154.000004699707,0|0,0:0|0:0,0:0:0:0:
42,36,71059,1,4,1:2:0:0:
47,220,71615,6,0,P|59:280|145:340,1,154.000004699707,4|0,0:0|1:0,0:0:0:0:
196,274,72448,1,0,0:0:0:0:
196,274,72726,2,0,L|358:264,1,154.000004699707,4|0,3:0|1:0,0:0:0:0:
375,81,73837,6,0,P|421:82|461:97,1,77.0000023498536,4|0,3:0|0:0,0:0:0:0:
486,176,74393,2,0,L|480:256,1,77.0000023498536,0|0,1:0|0:0,0:0:0:0:
434,333,74948,1,4,3:0:0:0:
341,329,75226,1,0,0:0:0:0:
287,253,75504,1,0,1:0:0:0:
216,82,76059,6,0,L|43:89,1,154.000004699707,4|0,3:0|1:0,0:0:0:0:
12,166,76893,1,0,0:0:0:0:
12,166,77171,2,0,P|62:196|95:283,1,154.000004699707,4|0,3:0|1:0,0:0:0:0:
269,342,78282,6,0,P|328:342|356:351,1,77.0000023498536,4|2,3:0|0:0,0:0:0:0:
432,316,78837,2,0,P|443:271|458:242,1,77.0000023498536,0|4,1:0|3:0,0:0:0:0:
496,159,79393,1,2,0:0:0:0:
418,108,79671,1,2,0:0:0:0:
340,58,79948,1,4,1:2:0:0:
340,58,80504,6,0,B|274:76|263:56|252:35|185:56,1,154.000004699707,4|0,1:2|1:0,0:0:0:0:
107,95,81337,1,0,0:0:0:0:
22,133,81615,2,0,L|-6:61,2,77.0000023498536,4|0|0,3:0|0:0|1:0,0:0:0:0:
70,211,82448,1,0,0:0:0:0:
120,288,82726,2,0,P|181:281|265:331,1,154.000004699707,4|0,3:0|1:0,0:0:0:0:
338,373,83559,2,0,L|501:345,1,154.000004699707,0|0,0:0|0:0,0:0:0:0:
492,254,84393,2,0,P|471:214|466:178,1,77.0000023498536,0|0,1:0|0:0,0:0:0:0:
454,91,84948,6,0,P|400:56|309:60,1,154.000004699707,4|0,3:0|1:0,0:0:0:0:
231,102,85782,1,0,0:0:0:0:
149,145,86059,2,0,L|75:186,2,77.0000023498536,4|0|0,3:0|0:0|1:0,0:0:0:0:
226,196,86893,1,0,0:0:0:0:
201,285,87171,6,0,P|139:322|66:293,1,154.000004699707,4|0,3:0|1:0,0:0:0:0:
12,219,88004,2,0,L|-2:62,1,154.000004699707,2|0,0:0|0:0,0:0:0:0:
72,11,88837,1,0,1:0:0:0:
209,134,89393,6,0,P|270:96|354:99,1,154.000004699707,4|0,1:2|1:0,0:0:0:0:
434,134,90226,1,0,0:0:0:0:
434,134,90504,2,0,L|432:292,1,154.000004699707,4|0,3:0|1:0,0:0:0:0:
258,351,91615,6,0,P|227:312|193:298,1,77.0000023498536,4|0,3:0|0:0,0:0:0:0:
111,288,92171,2,0,P|77:268|56:237,1,77.0000023498536,0|0,1:0|0:0,0:0:0:0:
36,147,92726,1,4,3:0:0:0:
54,56,93004,1,0,0:0:0:0:
145,39,93282,1,0,1:0:0:0:
273,169,93837,6,0,P|340:199|395:147,1,154.000004699707,4|0,3:0|1:0,0:0:0:0:
374,60,94671,1,0,0:0:0:0:
374,60,94948,2,0,P|307:30|252:82,1,154.000004699707,4|0,3:0|1:0,0:0:0:0:
150,231,96059,5,4,3:0:0:0:
303,334,96615,1,0,1:0:0:0:
371,271,96893,1,4,3:0:0:0:
459,294,97171,1,0,1:0:0:0:
459,294,98282,6,0,L|443:150,1,140,4|0,3:0|1:0,0:0:0:0:
443,70,99115,1,0,0:0:0:0:
364,98,99393,2,0,P|304:102|229:61,1,140,4|0,3:0|1:0,0:0:0:0:
163,21,100226,1,0,0:0:0:0:
92,67,100504,6,0,P|67:130|67:207,1,140,4|0,3:0|1:0,0:0:0:0:
102,277,101337,2,0,P|157:253|224:288,1,140,0|0,0:0|0:0,0:0:0:0:
277,352,102171,1,0,1:0:0:0:
438,305,102726,6,0,L|477:167,1,140,4|0,3:0|1:0,0:0:0:0:
406,123,103559,1,0,0:0:0:0:
332,81,103837,2,0,P|369:47|397:38,2,70,4|0|0,3:0|0:0|1:0,0:0:0:0:
259,123,104671,1,0,0:0:0:0:
178,146,104948,6,0,P|103:163|26:139,1,140,4|0,3:0|1:0,0:0:0:0:
63,66,105782,2,0,P|138:49|215:73,1,140,0|0,0:0|0:0,0:0:0:0:
259,123,106615,2,0,L|260:199,1,70,0|0,1:0|0:0,0:0:0:0:
257,277,107171,6,0,P|289:333|361:358,1,140,4|0,3:0|1:0,0:0:0:0:
440,348,108004,1,0,0:0:0:0:
440,348,108282,1,4,3:0:0:0:
482,185,108837,1,0,1:0:0:0:
482,185,109115,6,0,B|422:168|413:186|403:205|343:186,1,140,0|0,0:0|0:0,0:0:0:0:
261,178,109948,2,0,P|245:136|247:108,1,70,0|0,1:0|0:0,0:0:0:0:
306,52,110504,2,0,P|237:28|179:60,1,140,4|0,3:0|1:0,0:0:0:0:
110,103,111337,1,0,0:0:0:0:
110,103,111615,6,0,L|85:244,1,140,4|0,3:0|1:0,0:0:0:0:
80,324,112448,1,0,0:0:0:0:
80,324,112726,2,0,P|115:289|202:285,1,140,4|0,3:0|1:0,0:0:0:0:
274,335,113559,1,0,0:0:0:0:
274,335,113837,6,0,P|342:338|395:295,1,140,4|0,3:0|1:0,0:0:0:0:
440,222,114671,1,0,0:0:0:0:
440,222,114948,2,0,L|456:72,1,140,4|0,3:0|1:0,0:0:0:0:
295,28,116059,6,0,P|229:62|156:65,1,140,4|0,3:0|1:0,0:0:0:0:
87,101,116893,1,0,0:0:0:0:
87,101,117171,2,0,L|136:239,1,140,4|0,3:0|1:0,0:0:0:0:
259,345,118282,6,0,P|325:311|398:308,1,140,4|0,3:0|1:0,0:0:0:0:
467,272,119116,1,0,0:0:0:0:
467,272,119394,2,0,L|418:134,1,140,4|0,3:0|1:0,0:0:0:0:
343,107,120226,1,0,0:0:0:0:
343,107,120504,6,0,P|292:125|229:76,1,140,4|0,3:0|1:0,0:0:0:0:
154,38,121337,1,0,0:0:0:0:
154,38,121615,2,0,P|87:24|40:72,1,140,4|0,3:0|1:0,0:0:0:0:
98,131,122448,6,0,L|117:280,1,140,0|0,0:0|0:0,0:0:0:0:
149,347,123282,2,0,P|186:363|216:366,1,70,0|0,1:0|0:0,0:0:0:0:
275,306,123837,2,0,P|335:298|421:300,1,140,4|0,3:0|1:0,0:0:0:0:
454,136,124948,6,0,P|430:86|349:66,1,140,4|0,3:0|1:0,0:0:0:0:
278,105,125782,1,0,0:0:0:0:
278,105,126059,2,0,B|233:114|233:114|185:99|185:99|141:107,1,140,4|0,3:0|1:0,0:0:0:0:
49,247,127171,6,0,B|93:255|93:255|141:240|141:240|186:249,1,140,4|0,3:0|1:0,0:0:0:0:
260,289,128004,1,0,0:0:0:0:
260,289,128282,2,0,P|327:276|362:217,1,140,4|0,3:0|1:0,0:0:0:0:
366,133,129115,1,0,0:0:0:0:
436,179,129393,6,0,L|505:189,2,70,4|0|0,3:0|0:0|1:0,0:0:0:0:
300,80,130504,2,0,L|231:70,2,70,4|0|0,3:0|0:0|1:0,0:0:0:0:
366,133,131337,1,0,0:0:0:0:
436,179,131615,6,0,L|430:322,1,140,2|0,0:0|1:0,0:0:0:0:
351,348,132448,1,4,3:0:0:0:
351,348,132726,2,0,P|315:337|279:341,1,70,4|4,3:0|3:0,0:0:0:0:
201,359,133282,1,4,1:2:0:0:
201,359,133559,1,2,0:0:0:0:
119,315,133837,6,0,P|76:257|63:176,1,154.000004699707,4|0,3:0|1:0,0:0:0:0:
62,84,134671,1,0,0:0:0:0:
148,51,134948,2,0,L|225:62,2,77.0000023498536,4|0|0,3:0|0:0|1:0,0:0:0:0:
62,84,135782,1,0,0:0:0:0:
136,138,136059,6,0,L|290:159,1,154.000004699707,4|0,3:0|1:0,0:0:0:0:
349,88,136893,2,0,L|328:242,1,154.000004699707,4|2,3:0|0:0,0:0:0:0:
339,332,137726,2,0,P|379:353|412:357,1,77.0000023498536,0|2,1:0|0:0,0:0:0:0:
481,297,138282,6,0,L|501:144,1,154.000004699707,4|0,3:0|1:0,0:0:0:0:
447,69,139115,1,0,0:0:0:0:
366,115,139393,2,0,L|278:126,2,77.0000023498536,4|0|0,3:0|0:0|1:0,0:0:0:0:
447,69,140226,1,0,0:0:0:0:
365,25,140504,6,0,B|272:37|272:37|213:28,1,154.000004699707,4|0,3:0|1:0,0:0:0:0:
120,16,141337,2,0,B|111:75|111:75|123:168,1,154.000004699707,0|0,0:0|0:0,0:0:0:0:
143,259,142171,1,4,1:2:0:0:
324,225,142726,6,0,P|278:171|200:196,1,154.000004699707,4|0,1:2|1:0,0:0:0:0:
143,259,143559,1,0,0:0:0:0:
123,168,143837,2,0,B|111:75|111:75|120:16,1,154.000004699707,4|0,3:0|1:0,0:0:0:0:
30,177,144948,6,0,L|39:258,1,77.0000023498536,4|0,3:0|0:0,0:0:0:0:
93,328,145504,2,0,P|131:338|172:330,1,77.0000023498536,0|0,1:0|0:0,0:0:0:0:
234,267,146059,1,4,3:0:0:0:
326,270,146337,1,0,0:0:0:0:
377,346,146615,1,0,1:0:0:0:
480,192,147171,6,0,P|488:119|454:44,1,154.000004699707,4|0,3:0|1:0,0:0:0:0:
374,90,148004,1,0,0:0:0:0:
374,90,148282,2,0,L|214:83,1,154.000004699707,4|0,3:0|1:0,0:0:0:0:
90,215,149393,6,0,P|38:219|2:215,1,77.0000023498536,4|2,3:0|0:0,0:0:0:0:
46,130,149948,2,0,P|98:126|134:130,1,77.0000023498536,0|4,1:0|3:0,0:0:0:0:
203,172,150504,1,2,0:0:0:0:
186,263,150782,1,2,0:0:0:0:
110,316,151059,1,4,1:2:0:0:
110,316,151615,6,0,L|270:323,1,154.000004699707,4|0,1:2|1:0,0:0:0:0:
346,364,152448,1,0,0:0:0:0:
430,327,152726,2,0,P|471:334|508:329,2,77.0000023498536,4|0|0,3:0|0:0|1:0,0:0:0:0:
349,281,153559,1,0,0:0:0:0:
430,236,153837,6,0,B|440:182|440:182|422:141|422:141|431:88,1,154.000004699707,4|0,3:0|1:0,0:0:0:0:
510,39,154671,2,0,B|456:49|456:49|415:31|415:31|362:40,1,154.000004699707,0|0,0:0|0:0,0:0:0:0:
270,58,155504,2,0,L|245:131,1,77.0000023498536,0|0,1:0|0:0,0:0:0:0:
160,168,156059,6,0,P|129:103|49:74,1,154.000004699707,4|0,3:0|1:0,0:0:0:0:
16,157,156893,1,0,0:0:0:0:
16,157,157171,2,0,L|11:235,1,77.0000023498536,4|0,3:0|0:0,0:0:0:0:
102,245,157726,2,0,L|97:323,1,77.0000023498536,0|0,1:0|0:0,0:0:0:0:
181,361,158282,6,0,P|230:322|318:331,1,154.000004699707,4|0,3:0|1:0,0:0:0:0:
372,256,159115,2,0,P|333:207|342:119,1,154.000004699707,0|0,0:0|0:0,0:0:0:0:
409,57,159948,1,0,1:0:0:0:
248,148,160504,6,0,L|84:124,1,154.000004699707,4|0,0:0|1:0,0:0:0:0:
88,32,161337,1,0,0:0:0:0:
88,32,161615,2,0,L|252:56,1,154.000004699707,4|0,3:0|1:0,0:0:0:0:
424,80,162726,6,0,L|412:156,1,77.0000023498536,4|0,3:0|0:0,0:0:0:0:
456,236,163282,2,0,L|444:312,1,77.0000023498536,0|0,1:0|0:0,0:0:0:0:
368,364,163837,1,4,3:0:0:0:
304,296,164115,1,0,0:0:0:0:
220,332,164393,1,0,1:0:0:0:
47,265,164948,6,0,P|35:181|51:109,1,154.000004699707,4|0,3:0|1:0,0:0:0:0:
141,125,165782,1,0,0:0:0:0:
141,125,166059,2,0,B|215:119|215:119|278:69,1,154.000004699707,4|0,3:0|1:0,0:0:0:0:
256,192,167171,12,2,168837,0:0:0:0:
437,109,169393,6,0,L|418:254,1,140,4|0,1:2|1:0,0:0:0:0:
355,303,170226,1,0,0:0:0:0:
355,303,170504,1,2,0:0:0:0:
198,241,171059,2,0,P|236:242|270:263,1,70,0|0,1:0|0:0,0:0:0:0:
212,324,171615,6,0,L|69:311,1,140,2|0,0:0|1:0,0:0:0:0:
14,250,172448,1,0,0:0:0:0:
14,250,172726,1,2,0:0:0:0:
73,92,173282,1,0,1:0:0:0:
144,135,173559,1,0,0:0:0:0:
207,80,173837,6,0,P|298:39|405:56,2,210,2|2|0,0:0|0:0|1:0,0:0:0:0:
221,163,175782,1,0,0:0:0:0:
228,246,176059,6,0,P|137:287|30:270,2,210,2|2|4,0:0|0:0|1:2,0:0:0:0:
292,191,178004,1,0,0:0:0:0:
354,247,178282,6,0,L|372:104,1,140,4|0,0:0|1:0,0:0:0:0:
455,101,179115,2,0,L|437:244,1,140,0|0,0:0|0:0,0:0:0:0:
414,320,179948,2,0,P|378:338|346:341,1,70,0|0,1:0|0:0,0:0:0:0:
274,301,180504,6,0,P|230:292|139:321,1,140,2|0,0:0|1:0,0:0:0:0:
71,271,181337,2,0,P|80:227|51:136,1,140,0|0,0:0|0:0,0:0:0:0:
0,72,182171,1,4,1:2:0:0:
164,104,182726,6,0,P|214:64|332:127,2,210,2|2|0,0:0|0:0|1:0,0:0:0:0:
208,175,184671,1,0,0:0:0:0:
208,175,184948,2,0,L|196:319,1,140,2|4,0:0|0:0,0:0:0:0:
257,372,185782,1,0,3:0:0:0:
327,326,186059,2,0,P|370:307|398:302,1,70,0|8,1:0|3:0,0:0:0:0:
472,276,186615,2,0,P|456:244|448:210,1,70,0|4,1:0|3:0,0:0:0:0:
487,136,187171,6,0,P|425:151|346:121,1,140,4|0,0:0|1:0,0:0:0:0:
320,50,188004,2,0,L|150:56,1,140,4|0,3:0|0:0,0:0:0:0:
96,64,188837,2,0,P|65:82|41:113,1,70,0|0,1:0|0:0,0:0:0:0:
74,186,189393,6,0,L|213:198,1,140,2|0,0:0|1:0,0:0:0:0:
225,281,190226,2,0,L|86:269,1,140,6|2,3:0|0:0,0:0:0:0:
8,235,191059,1,0,1:0:0:0:
126,116,191615,6,0,B|182:88|182:88|258:103|258:103|321:70,2,210,4|0|0,0:0|0:0|1:0,0:0:0:0:
166,189,193559,1,0,0:0:0:0:
211,259,193837,6,0,B|155:287|155:287|79:272|79:272|16:305,2,210,2|0|0,0:0|0:0|1:0,0:0:0:0:
284,217,195782,1,0,0:0:0:0:
344,274,196059,6,0,P|396:294|499:286,1,140,4|0,0:0|1:0,0:0:0:0:
505,211,196893,2,0,L|484:71,1,140,0|0,0:0|0:0,0:0:0:0:
413,27,197726,2,0,P|371:19|338:20,1,70,0|0,1:0|0:0,0:0:0:0:
303,93,198282,6,0,P|245:114|169:100,1,140,2|0,0:0|1:0,0:0:0:0:
90,71,199115,2,0,L|17:194,1,140,0|0,0:0|0:0,0:0:0:0:
37,273,199948,1,0,1:0:0:0:
188,346,200504,6,0,L|261:350,2,70,4|0|0,0:0|0:0|1:0,0:0:0:0:
142,275,201337,1,0,0:0:0:0:
93,206,201615,2,0,L|20:202,2,70,2|0|0,0:0|0:0|1:0,0:0:0:0:
155,149,202448,1,0,0:0:0:0:
256,192,202726,12,4,204671,1:2:0:0:
131,126,208559,5,0,1:0:0:0:
214,108,208837,1,4,3:0:0:0:
297,90,209115,1,0,1:0:0:0:
380,72,209393,6,0,B|377:116|377:116|404:152|404:152|400:203,1,140,4|0,1:2|1:0,0:0:0:0:
467,263,210226,1,0,0:0:0:0:
467,263,210504,2,0,P|418:240|336:263,1,140,2|0,0:0|1:0,0:0:0:0:
270,312,211337,1,0,0:0:0:0:
198,356,211615,2,0,P|133:378|68:355,1,140,2|0,0:0|1:0,0:0:0:0:
13,292,212448,1,0,3:0:0:0:
13,292,212726,2,0,P|48:275|83:273,1,70,4|4,3:0|3:0,0:0:0:0:
162,279,213282,1,4,1:2:0:0:
32,147,213837,6,0,P|47:82|144:51,1,154.000004699707,4|0,0:0|1:0,0:0:0:0:
196,110,214670,1,0,0:0:0:0:
196,110,214948,2,0,L|358:120,1,154.000004699707,4|0,3:0|1:0,0:0:0:0:
375,303,216059,6,0,P|421:302|461:287,1,77.0000023498536,4|0,3:0|0:0,0:0:0:0:
486,208,216615,2,0,L|480:128,1,77.0000023498536,0|0,1:0|0:0,0:0:0:0:
434,51,217170,1,4,3:0:0:0:
341,55,217448,1,0,0:0:0:0:
287,131,217726,1,4,1:2:0:0:
216,302,218281,6,0,L|43:295,1,154.000004699707,4|0,0:0|1:0,0:0:0:0:
12,218,219115,1,0,0:0:0:0:
12,218,219393,2,0,P|62:188|95:101,1,154.000004699707,4|0,3:0|1:0,0:0:0:0:
269,42,220504,6,0,P|328:42|356:33,1,77.0000023498536,4|0,3:0|0:0,0:0:0:0:
432,68,221059,2,0,P|443:113|458:142,1,77.0000023498536,0|4,1:0|3:0,0:0:0:0:
496,225,221615,1,4,3:0:0:0:
418,276,221893,1,0,0:0:0:0:
340,326,222170,1,4,1:2:0:0:
340,326,222726,6,0,B|274:308|263:328|252:349|185:328,1,154.000004699707,4|0,1:2|1:0,0:0:0:0:
107,289,223559,1,0,0:0:0:0:
22,251,223837,2,0,L|-6:323,2,77.0000023498536,4|0|0,3:0|0:0|1:0,0:0:0:0:
70,173,224670,1,0,0:0:0:0:
120,96,224948,6,0,P|181:103|265:53,1,154.000004699707,4|0,3:0|1:0,0:0:0:0:
338,11,225781,2,0,L|501:39,1,154.000004699707,0|0,0:0|0:0,0:0:0:0:
492,130,226615,2,0,P|471:170|466:206,1,77.0000023498536,0|0,1:0|0:0,0:0:0:0:
454,293,227170,6,0,P|400:328|309:324,1,154.000004699707,4|0,3:0|1:0,0:0:0:0:
231,282,228004,1,0,0:0:0:0:
149,239,228281,2,0,L|75:198,2,77.0000023498536,2|0|0,0:0|0:0|1:0,0:0:0:0:
226,188,229115,1,0,0:0:0:0:
201,99,229393,6,0,P|139:62|66:91,1,154.000004699707,4|0,3:0|1:0,0:0:0:0:
12,165,230226,2,0,L|-2:322,1,154.000004699707,0|0,0:0|0:0,0:0:0:0:
72,373,231059,1,4,1:2:0:0:
209,250,231615,6,0,P|270:288|354:285,1,154.000004699707,4|0,0:0|1:0,0:0:0:0:
434,250,232448,1,0,0:0:0:0:
434,250,232726,2,0,L|432:92,1,154.000004699707,4|0,3:0|1:0,0:0:0:0:
258,33,233837,6,0,P|227:72|193:86,1,77.0000023498536,4|0,3:0|0:0,0:0:0:0:
111,96,234393,2,0,P|77:116|56:147,1,77.0000023498536,0|0,1:0|0:0,0:0:0:0:
36,237,234948,1,4,3:0:0:0:
101,302,235226,1,0,0:0:0:0:
168,366,235504,1,0,1:0:0:0:
273,215,236059,6,0,P|340:185|395:237,1,154.000004699707,4|0,0:0|1:0,0:0:0:0:
374,324,236893,1,0,0:0:0:0:
374,324,237170,2,0,P|307:354|252:302,1,154.000004699707,4|0,3:0|1:0,0:0:0:0:
107,190,238282,6,0,L|134:117,1,77.0000023498536,4|0,3:0|3:0,0:0:0:0:
205,177,238837,2,0,L|232:104,1,77.0000023498536,0|4,1:0|3:0,0:0:0:0:
260,25,239393,1,0,1:0:0:0:
