osu file format v14

[General]
AudioFilename: audio.mp3
AudioLeadIn: 0
PreviewTime: 44617
Countdown: 0
SampleSet: None
StackLeniency: 0.4
Mode: 0
LetterboxInBreaks: 0
WidescreenStoryboard: 1

[Editor]
Bookmarks: 91610
DistanceSpacing: 1
BeatDivisor: 4
GridSize: 16
TimelineZoom: 1

[Metadata]
Title:Pyramids
TitleUnicode:Pyramids
Artist:DVBBS & Dropgun
ArtistUnicode:DVBBS & Dropgun
Creator:BOT Pieselek
Version:Hard
Source:
Tags:
BeatmapID:1682422
BeatmapSetID:760639

[Difficulty]
HPDrainRate:4
CircleSize:3
OverallDifficulty:6
ApproachRate:8
SliderMultiplier:1.4
SliderTickRate:1

[Events]
//Background and Video events
0,0,"leoh_image_undefined (8).jpg",0,0
//Break Periods
//Storyboard Layer 0 (Background)
//Storyboard Layer 1 (Fail)
//Storyboard Layer 2 (Pass)
//Storyboard Layer 3 (Foreground)
//Storyboard Sound Samples

[TimingPoints]
1610,468.75,4,3,0,80,1,0
16610,-100,4,3,0,80,0,0
31610,-66.6666666666667,4,3,0,80,0,0
46141,-66.6666666666667,4,3,0,80,0,1
82235,-66.6666666666667,4,3,0,80,0,0
92899,-66.6666666666667,4,3,0,5,0,0

[Colours]
Combo1 : 255,192,0
Combo2 : 255,128,64
Combo3 : 55,111,69
Combo4 : 118,111,155

[HitObjects]
118,84,1610,5,0,0:0:0:0:
155,201,2078,1,0,0:0:0:0:
217,144,2313,1,0,0:0:0:0:
238,224,2547,2,0,P|287:237|324:308,2,105
133,162,3719,6,0,P|130:216|155:254,1,70
194,289,4188,2,0,P|205:329|184:376,1,70
93,314,4656,2,0,P|62:275|58:235,1,70
78,174,5125,1,0,0:0:0:0:
160,190,5360,1,0,0:0:0:0:
130,111,5594,6,0,P|165:92|214:100,2,70
160,190,6297,1,0,0:0:0:0:
58,142,6531,2,0,P|21:163|7:197,2,70
87,210,7469,1,0,0:0:0:0:
150,154,7703,1,0,0:0:0:0:
150,154,7820,2,0,L|177:106,3,35
81,206,8406,2,0,P|74:256|89:300,1,70
153,264,8875,2,0,P|157:298|149:332,1,70,0|8,0:0|0:0,0:0:0:0:
250,317,9813,5,0,0:0:0:0:
250,317,9930,2,0,L|272:272,2,35
165,350,10399,1,0,0:0:0:0:
165,350,10516,2,0,L|96:304,2,70
409,288,11688,6,0,L|431:243,3,35
427,214,12156,2,0,P|421:174|390:137,1,70
323,170,12625,1,0,0:0:0:0:
359,94,12860,1,0,0:0:0:0:
394,257,13328,5,0,0:0:0:0:
323,170,13563,1,0,0:0:0:0:
424,235,13797,1,0,0:0:0:0:
256,246,14266,1,0,0:0:0:0:
256,246,14383,2,0,P|306:207|338:199,1,70
312,206,14735,2,0,P|364:170|374:97,1,140
296,65,15438,1,0,0:0:0:0:
212,77,15672,2,0,P|177:75|145:89,1,70
89,151,16141,1,0,0:0:0:0:
248,97,16610,6,0,P|282:139|289:185,1,70
226,244,17078,2,0,P|211:212|187:187,1,70
116,232,17547,2,0,P|91:207|77:175,2,70
189,273,18250,1,0,0:0:0:0:
340,199,18719,5,0,0:0:0:0:
340,199,18836,1,0,0:0:0:0:
340,199,18953,1,0,0:0:0:0:
416,233,19188,1,0,0:0:0:0:
354,290,19422,1,0,0:0:0:0:
278,252,19656,1,0,0:0:0:0:
278,252,19774,1,0,0:0:0:0:
278,252,19891,1,0,0:0:0:0:
260,169,20125,1,0,0:0:0:0:
96,206,20594,6,0,P|146:178|180:175,1,70
231,254,21063,1,0,0:0:0:0:
307,306,21297,2,0,P|362:290|388:268,1,70
373,284,21649,1,0,0:0:0:0:
373,284,21766,1,0,0:0:0:0:
467,242,22000,1,0,0:0:0:0:
300,220,22469,5,0,0:0:0:0:
363,164,22703,1,0,0:0:0:0:
363,164,22820,2,0,L|390:116,3,35
311,84,23406,6,0,L|214:73,1,70
168,118,23875,1,0,0:0:0:0:
245,151,24110,1,0,0:0:0:0:
427,328,24813,6,0,L|411:359,2,35
433,286,25164,1,0,0:0:0:0:
421,202,25399,1,0,0:0:0:0:
421,202,25516,2,0,L|362:163,2,70
262,257,26688,6,0,P|248:285|228:306,1,35
207,304,26922,2,0,P|193:332|173:353,1,35
149,340,27156,1,0,0:0:0:0:
138,256,27391,2,0,L|205:203,1,70
255,156,27860,1,0,0:0:0:0:
396,65,28328,2,0,L|423:114,1,35
356,158,28680,2,0,L|393:196,1,35
179,243,29266,6,0,P|156:196|156:149,1,70
258,169,29735,2,0,P|265:134|283:104,1,70
182,75,30203,2,0,P|159:28|159:-19,1,70
56,43,30672,1,0,0:0:0:0:
10,137,30906,2,0,P|17:186|51:223,1,70
299,42,31610,6,0,P|362:50|428:92,1,105.000004005432
442,235,32078,2,0,P|397:170|355:145,1,105.000004005432
261,263,32547,1,0,0:0:0:0:
404,327,32781,2,0,P|364:293|338:247,1,105.000004005432
225,103,33485,6,0,P|199:57|159:23,1,105.000004005432
302,87,33953,1,0,0:0:0:0:
186,194,34188,2,0,P|146:160|120:114,1,105.000004005432
164,282,34656,2,0,P|211:303|263:307,1,105.000004005432
109,24,35360,5,0,0:0:0:0:
230,124,35594,2,0,P|225:213|242:264,1,105.000004005432
325,102,36063,2,0,P|330:13|313:-38,1,105.000004005432
181,57,36531,1,0,0:0:0:0:
257,195,36766,1,0,0:0:0:0:
48,173,37235,5,0,0:0:0:0:
169,273,37469,2,0,P|164:362|181:413,1,105.000004005432
264,251,37938,2,0,P|269:162|252:111,1,105.000004005432
120,206,38406,1,0,0:0:0:0:
163,109,38641,1,0,0:0:0:0:
224,224,39110,2,0,L|176:320,8,105.000004005432
304,192,41219,6,0,L|352:80,7,105.000004005432
288,80,42977,2,0,L|208:96,5,52.5000020027161
192,80,43680,2,0,L|112:64,5,52.5000020027161
96,80,44383,1,0,0:0:0:0:
96,128,44500,1,0,0:0:0:0:
112,176,44618,1,0,0:0:0:0:
136,222,44735,1,0,0:0:0:0:
224,160,46141,6,0,B|336:112|336:192|432:144,1,210.000008010865
496,64,46844,2,0,L|384:16,1,105.000004005432
320,80,47313,2,0,L|208:128,1,105.000004005432
128,144,47781,1,0,0:0:0:0:
208,208,48016,1,0,0:0:0:0:
416,160,48485,6,0,L|480:192,2,52.5000020027161
320,192,48953,1,0,0:0:0:0:
352,96,49188,2,0,L|288:64,2,52.5000020027161
448,80,49656,1,0,0:0:0:0:
374,155,49891,1,0,0:0:0:0:
166,187,50360,5,0,0:0:0:0:
86,123,50595,1,0,0:0:0:0:
181,100,50829,2,0,L|277:58,1,105.000004005432
357,2,51298,2,0,L|453:43,1,105.000004005432
478,145,51766,1,0,0:0:0:0:
286,231,52235,6,0,L|350:263,2,52.5000020027161
190,263,52703,1,0,0:0:0:0:
222,167,52938,2,0,L|158:135,2,52.5000020027161
321,135,53406,1,0,0:0:0:0:
232,77,53641,1,0,0:0:0:0:
94,201,54110,6,0,P|186:207|237:239,1,105.000004005432
262,293,54578,2,0,P|170:287|119:255,1,105.000004005432
96,367,55047,2,0,P|49:337|3:283,1,105.000004005432
118,282,55516,1,0,0:0:0:0:
327,290,55985,5,0,0:0:0:0:
327,290,56102,2,0,L|377:251,1,52.5000020027161
443,184,56453,1,0,0:0:0:0:
379,100,56688,2,0,L|339:57,2,52.5000020027161
316,184,57156,1,0,0:0:0:0:
357,280,57391,1,0,0:0:0:0:
150,316,57860,5,0,0:0:0:0:
105,220,58094,2,0,P|123:144|145:118,1,105.000004005432
221,189,58563,2,0,P|248:233|254:285,1,105.000004005432
357,270,59031,2,0,P|350:218|322:174,1,105.000004005432
77,160,59735,6,0,L|81:90,3,52.5000020027161,2|2|2|2,0:0|0:0|0:0|0:0,0:0:0:0:
165,112,60203,6,0,L|161:182,3,52.5000020027161,2|2|2|2,0:0|0:0|0:0|0:0,0:0:0:0:
245,114,60672,1,8,0:0:0:0:
241,231,60906,1,8,0:0:0:0:
245,84,61141,1,12,0:0:0:0:
447,141,61610,6,0,L|486:251,1,105.000004005432
377,251,62078,2,0,L|336:351,1,105.000004005432
234,324,62547,1,0,0:0:0:0:
161,248,62781,1,0,0:0:0:0:
208,154,63016,1,0,0:0:0:0:
408,94,63485,5,0,0:0:0:0:
408,94,63602,2,0,L|440:165,1,52.5000020027161
341,199,63953,1,0,0:0:0:0:
438,239,64188,2,0,L|421:293,2,52.5000020027161
415,136,64656,2,0,P|368:108|280:109,1,105.000004005432
169,250,65360,6,0,P|221:226|267:163,1,105.000004005432
268,87,65828,2,0,P|216:111|170:174,1,105.000004005432
252,191,66297,2,0,P|289:229|337:250,1,105.000004005432
425,192,66766,1,0,0:0:0:0:
229,116,67235,5,0,0:0:0:0:
229,116,67352,1,0,0:0:0:0:
229,116,67469,1,0,0:0:0:0:
330,142,67703,1,0,0:0:0:0:
320,246,67938,1,0,0:0:0:0:
320,246,68055,2,0,L|284:293,1,52.5000020027161
186,260,68406,1,0,0:0:0:0:
108,188,68641,1,0,0:0:0:0:
318,188,69110,6,0,L|441:186,1,105.000004005432
373,93,69578,2,0,L|258:93,1,105.000004005432
162,95,70047,1,0,0:0:0:0:
199,192,70281,1,0,0:0:0:0:
279,260,70516,1,0,0:0:0:0:
391,82,70985,6,0,L|313:88,1,52.5000020027161
293,112,71219,1,0,0:0:0:0:
201,163,71453,1,0,0:0:0:0:
166,262,71688,6,0,L|244:256,1,52.5000020027161
264,232,71922,1,0,0:0:0:0:
344,165,72156,1,0,0:0:0:0:
201,163,72391,1,0,0:0:0:0:
22,52,72860,6,0,P|14:116|47:187,1,105.000004005432
127,133,73328,2,0,P|135:197|102:268,1,105.000004005432
39,298,73797,1,0,0:0:0:0:
143,305,74031,1,0,0:0:0:0:
247,294,74266,1,0,0:0:0:0:
417,170,74735,6,0,L|413:240,3,52.5000020027161,2|2|2|2,0:0|0:0|0:0|0:0,0:0:0:0:
328,217,75203,6,0,L|332:147,3,52.5000020027161,2|2|2|2,0:0|0:0|0:0|0:0,0:0:0:0:
251,168,75672,6,0,L|247:238,3,52.5000020027161,2|2|2|2,0:0|0:0|0:0|0:0,0:0:0:0:
171,216,76141,1,12,0:0:0:0:
328,76,76610,6,0,P|357:127|366:196,1,105.000004005432
292,246,77078,2,0,P|303:297|330:341,1,105.000004005432
399,262,77547,1,0,0:0:0:0:
341,174,77781,2,0,P|326:117|338:61,1,105.000004005432
123,63,78485,6,0,L|145:130,1,52.5000020027161
114,159,78719,2,0,P|166:223|194:240,1,105.000004005432
234,327,79188,2,0,L|294:325,1,52.5000020027161
323,288,79422,1,0,0:0:0:0:
382,202,79656,2,0,P|363:137|319:86,1,105.000004005432
134,151,80360,6,0,L|130:273,1,105.000004005432
226,298,80828,2,0,L|230:176,1,105.000004005432
326,153,81297,2,0,L|322:257,1,105.000004005432
405,322,81766,2,0,P|411:249|404:154,1,157.500006008148
357,142,82235,5,0,0:0:0:0:
357,142,82352,1,0,0:0:0:0:
357,142,82469,1,0,0:0:0:0:
200,151,82703,1,0,0:0:0:0:
43,167,82938,1,0,0:0:0:0:
43,167,83055,1,0,0:0:0:0:
43,167,83172,1,0,0:0:0:0:
122,98,83406,2,0,P|201:66|247:76,1,105.000004005432
340,266,84110,6,0,P|331:185|309:149,1,105.000004005432
234,207,84578,2,0,P|243:126|275:86,1,105.000004005432
350,64,85047,1,0,0:0:0:0:
423,138,85281,2,0,P|432:230|421:263,1,105.000004005432
218,242,85985,6,0,L|144:267,2,52.5000020027161
314,283,86453,1,0,0:0:0:0:
344,182,86688,2,0,L|418:157,2,52.5000020027161
244,215,87156,1,0,0:0:0:0:
197,120,87391,1,0,0:0:0:0:
64,282,87860,6,0,P|87:340|135:398,1,105.000004005432
215,383,88328,2,0,P|192:325|144:267,1,105.000004005432
107,204,88797,1,0,0:0:0:0:
166,118,89031,1,0,0:0:0:0:
271,116,89266,1,0,0:0:0:0:
185,308,89735,6,0,P|211:305|237:308,1,52.5000020027161
281,325,90086,6,0,P|317:328|366:313,1,52.5000020027161
387,235,90438,1,0,0:0:0:0:
387,235,90555,1,0,0:0:0:0:
387,235,90672,1,0,0:0:0:0:
332,58,90906,1,0,0:0:0:0:
408,132,91141,1,0,0:0:0:0:
159,178,91610,5,0,0:0:0:0:
256,192,91727,12,0,92899,0:0:0:0:
