osu file format v14

[General]
AudioFilename: audio.mp3
AudioLeadIn: 0
PreviewTime: 0
Countdown: 0
SampleSet: None
StackLeniency: 0.7
Mode: 0
LetterboxInBreaks: 0
SkinPreference:White-classic-mix
WidescreenStoryboard: 1

[Editor]
Bookmarks: 66600,70753,111369,144600
DistanceSpacing: 0.8
BeatDivisor: 4
GridSize: 4
TimelineZoom: 1

[Metadata]
Title:Tremor
TitleUnicode:Tremor
Artist:DV & LM vs Martin Garrix
ArtistUnicode:DV & LM vs Martin Garrix
Creator:TheDoctorChan
Version:Normal
Source:
Tags:
BeatmapID:1426104
BeatmapSetID:673391

[Difficulty]
HPDrainRate:5
CircleSize:3
OverallDifficulty:6
ApproachRate:6
SliderMultiplier:1.4
SliderTickRate:1

[Events]
//Background and Video events
0,0,"Martin Garrix - Tremor.jpg",0,0
//Break Periods
2,108800,110319
//Storyboard Layer 0 (Background)
//Storyboard Layer 1 (Fail)
//Storyboard Layer 2 (Pass)
//Storyboard Layer 3 (Foreground)
//Storyboard Sound Samples

[TimingPoints]
600.048368009805,461.538461538462,4,3,0,100,1,0

[Colours]
Combo1 : 0,255,255
Combo2 : 255,128,192
Combo3 : 0,255,255
Combo4 : 255,128,255
Combo5 : 0,249,255
Combo6 : 255,128,255
Combo7 : 0,255,255
Combo8 : 255,128,255

[HitObjects]
256,192,35676,8,0,43523,0:0:0:0:
0,192,44907,21,0,0:0:0:0:
84,192,45369,1,0,0:0:0:0:
168,192,45830,1,0,0:0:0:0:
252,192,46292,1,0,0:0:0:0:
352,192,46753,1,0,0:0:0:0:
368,192,46984,1,0,0:0:0:0:
428,192,47215,1,0,0:0:0:0:
440,192,47446,1,0,0:0:0:0:
504,192,47676,1,0,0:0:0:0:
512,192,48600,21,0,0:0:0:0:
428,192,49061,1,0,0:0:0:0:
344,192,49523,1,0,0:0:0:0:
260,192,49984,1,0,0:0:0:0:
168,192,50446,1,0,0:0:0:0:
152,192,50677,1,0,0:0:0:0:
92,192,50908,1,0,0:0:0:0:
80,192,51139,1,0,0:0:0:0:
16,192,51369,1,0,0:0:0:0:
256,60,52292,5,0,0:0:0:0:
256,144,52753,1,0,0:0:0:0:
256,228,53215,1,0,0:0:0:0:
256,312,53676,1,0,0:0:0:0:
256,216,54138,1,0,0:0:0:0:
256,200,54369,1,0,0:0:0:0:
256,140,54600,1,0,0:0:0:0:
256,128,54831,1,0,0:0:0:0:
256,64,55061,1,0,0:0:0:0:
256,288,55985,5,0,0:0:0:0:
256,208,56446,1,0,0:0:0:0:
256,128,56908,1,0,0:0:0:0:
256,48,57369,1,0,0:0:0:0:
256,168,57830,1,0,0:0:0:0:
256,184,58061,1,0,0:0:0:0:
256,244,58292,1,0,0:0:0:0:
256,256,58523,1,0,0:0:0:0:
256,320,58753,1,0,0:0:0:0:
52,88,59676,6,0,L|52:160,1,70
120,156,60138,2,0,L|120:84,1,70
188,88,60600,2,0,L|188:160,1,70
256,156,61061,2,0,L|256:84,1,70
324,84,61523,2,0,L|324:156,1,70
392,156,61984,2,0,L|392:84,1,70
460,84,62446,2,0,L|460:156,1,70
460,232,62907,6,0,L|460:304,1,70
392,300,63369,2,0,L|392:228,1,70
324,232,63831,2,0,L|324:304,1,70
256,300,64292,2,0,L|256:228,1,70
188,228,64754,2,0,L|188:300,1,70
120,300,65215,2,0,L|120:228,1,70
52,228,65677,2,0,L|52:300,1,70
256,192,66715,12,0,70753,0:0:0:0:
183,246,72138,5,0,0:0:0:0:
256,118,72600,5,0,0:0:0:0:
329,246,73061,5,0,0:0:0:0:
256,192,73523,1,0,0:0:0:0:
184,192,74446,6,0,P|332:192|332:192,3,140
316,192,76292,1,0,0:0:0:0:
308,192,76523,1,0,0:0:0:0:
200,192,76753,1,0,0:0:0:0:
208,192,76984,1,0,0:0:0:0:
256,192,77215,1,0,0:0:0:0:
192,120,78138,6,0,L|192:264,1,140
320,260,79061,2,0,L|320:116,1,140
256,132,79984,1,0,0:0:0:0:
264,132,80215,1,0,0:0:0:0:
256,192,80446,1,0,0:0:0:0:
248,192,80676,1,0,0:0:0:0:
256,252,80907,1,0,0:0:0:0:
204,144,81830,6,0,L|316:248,3,140
176,280,83676,2,0,L|224:224,1,70
292,156,84138,2,0,L|340:100,1,70
344,96,84600,1,0,0:0:0:0:
224,160,85523,5,0,0:0:0:0:
288,160,85984,1,0,0:0:0:0:
288,224,86446,1,0,0:0:0:0:
224,224,86907,1,0,0:0:0:0:
256,132,87369,1,0,0:0:0:0:
256,136,87600,1,0,0:0:0:0:
256,192,87830,1,0,0:0:0:0:
256,196,88061,1,0,0:0:0:0:
256,252,88292,1,0,0:0:0:0:
128,320,89215,6,0,L|232:216,1,140
288,160,90138,1,0,0:0:0:0:
344,108,90600,1,0,0:0:0:0:
180,192,91061,2,0,P|252:192|248:192,3,70
296,192,91984,1,0,0:0:0:0:
256,192,92907,5,0,0:0:0:0:
352,192,93369,2,0,L|496:192,2,140
256,192,94753,1,0,0:0:0:0:
216,136,94984,1,0,0:0:0:0:
180,192,95215,1,0,0:0:0:0:
144,136,95446,1,0,0:0:0:0:
104,192,95676,1,0,0:0:0:0:
176,224,96600,6,0,B|252:224|308:276|324:236,1,140
176,164,97523,2,0,B|252:164|308:216|324:176,1,140
220,156,98446,2,0,P|220:240|220:236,1,70
288,228,98907,2,0,P|288:156|288:160,1,70
256,192,99369,1,0,0:0:0:0:
256,136,100292,6,0,L|256:288,4,140
256,120,102369,1,0,0:0:0:0:
208,192,102600,1,0,0:0:0:0:
304,192,102830,1,0,0:0:0:0:
256,248,103061,1,0,0:0:0:0:
256,192,103523,12,0,108600,0:0:0:0:
152,192,111369,5,0,0:0:0:0:
220,192,111830,1,2,0:0:0:0:
288,192,112292,1,2,0:0:0:0:
356,192,112753,1,2,0:0:0:0:
248,96,113215,1,0,0:0:0:0:
248,96,113446,1,0,0:0:0:0:
248,96,113676,1,0,0:0:0:0:
248,96,113907,1,0,0:0:0:0:
248,96,114138,1,0,0:0:0:0:
256,120,115061,2,2,L|256:264,1,140
256,256,115984,1,2,0:0:0:0:
256,132,116446,1,2,0:0:0:0:
220,192,116907,1,2,0:0:0:0:
272,192,117138,1,0,0:0:0:0:
228,192,117369,1,2,0:0:0:0:
264,192,117600,1,0,0:0:0:0:
236,192,117830,1,2,0:0:0:0:
164,160,118753,6,2,L|308:160,1,140
304,224,119676,2,2,P|156:224|160:224,1,140
164,192,120600,2,2,L|240:192,1,70
276,192,121061,2,2,L|352:192,1,70
388,192,121523,1,2,0:0:0:0:
200,192,122446,6,2,B|200:48|200:48|344:48|344:48|256:164,1,420
344,48,124292,1,2,0:0:0:0:
272,48,124523,1,2,0:0:0:0:
200,48,124754,1,2,0:0:0:0:
200,116,124984,1,2,0:0:0:0:
200,184,125215,1,2,0:0:0:0:
148,216,126138,6,2,B|256:116|256:116|256:252|256:252|356:132|356:132,1,420
136,192,127984,1,2,0:0:0:0:
196,148,128215,1,2,0:0:0:0:
256,192,128446,1,2,0:0:0:0:
312,240,128676,1,2,0:0:0:0:
368,192,128907,1,2,0:0:0:0:
256,192,129830,5,2,0:0:0:0:
256,192,130292,1,2,0:0:0:0:
256,192,130753,1,2,0:0:0:0:
256,192,131215,1,2,0:0:0:0:
272,32,131676,2,2,B|192:32|192:32|192:100|192:100|260:100|260:100|260:192,1,280
176,192,133523,6,2,B|176:116|176:116|248:116,3,140
272,32,135369,2,2,B|192:32|192:32|192:100|192:100|260:100|260:100|260:192,1,280
260,28,137215,21,2,0:0:0:0:
188,28,137676,1,2,0:0:0:0:
188,104,138138,1,2,0:0:0:0:
256,104,138600,1,2,0:0:0:0:
256,188,139061,1,0,0:0:0:0:
256,188,139523,1,0,0:0:0:0:
256,192,140446,12,0,143676,0:0:0:0:
