osu file format v14

[General]
AudioFilename: audio.mp3
AudioLeadIn: 0
PreviewTime: 0
Countdown: 0
SampleSet: None
StackLeniency: 0.7
Mode: 0
LetterboxInBreaks: 0
WidescreenStoryboard: 0

[Editor]
Bookmarks: 66600,70753,111369,144600
DistanceSpacing: 0.8
BeatDivisor: 4
GridSize: 4
TimelineZoom: 1

[Metadata]
Title:Tremor
TitleUnicode:Tremor
Artist:DV & LM vs Martin Garrix
ArtistUnicode:DV & LM vs Martin Garrix
Creator:TheDoctorChan
Version:Easy
Source:
Tags:
BeatmapID:1425157
BeatmapSetID:673391

[Difficulty]
HPDrainRate:3
CircleSize:3
OverallDifficulty:3
ApproachRate:4
SliderMultiplier:1.4
SliderTickRate:1

[Events]
//Background and Video events
0,0,"Martin Garrix - Tremor.jpg",0,0
//Break Periods
//Storyboard Layer 0 (Background)
//Storyboard Layer 1 (Fail)
//Storyboard Layer 2 (Pass)
//Storyboard Layer 3 (Foreground)
//Storyboard Sound Samples

[TimingPoints]
600.048368009805,461.538461538462,4,3,0,100,1,0

[Colours]
Combo1 : 0,0,255
Combo2 : 255,128,0
Combo3 : 255,128,128
Combo4 : 128,255,0

[HitObjects]
256,192,35676,12,0,43523,0:0:0:0:
76,192,44907,5,0,0:0:0:0:
176,192,45369,1,0,0:0:0:0:
272,192,45830,1,0,0:0:0:0:
372,192,46292,1,0,0:0:0:0:
468,192,46753,2,0,B|468:348|468:348,2,140,0|0|12,0:0|0:0|0:0,0:0:0:0:
468,192,48600,5,0,0:0:0:0:
372,192,49061,1,0,0:0:0:0:
272,192,49523,1,0,0:0:0:0:
176,192,49984,1,0,0:0:0:0:
76,192,50446,2,0,B|76:44|76:44,2,140,0|0|12,0:0|0:0|0:0,0:0:0:0:
256,28,52292,5,0,0:0:0:0:
256,124,52753,1,0,0:0:0:0:
256,224,53215,1,0,0:0:0:0:
256,320,53676,1,0,0:0:0:0:
256,320,54138,2,0,P|396:320|392:320,2,140,0|0|12,0:0|0:0|0:0,0:0:0:0:
256,328,55985,5,0,0:0:0:0:
256,232,56446,1,0,0:0:0:0:
256,132,56908,1,0,0:0:0:0:
256,36,57369,1,0,0:0:0:0:
256,36,57830,2,0,P|116:36|116:36,2,140,0|0|12,0:0|0:0|0:0,0:0:0:0:
208,144,59215,6,0,P|316:248|316:248,15,140
256,192,66715,12,0,70753,0:0:0:0:
256,136,72138,6,0,B|176:252|176:252|320:252|320:252|252:128,1,420
184,192,74446,6,0,P|332:192|332:192,3,140
256,192,76292,1,0,0:0:0:0:
352,192,76753,1,0,0:0:0:0:
160,192,77215,1,0,0:0:0:0:
192,120,78138,6,0,L|192:264,1,140
320,260,79061,2,0,L|320:116,1,140
256,132,79984,1,0,0:0:0:0:
256,192,80446,1,0,0:0:0:0:
256,252,80907,1,0,0:0:0:0:
204,144,81830,6,0,L|316:248,3,140
204,244,83676,2,0,L|308:140,2,140
224,160,85523,5,0,0:0:0:0:
288,160,85984,1,0,0:0:0:0:
288,224,86446,1,0,0:0:0:0:
224,224,86907,1,0,0:0:0:0:
256,132,87369,1,0,0:0:0:0:
256,192,87830,1,0,0:0:0:0:
256,252,88292,1,0,0:0:0:0:
128,320,89215,6,0,L|232:216,1,140
288,160,90138,1,0,0:0:0:0:
344,108,90600,1,0,0:0:0:0:
184,192,91061,2,0,L|324:192,2,140
256,192,92907,5,0,0:0:0:0:
352,192,93369,2,0,L|496:192,2,140
256,192,94753,1,0,0:0:0:0:
180,192,95215,1,0,0:0:0:0:
104,192,95676,1,0,0:0:0:0:
176,224,96600,6,0,B|252:224|308:276|324:236,1,140
176,164,97523,2,0,B|252:164|308:216|324:176,1,140
256,120,98446,2,0,L|256:260,2,140
256,136,100292,6,0,L|256:288,6,140,0|0|0|0|0|0|8,0:0|0:0|0:0|0:0|0:0|0:0|0:0,0:0:0:0:
256,192,103984,12,0,110446,0:0:0:0:
144,192,111369,5,2,0:0:0:0:
256,192,111830,1,2,0:0:0:0:
368,192,112292,1,2,0:0:0:0:
256,192,112753,1,2,0:0:0:0:
324,192,113215,2,2,L|176:192,2,140
256,120,115061,6,2,L|256:264,1,140
256,256,115984,1,2,0:0:0:0:
256,132,116446,1,2,0:0:0:0:
208,192,116907,1,2,0:0:0:0:
304,192,117369,1,2,0:0:0:0:
256,192,117830,1,2,0:0:0:0:
164,160,118753,6,2,L|308:160,1,140
304,224,119676,2,2,P|156:224|160:224,1,140
164,192,120600,2,2,L|308:192,1,140
312,192,121523,1,2,0:0:0:0:
200,192,122446,6,2,B|200:48|200:48|344:48|344:48|256:164,1,420
344,48,124292,1,2,0:0:0:0:
200,48,124754,1,2,0:0:0:0:
200,184,125215,1,2,0:0:0:0:
148,216,126138,6,2,B|256:116|256:116|256:252|256:252|356:132|356:132,1,420
136,192,127984,1,2,0:0:0:0:
256,192,128446,1,2,0:0:0:0:
368,192,128907,1,2,0:0:0:0:
256,192,129830,5,2,0:0:0:0:
256,192,130292,1,2,0:0:0:0:
256,192,130753,1,2,0:0:0:0:
256,192,131215,1,2,0:0:0:0:
272,32,131676,2,2,B|192:32|192:32|192:100|192:100|260:100|260:100|260:192,1,280
176,192,133523,6,2,B|176:116|176:116|248:116,3,140
272,32,135369,2,2,B|192:32|192:32|192:100|192:100|260:100|260:100|260:192,1,280
260,28,137215,5,2,0:0:0:0:
188,28,137676,1,2,0:0:0:0:
188,104,138138,1,2,0:0:0:0:
256,104,138600,1,2,0:0:0:0:
256,188,139061,1,0,0:0:0:0:
256,188,139523,1,0,0:0:0:0:
256,192,140446,12,0,143676,0:0:0:0:
