osu file format v14

[General]
AudioFilename: audio.mp3
AudioLeadIn: 0
PreviewTime: 68138
Countdown: 1
SampleSet: Soft
StackLeniency: 0.7
Mode: 0
LetterboxInBreaks: 0
WidescreenStoryboard: 0

[Editor]
Bookmarks: 175432,180373
DistanceSpacing: 1.2
BeatDivisor: 4
GridSize: 8
TimelineZoom: 2.3

[Metadata]
Title:spiral
TitleUnicode:spiral
Artist:DUSTZ
ArtistUnicode:DUSTZ
Creator:carc1nogen
Version:Bleed
Source:ブラッド-C
Tags:french japanese anime op opening full ver version rock blood c
BeatmapID:2011136
BeatmapSetID:960609

[Difficulty]
HPDrainRate:5.5
CircleSize:4.2
OverallDifficulty:9
ApproachRate:9
SliderMultiplier:1.5
SliderTickRate:1

[Events]
//Background and Video events
0,0,"bloody-hand-wallpapers-12.jpg",0,0
//Break Periods
//Storyboard Layer 0 (Background)
//Storyboard Layer 1 (Fail)
//Storyboard Layer 2 (Pass)
//Storyboard Layer 3 (Foreground)
//Storyboard Sound Samples

[TimingPoints]
374,352.941176470588,4,2,0,65,1,0
11668,-80,4,2,0,65,0,0
11932,-80,4,2,0,5,0,0
12021,-80,4,2,0,65,0,0
17579,-80,4,2,0,5,0,0
17668,-80,4,2,0,65,0,0
23226,-80,4,2,0,5,0,0
23315,-80,4,2,0,65,0,0
28609,-142.857142857143,4,2,0,65,0,0
28873,-142.857142857143,4,2,0,5,0,0
28962,-142.857142857143,4,2,0,65,0,0
30285,-142.857142857143,4,2,0,5,0,0
30373,-142.857142857143,4,2,0,65,0,0
31697,-142.857142857143,4,2,0,5,0,0
31785,-142.857142857143,4,2,0,65,0,0
32403,-142.857142857143,4,2,0,5,0,0
32491,-142.857142857143,4,2,0,65,0,0
33903,-100,4,2,0,65,0,0
35756,-100,4,2,0,5,0,0
35844,-100,4,2,0,65,0,0
36109,-100,4,2,0,5,0,0
36197,-100,4,2,0,65,0,0
38579,-100,4,2,0,5,0,0
38668,-100,4,2,0,65,0,0
38932,-100,4,2,0,5,0,0
39021,-100,4,2,0,65,0,0
41403,-100,4,2,0,5,0,0
41491,-100,4,2,0,65,0,0
41756,-100,4,2,0,5,0,0
41844,-100,4,2,0,65,0,0
43432,-500,4,2,0,65,0,0
44844,-100,4,2,0,65,0,0
47050,-100,4,2,0,5,0,0
47138,-100,4,2,0,65,0,0
47403,-100,4,2,0,5,0,0
47491,-100,4,2,0,65,0,0
49873,-100,4,2,0,65,0,0
50226,-100,4,2,0,5,0,0
50315,-100,4,2,0,65,0,0
52697,-100,4,2,0,5,0,0
52785,-100,4,2,0,65,0,0
53050,-100,4,2,0,5,0,0
53138,-100,4,2,0,65,0,0
56844,-80,4,2,0,65,0,0
68138,-58.8235294117647,4,2,0,65,0,1
69815,-66.6666666666667,4,2,0,5,0,1
69903,-58.8235294117647,4,2,0,65,0,1
70521,-66.6666666666667,4,2,0,5,0,1
70609,-58.8235294117647,4,2,0,65,0,1
75462,-66.6666666666667,4,2,0,5,0,1
75550,-58.8235294117647,4,2,0,65,0,1
76168,-66.6666666666667,4,2,0,5,0,1
76256,-58.8235294117647,4,2,0,65,0,1
79697,-66.6666666666667,4,2,0,5,0,1
79785,-58.8235294117647,4,2,0,65,0,1
82521,-66.6666666666667,4,2,0,5,0,1
82609,-58.8235294117647,4,2,0,65,0,1
90726,-100,4,2,0,65,0,0
92226,-100,4,2,0,5,0,0
92315,-100,4,2,0,65,0,0
92579,-100,4,2,0,5,0,0
92668,-100,4,2,0,65,0,0
94168,-100,4,2,0,5,0,0
94256,-100,4,2,0,65,0,0
95050,-100,4,2,0,5,0,0
95138,-100,4,2,0,65,0,0
95403,-100,4,2,0,5,0,0
95491,-100,4,2,0,65,0,0
99903,-500,4,2,0,65,0,0
101315,-80,4,2,0,65,0,0
102021,-80,4,2,0,65,0,0
113315,-58.8235294117647,4,2,0,65,0,1
114991,-66.6666666666667,4,2,0,5,0,1
115079,-58.8235294117647,4,2,0,65,0,1
115697,-66.6666666666667,4,2,0,5,0,1
115785,-58.8235294117647,4,2,0,65,0,1
120638,-66.6666666666667,4,2,0,5,0,1
120726,-58.8235294117647,4,2,0,65,0,1
121344,-66.6666666666667,4,2,0,5,0,1
121432,-58.8235294117647,4,2,0,65,0,1
124873,-66.6666666666667,4,2,0,5,0,1
124962,-58.8235294117647,4,2,0,65,0,1
127697,-66.6666666666667,4,2,0,5,0,1
127785,-58.8235294117647,4,2,0,65,0,1
135903,-125,4,2,0,65,0,0
158844,-100,4,2,0,65,0,0
159462,-100,4,2,0,5,0,0
159550,-100,4,2,0,65,0,0
160873,-100,4,2,0,5,0,0
160962,-100,4,2,0,65,0,0
163697,-100,4,2,0,5,0,0
163785,-100,4,2,0,65,0,0
165109,-100,4,2,0,5,0,0
165197,-100,4,2,0,65,0,0
166521,-100,4,2,0,5,0,0
166609,-100,4,2,0,65,0,0
169344,-100,4,2,0,5,0,0
169432,-100,4,2,0,65,0,0
170756,-100,4,2,0,5,0,0
170844,-100,4,2,0,65,0,0
172168,-100,4,2,0,5,0,0
172256,-100,4,2,0,65,0,0
174991,-100,4,2,0,5,0,0
175079,-100,4,2,0,65,0,0
176226,-100,4,2,0,5,0,0
176315,-100,4,2,0,65,0,0
178256,-57.1428571428571,4,2,0,65,0,0
178521,-57.1428571428571,4,2,0,5,0,0
178609,-57.1428571428571,4,2,0,65,0,0
181079,-58.8235294117647,4,2,0,65,0,1
182756,-66.6666666666667,4,2,0,5,0,1
182844,-66.6666666666667,4,2,0,65,0,1
183462,-66.6666666666667,4,2,0,5,0,1
183550,-58.8235294117647,4,2,0,65,0,1
188403,-66.6666666666667,4,2,0,5,0,1
188491,-58.8235294117647,4,2,0,65,0,1
189109,-66.6666666666667,4,2,0,5,0,1
189197,-58.8235294117647,4,2,0,65,0,1
192638,-66.6666666666667,4,2,0,5,0,1
192726,-58.8235294117647,4,2,0,65,0,1
195462,-66.6666666666667,4,2,0,5,0,1
195550,-58.8235294117647,4,2,0,65,0,1
203315,-100,4,2,0,65,0,1
203668,-100,4,2,0,65,0,0
206403,-100,4,2,0,5,0,0
206491,-100,4,2,0,65,0,0
212050,-100,4,2,0,5,0,0
212138,-100,4,2,0,65,0,0

[Colours]
Combo1 : 255,102,204
Combo2 : 32,178,170
Combo3 : 242,193,77
Combo4 : 89,171,255

[HitObjects]
325,98,374,6,0,P|331:138|324:174,1,75,0|0,0:0|0:0,0:0:0:0:
239,190,726,2,0,P|217:224|189:247,1,75,0|0,0:0|0:0,0:0:0:0:
117,191,1079,2,0,P|78:203|41:203,1,75,0|0,0:0|0:0,0:0:0:0:
29,116,1432,1,0,0:0:0:0:
117,191,1609,6,0,P|133:232|133:272,1,75,0|0,0:0|0:0,0:0:0:0:
66,357,1962,2,0,P|50:316|50:276,1,75,0|0,0:0|0:0,0:0:0:0:
166,285,2315,2,0,P|166:329|151:366,1,75,0|0,0:0|0:0,0:0:0:0:
117,191,2668,1,0,0:0:0:0:
219,127,2844,2,0,B|267:116|311:127|311:127|288:152,1,112.5,0|0,0:0|0:0,0:0:0:0:
276,86,3197,6,0,L|281:9,1,75,0|0,0:0|0:0,0:0:0:0:
250,193,3550,2,0,L|255:270,1,75,0|0,0:0|0:0,0:0:0:0:
355,156,3903,2,0,L|360:82,1,75,0|0,0:0|0:0,0:0:0:0:
347,247,4256,1,0,0:0:0:0:
250,193,4432,6,0,P|204:186|161:197,1,75,0|0,0:0|0:0,0:0:0:0:
224,220,4785,2,0,P|178:213|135:224,1,75,0|0,0:0|0:0,0:0:0:0:
315,185,5138,6,0,P|322:139|311:96,1,75,0|0,0:0|0:0,0:0:0:0:
288,159,5491,2,0,P|295:113|284:70,1,75,0|0,0:0|0:0,0:0:0:0:
264,130,5844,1,0,0:0:0:0:
315,185,6021,6,0,P|347:167|373:139,1,75,0|0,0:0|0:0,0:0:0:0:
195,214,6373,2,0,P|162:231|136:259,1,75,0|0,0:0|0:0,0:0:0:0:
228,115,6726,2,0,P|210:82|182:56,1,75,0|0,0:0|0:0,0:0:0:0:
97,26,7079,1,0,0:0:0:0:
139,183,7256,6,0,L|136:262,1,75,0|0,0:0|0:0,0:0:0:0:
88,335,7609,2,0,L|86:261,1,75,0|0,0:0|0:0,0:0:0:0:
48,154,7962,2,0,L|45:233,1,75,0|0,0:0|0:0,0:0:0:0:
39,341,8315,1,0,0:0:0:0:
211,347,8491,2,0,B|222:299|211:255|211:255|186:278,1,112.5,0|0,0:0|0:0,0:0:0:0:
259,238,8844,6,0,P|296:219|318:192,1,75,0|0,0:0|0:0,0:0:0:0:
293,85,9197,2,0,P|254:68|219:69,1,75,0|0,0:0|0:0,0:0:0:0:
399,124,9550,2,0,P|440:119|470:102,2,75,0|0|0,0:0|0:0|0:0,0:0:0:0:
222,68,10079,1,0,0:0:0:0:
180,298,10256,5,2,1:2:0:0:
212,315,10344,1,0,1:0:0:0:
249,315,10432,1,0,1:0:0:0:
282,297,10521,1,0,1:0:0:0:
302,266,10609,5,2,1:2:0:0:
299,225,10697,1,0,1:0:0:0:
295,188,10785,1,0,1:0:0:0:
314,156,10873,1,0,1:0:0:0:
348,143,10962,5,2,1:2:0:0:
381,159,11050,1,0,1:0:0:0:
389,195,11138,1,0,1:0:0:0:
358,225,11226,1,0,1:0:0:0:
320,226,11315,5,2,1:2:0:0:
285,208,11403,1,0,1:0:0:0:
248,199,11491,1,0,1:0:0:0:
211,204,11579,1,0,1:0:0:0:
177,215,11668,6,0,B|126:228|81:196|81:196|122:172,1,140.625,6|0,0:0|0:0,0:0:0:0:
157,252,12021,2,0,L|151:348,1,93.75,0|0,1:0|0:0,0:0:0:0:
233,132,12373,1,2,0:0:0:0:
58,227,12550,1,0,0:0:0:0:
199,348,12726,1,0,1:0:0:0:
124,114,12903,6,0,P|83:84|37:91,1,93.75,2|0,0:0|0:0,0:0:0:0:
133,204,13256,2,0,P|181:188|207:153,1,93.75,2|0,0:0|1:0,0:0:0:0:
65,162,13609,2,0,P|76:258|157:279,1,187.5,2|2,0:0|0:0,0:0:0:0:
286,199,14138,1,0,1:0:0:0:
170,349,14315,1,0,0:0:0:0:
233,132,14491,6,0,L|331:122,1,93.75,2|0,0:0|0:0,0:0:0:0:
156,65,14844,2,0,L|58:55,1,93.75,0|0,1:0|0:0,0:0:0:0:
270,165,15197,1,2,0:0:0:0:
307,346,15373,1,0,0:0:0:0:
371,149,15550,1,0,1:0:0:0:
257,239,15726,6,0,P|207:244|159:236,1,93.75,2|0,0:0|0:0,0:0:0:0:
33,169,16079,2,0,P|84:165|131:172,1,93.75,2|0,0:0|1:0,0:0:0:0:
105,306,16432,2,0,P|51:353|41:254,1,187.5,2|2,0:0|0:0,0:0:0:0:
164,244,16962,2,0,P|215:233|262:240,1,93.75,0|0,1:0|3:0,0:0:0:0:
397,355,17315,6,0,B|419:308|407:253|407:253|397:270|381:279,1,140.625,6|0,0:0|0:0,0:0:0:0:
255,238,17668,2,0,P|251:187|258:140,1,93.75,0|0,1:0|0:0,0:0:0:0:
324,332,18021,1,2,0:0:0:0:
401,145,18197,1,0,0:0:0:0:
481,341,18373,1,0,1:0:0:0:
255,238,18550,6,0,P|250:190|257:142,1,93.75,2|0,0:0|0:0,0:0:0:0:
434,266,18903,2,0,P|440:320|430:358,1,93.75,2|0,0:0|1:0,0:0:0:0:
255,238,19256,2,0,P|179:234|176:135,1,187.5,2|2,0:0|0:0,0:0:0:0:
357,113,19785,1,0,1:0:0:0:
267,312,19962,1,0,0:0:0:0:
394,195,20138,6,0,P|446:183|495:196,1,93.75,2|0,0:0|0:0,0:0:0:0:
267,312,20491,2,0,P|215:324|166:311,1,93.75,0|0,1:0|0:0,0:0:0:0:
394,195,20844,2,0,P|406:247|393:296,1,93.75,2|0,0:0|0:0,0:0:0:0:
449,135,21197,1,0,1:0:0:0:
260,105,21373,6,0,L|266:202,1,93.75,2|0,0:0|0:0,0:0:0:0:
132,46,21726,2,0,L|126:143,1,93.75,2|0,0:0|1:0,0:0:0:0:
113,341,22079,2,0,P|141:262|51:241,1,187.5,2|2,0:0|0:0,0:0:0:0:
185,307,22609,2,0,P|228:321|273:310,1,93.75,0|0,1:0|3:0,0:0:0:0:
364,75,22962,6,0,P|426:58|478:116,1,140.625,6|0,0:0|0:0,0:0:0:0:
396,228,23315,2,0,B|344:236|315:229|315:229|301:226,1,93.75,0|0,1:0|0:0,0:0:0:0:
231,135,23668,1,2,0:0:0:0:
332,317,23844,1,0,0:0:0:0:
409,128,24021,1,0,1:0:0:0:
178,304,24197,6,0,L|173:207,1,93.75,2|0,0:0|0:0,0:0:0:0:
366,130,24550,2,0,L|361:227,1,93.75,2|0,0:0|1:0,0:0:0:0:
204,95,24903,2,0,B|235:51|235:51|244:194,1,187.5,0|0,3:0|3:0,0:0:0:0:
229,320,25432,1,0,1:0:0:0:
364,175,25609,1,0,3:0:0:0:
195,239,25785,6,0,P|217:293|217:346,1,93.75,2|0,0:0|0:0,0:0:0:0:
132,163,26138,2,0,P|110:109|110:56,1,93.75,0|0,1:0|0:0,0:0:0:0:
195,239,26491,2,0,P|153:259|90:250,1,93.75,2|0,0:0|0:0,0:0:0:0:
43,141,26844,1,0,1:0:0:0:
106,256,27021,6,0,P|106:314|84:363,1,93.75,2|0,0:0|0:0,0:0:0:0:
237,220,27373,2,0,P|283:216|338:247,1,93.75,2|0,0:0|1:0,0:0:0:0:
416,341,27726,2,0,P|497:327|446:268,1,187.5,2|2,0:0|0:0,0:0:0:0:
364,252,28256,2,0,P|418:272|464:263,1,93.75,0|0,1:0|0:0,0:0:0:0:
420,136,28609,6,0,P|417:94|396:59,1,78.7499975967408,6|0,0:0|0:0,0:0:0:0:
338,26,28962,2,0,P|373:35|404:26,1,52.4999983978272,0|2,1:0|0:0,0:0:0:0:
213,192,29315,2,0,L|211:248,1,52.4999983978272,0|0,3:0|0:0,0:0:0:0:
270,350,29668,2,0,L|269:294,1,52.4999983978272,0|0,1:0|0:0,0:0:0:0:
178,161,30021,6,0,P|137:164|93:183,1,78.7499975967408,2|0,0:0|0:0,0:0:0:0:
60,235,30373,2,0,P|59:198|45:183,1,52.4999983978272,0|2,1:0|0:0,0:0:0:0:
255,127,30726,2,0,L|309:126,1,52.4999983978272,0|0,3:0|0:0,0:0:0:0:
418,182,31079,2,0,L|364:182,1,52.4999983978272,0|0,1:0|0:0,0:0:0:0:
471,351,31432,6,0,P|479:311|477:270,1,78.7499975967408,6|0,0:0|0:0,0:0:0:0:
456,206,31785,1,0,1:0:0:0:
181,196,32138,2,0,P|189:236|187:277,1,78.7499975967408,0|0,3:0|3:0,0:0:0:0:
166,341,32491,1,0,1:0:0:0:
201,108,32844,2,0,B|115:78|141:162|55:128,1,157.499995193482,2|0,0:0|0:0,0:0:0:0:
239,263,33903,1,0,1:0:0:0:
274,259,33991,1,0,1:0:0:0:
305,239,34079,1,0,1:0:0:0:
322,206,34168,1,0,1:0:0:0:
324,169,34256,6,0,P|292:121|255:108,1,75,6|0,0:0|0:0,0:0:0:0:
150,58,34609,1,2,0:0:0:0:
243,185,34785,1,0,0:0:0:0:
362,82,34962,1,2,0:0:0:0:
150,58,35138,1,0,1:0:0:0:
150,58,35226,1,0,1:0:0:0:
150,58,35315,1,0,1:0:0:0:
98,179,35491,6,0,P|46:183|4:140,1,112.5,6|0,0:0|0:0,0:0:0:0:
73,107,35844,2,0,P|129:103|170:144,1,112.5,6|0,0:0|0:0,0:0:0:0:
186,275,36197,1,2,0:0:0:0:
175,356,36373,1,0,1:0:0:0:
320,278,36550,1,0,1:0:0:0:
341,247,36638,1,0,1:0:0:0:
345,210,36726,1,0,1:0:0:0:
338,173,36815,1,0,1:0:0:0:
338,136,36903,1,0,1:0:0:0:
357,104,36991,1,0,1:0:0:0:
395,104,37079,6,0,L|386:179,1,75,2|0,0:0|0:0,0:0:0:0:
235,253,37432,2,0,L|247:134,1,112.5,2|0,0:0|0:0,0:0:0:0:
253,67,37785,1,2,0:0:0:0:
145,287,37962,1,0,1:0:0:0:
145,287,38050,1,0,1:0:0:0:
145,287,38138,1,0,1:0:0:0:
276,342,38315,6,0,P|337:341|391:317,1,112.5,6|0,0:0|0:0,0:0:0:0:
443,277,38668,2,0,P|382:278|328:302,1,112.5,6|0,0:0|0:0,0:0:0:0:
276,342,39021,1,2,0:0:0:0:
350,193,39197,2,0,L|358:114,1,75,0|0,1:0|0:0,0:0:0:0:
229,246,39550,2,0,L|237:325,1,75,2|0,0:0|1:0,0:0:0:0:
259,149,39903,2,0,B|198:149|198:149|172:180|172:180|120:180,1,150,2|2,0:0|0:0,0:0:0:0:
275,256,40432,5,0,0:0:0:0:
183,345,40609,1,2,0:0:0:0:
98,163,40785,1,0,1:0:0:0:
99,200,40873,1,0,1:0:0:0:
101,237,40962,1,0,1:0:0:0:
294,176,41138,6,0,P|335:132|387:119,1,112.5,6|0,0:0|0:0,0:0:0:0:
449,159,41491,2,0,P|395:153|340:174,1,112.5,6|0,0:0|0:0,0:0:0:0:
284,214,41844,1,0,1:0:0:0:
449,159,42021,1,2,0:0:0:0:
261,72,42197,5,0,1:0:0:0:
226,65,42285,1,0,1:0:0:0:
197,86,42373,1,0,1:0:0:0:
193,123,42462,1,0,1:0:0:0:
217,150,42550,1,0,1:0:0:0:
253,149,42638,1,0,1:0:0:0:
289,140,42726,2,0,P|333:155|354:187,1,75,2|0,0:0|0:0,0:0:0:0:
209,228,43079,2,0,P|170:213|147:183,1,75,2|0,0:0|0:0,0:0:0:0:
79,68,43432,6,0,L|78:97,1,30,2|0,0:0|1:0,0:0:0:0:
217,60,43962,1,6,0:0:0:0:
334,102,44138,2,0,L|335:131,1,30,0|0,0:0|0:0,0:0:0:0:
320,348,44668,1,0,0:0:0:0:
182,296,44844,1,0,0:0:0:0:
134,185,45021,1,0,0:0:0:0:
171,178,45109,1,0,0:0:0:0:
208,181,45197,1,0,0:0:0:0:
244,191,45285,1,0,0:0:0:0:
280,203,45373,1,0,0:0:0:0:
318,197,45462,1,0,0:0:0:0:
354,172,45550,6,0,P|319:154|289:174,1,75,6|0,0:0|0:0,0:0:0:0:
216,302,45903,1,2,0:0:0:0:
216,302,46079,1,0,0:0:0:0:
359,218,46256,1,2,0:0:0:0:
415,103,46432,1,0,1:0:0:0:
411,66,46521,1,0,1:0:0:0:
406,29,46609,1,0,1:0:0:0:
286,125,46785,6,0,P|236:141|187:103,1,112.5,6|0,0:0|0:0,0:0:0:0:
222,161,47138,2,0,P|235:209|200:260,1,112.5,6|0,0:0|0:0,0:0:0:0:
145,299,47491,1,2,0:0:0:0:
303,235,47668,1,0,1:0:0:0:
190,357,47844,1,0,0:0:0:0:
98,218,48021,2,0,L|21:211,1,75,2|0,0:0|1:0,0:0:0:0:
218,288,48373,2,0,L|295:281,1,75,2|0,0:0|0:0,0:0:0:0:
442,266,48726,1,2,0:0:0:0:
227,98,48903,1,0,0:0:0:0:
320,302,49079,1,2,0:0:0:0:
444,128,49256,1,0,1:0:0:0:
444,128,49344,1,0,1:0:0:0:
444,128,49432,1,0,1:0:0:0:
256,216,49609,6,0,L|138:225,1,112.5,6|0,0:0|0:0,0:0:0:0:
193,255,49962,2,0,L|311:264,1,112.5,6|0,0:0|0:0,0:0:0:0:
377,271,50315,1,0,1:0:0:0:
260,340,50491,1,2,0:0:0:0:
337,202,50668,5,0,1:0:0:0:
372,191,50756,1,0,1:0:0:0:
409,198,50844,1,0,1:0:0:0:
438,220,50932,1,0,1:0:0:0:
455,253,51021,1,0,1:0:0:0:
454,291,51109,1,0,1:0:0:0:
435,325,51197,6,0,P|394:323|381:288,1,75,2|0,0:0|0:0,0:0:0:0:
470,148,51550,1,2,0:0:0:0:
118,301,51903,1,2,0:0:0:0:
67,154,52079,1,0,1:0:0:0:
67,154,52168,1,0,1:0:0:0:
67,154,52256,1,0,1:0:0:0:
200,238,52432,6,0,B|278:227|278:227|300:192,1,112.5,6|0,0:0|0:0,0:0:0:0:
184,208,52785,2,0,B|106:219|106:219|84:254,1,112.5,6|0,0:0|0:0,0:0:0:0:
148,287,53138,1,0,0:0:0:0:
246,141,53315,1,2,0:0:0:0:
61,72,53491,5,0,1:0:0:0:
55,109,53579,1,0,1:0:0:0:
57,147,53668,1,0,1:0:0:0:
64,183,53756,1,0,1:0:0:0:
66,221,53844,1,0,1:0:0:0:
57,257,53932,1,0,1:0:0:0:
42,292,54021,2,0,P|37:332|43:382,1,75,2|0,0:0|0:0,0:0:0:0:
143,255,54373,2,0,P|148:217|127:169,1,75,2|0,0:0|0:0,0:0:0:0:
119,345,54726,1,2,0:0:0:0:
256,192,54815,12,0,56668,1:0:0:0:
169,147,56844,5,2,0:0:0:0:
353,228,57021,1,0,0:0:0:0:
257,125,57197,1,0,1:0:0:0:
286,312,57373,1,0,0:0:0:0:
328,197,57550,1,2,0:0:0:0:
187,231,57726,1,0,1:0:0:0:
187,231,57815,1,0,1:0:0:0:
187,231,57903,2,0,B|135:229|135:229|98:199,1,93.75,0|0,1:0|0:0,0:0:0:0:
257,125,58256,6,0,L|352:120,2,93.75,2|0|0,0:0|0:0|1:0,0:0:0:0:
419,178,58785,1,2,0:0:0:0:
217,61,58962,2,0,P|220:118|202:152,1,93.75,0|0,3:0|0:0,0:0:0:0:
264,208,59315,2,0,P|321:211|355:193,1,93.75,0|0,1:0|0:0,0:0:0:0:
177,228,59668,1,2,0:0:0:0:
364,273,59844,5,0,0:0:0:0:
317,119,60021,1,0,1:0:0:0:
271,315,60197,1,0,0:0:0:0:
386,161,60373,1,2,0:0:0:0:
221,121,60550,1,0,1:0:0:0:
221,121,60638,1,0,1:0:0:0:
221,121,60726,2,0,L|224:216,1,93.75,0|0,1:0|0:0,0:0:0:0:
428,40,61079,6,0,L|425:135,1,93.75,2|0,0:0|0:0,0:0:0:0:
421,265,61432,1,0,1:0:0:0:
470,92,61609,2,0,B|458:224|458:224|393:294,1,187.5,2|0,0:0|0:0,0:0:0:0:
376,132,62138,2,0,L|386:35,1,93.75,0|0,1:0|0:0,0:0:0:0:
306,234,62491,6,0,B|252:274|252:274|378:359|492:286|492:286|441:232,1,375,2|2,0:0|0:0,0:0:0:0:
349,158,63373,1,0,1:0:0:0:
304,146,63462,1,0,1:0:0:0:
259,159,63550,1,0,1:0:0:0:
169,271,63726,1,0,0:0:0:0:
207,170,63903,6,0,B|260:44|191:2|191:2|138:42|159:99,1,281.25,2|0,0:0|0:0,0:0:0:0:
281,186,64609,2,0,P|221:215|332:307,1,281.25,2|0,0:0|0:0,0:0:0:0:
179,225,65315,2,0,P|126:212|82:220,1,93.75,2|0,0:0|0:0,0:0:0:0:
61,81,65668,5,0,1:0:0:0:
378,295,66021,1,2,0:0:0:0:
99,221,66197,1,0,1:0:0:0:
99,221,66285,1,0,1:0:0:0:
99,221,66373,2,0,L|106:319,1,93.75,0|0,1:0|0:0,0:0:0:0:
207,203,66726,5,0,1:0:0:0:
253,201,66815,1,0,1:0:0:0:
289,173,66903,1,0,1:0:0:0:
303,129,66991,1,0,1:0:0:0:
289,85,67079,5,0,1:0:0:0:
271,131,67168,1,0,1:0:0:0:
279,177,67256,1,0,1:0:0:0:
290,222,67344,1,0,1:0:0:0:
295,269,67432,5,2,0:0:0:0:
282,313,67521,1,0,0:0:0:0:
250,345,67609,2,0,P|304:341|351:353,1,93.75,4|0,3:0|0:0,0:0:0:0:
221,276,67962,1,2,0:0:0:0:
401,152,68138,6,0,L|390:281,1,127.50000243187,6|0,0:0|0:0,0:0:0:0:
109,237,68491,2,0,L|117:108,1,127.50000243187,0|0,1:0|0:0,0:0:0:0:
358,99,68844,2,0,L|347:229,1,127.50000243187,2|0,0:0|0:0,0:0:0:0:
65,188,69197,2,0,L|73:61,1,127.50000243187,0|0,1:0|0:0,0:0:0:0:
356,212,69550,6,0,P|340:291|238:314,1,191.250003647804,2|0,0:0|0:0,0:0:0:0:
393,283,69903,2,0,P|448:296|492:352,1,127.50000243187,0|0,1:0|0:0,0:0:0:0:
356,212,70256,2,0,P|347:155|431:191,1,191.250003647804,2|0,0:0|0:0,0:0:0:0:
393,283,70609,2,0,P|358:324|281:322,1,127.50000243187,0|0,1:0|0:0,0:0:0:0:
156,214,70962,6,0,B|109:172|109:172|129:363,1,255.000004863739,2|0,0:0|1:0,0:0:0:0:
193,191,71491,1,0,3:0:0:0:
79,343,71668,1,2,0:0:0:0:
255,278,71844,1,0,0:0:0:0:
36,206,72021,2,0,P|-5:160|18:101,1,127.50000243187,0|0,1:0|0:0,0:0:0:0:
279,51,72373,6,0,P|336:70|362:130,1,127.50000243187,2|0,0:0|0:0,0:0:0:0:
203,196,72726,2,0,L|195:68,1,127.50000243187,0|0,1:0|3:0,0:0:0:0:
408,51,73079,2,0,L|398:179,1,127.50000243187,2|0,0:0|0:0,0:0:0:0:
203,196,73432,2,0,P|269:179|326:209,1,127.50000243187,0|2,1:0|0:0,0:0:0:0:
110,354,73785,6,0,B|91:296|91:296|96:218,1,127.50000243187,6|0,0:0|0:0,0:0:0:0:
357,314,74138,2,0,B|374:254|374:254|372:185,1,127.50000243187,0|0,1:0|0:0,0:0:0:0:
59,173,74491,2,0,B|41:235|41:235|52:296,1,127.50000243187,2|0,0:0|0:0,0:0:0:0:
308,338,74844,2,0,B|326:276|326:276|315:210,1,127.50000243187,0|0,1:0|0:0,0:0:0:0:
69,139,75197,2,0,B|118:190|118:190|238:185,1,191.250003647804,2|0,0:0|0:0,0:0:0:0:
349,146,75550,2,0,B|313:112|313:112|232:115,1,127.50000243187,0|0,1:0|0:0,0:0:0:0:
370,228,75903,2,0,B|421:179|421:179|418:58,1,191.250003647804,2|0,0:0|0:0,0:0:0:0:
304,21,76256,2,0,B|340:55|340:55|420:58,1,127.50000243187,0|0,1:0|0:0,0:0:0:0:
283,118,76609,6,0,L|29:110,1,255.000004863739,2|0,0:0|1:0,0:0:0:0:
154,272,77138,1,0,3:0:0:0:
287,38,77315,2,0,L|158:35,1,127.50000243187,2|0,0:0|0:0,0:0:0:0:
81,193,77668,2,0,L|211:198,1,127.50000243187,0|0,1:0|0:0,0:0:0:0:
60,120,78021,6,0,P|4:184|115:264,1,255.000004863739,2|0,0:0|1:0,0:0:0:0:
131,137,78550,1,0,0:0:0:0:
162,262,78726,1,2,0:0:0:0:
221,280,78814,1,0,0:0:0:0:
274,249,78902,1,0,0:0:0:0:
14,258,79079,2,0,L|21:389,1,127.50000243187,0|2,1:0|0:0,0:0:0:0:
223,185,79432,6,0,P|302:172|329:274,1,191.250003647804,6|0,0:0|0:0,0:0:0:0:
235,315,79785,1,0,1:0:0:0:
360,199,79962,2,0,B|357:139|357:139|309:93,1,127.50000243187,2|0,0:0|0:0,0:0:0:0:
158,57,80315,2,0,B|160:116|160:116|211:166,1,127.50000243187,2|0,0:0|1:0,0:0:0:0:
417,235,80668,1,0,3:0:0:0:
417,235,80844,6,0,B|305:247|305:247|266:386,1,255.000004863739,2|0,0:0|1:0,0:0:0:0:
427,158,81373,1,2,0:0:0:0:
363,332,81550,1,0,0:0:0:0:
265,163,81726,1,2,0:0:0:0:
479,309,81903,1,0,1:0:0:0:
189,214,82079,1,2,0:0:0:0:
189,214,82256,6,0,P|159:266|230:360,1,191.250003647804,2|0,0:0|0:0,0:0:0:0:
336,332,82609,1,0,1:0:0:0:
189,214,82785,2,0,P|126:204|67:226,1,127.50000243187,2|0,0:0|0:0,0:0:0:0:
295,286,83138,2,0,P|358:278|409:240,1,127.50000243187,2|0,0:0|1:0,0:0:0:0:
189,214,83491,2,0,P|178:290|191:340,2,127.50000243187,0|2|0,3:0|0:0|0:0,0:0:0:0:
248,77,84021,5,0,1:0:0:0:
295,286,84197,1,0,0:0:0:0:
333,41,84373,1,2,0:0:0:0:
111,235,84550,1,0,3:0:0:0:
318,130,84726,2,0,P|381:118|437:152,1,127.50000243187,0|0,1:0|0:0,0:0:0:0:
371,324,85079,6,0,B|372:367|351:386|351:386|312:306|363:205,1,255.000004863739,6|0,0:0|1:0,0:0:0:0:
498,106,85609,1,0,3:0:0:0:
363,206,85785,2,0,B|303:214|303:214|236:202,1,127.50000243187,2|0,0:0|0:0,0:0:0:0:
151,57,86138,1,0,1:0:0:0:
297,279,86315,1,2,0:0:0:0:
151,57,86491,6,0,P|98:37|28:44,1,127.50000243187,2|0,0:0|0:0,0:0:0:0:
118,246,86844,1,0,1:0:0:0:
271,15,87021,1,0,3:0:0:0:
147,156,87197,2,0,B|80:169|80:169|9:151,1,127.50000243187,2|0,0:0|0:0,0:0:0:0:
244,108,87550,2,0,B|311:95|311:95|374:111,1,127.50000243187,0|0,1:0|0:0,0:0:0:0:
42,39,87903,1,2,0:0:0:0:
256,192,87991,12,0,90197,3:0:0:0:
227,80,90373,5,0,1:0:0:0:
290,92,90461,1,0,1:0:0:0:
352,104,90549,1,0,1:0:0:0:
415,117,90637,1,0,1:0:0:0:
477,132,90726,6,0,L|461:210,1,75,6|0,0:0|0:0,0:0:0:0:
327,285,91079,1,2,0:0:0:0:
270,180,91256,1,0,0:0:0:0:
446,285,91432,1,2,0:0:0:0:
396,42,91609,1,0,1:0:0:0:
396,42,91697,1,0,1:0:0:0:
396,42,91785,1,0,1:0:0:0:
236,261,91962,6,0,P|188:283|134:258,1,112.5,6|0,0:0|0:0,0:0:0:0:
72,212,92315,2,0,P|121:234|170:212,1,112.5,6|0,0:0|0:0,0:0:0:0:
213,151,92668,1,0,1:0:0:0:
35,88,92844,1,2,0:0:0:0:
194,277,93021,1,0,1:0:0:0:
225,257,93109,1,0,1:0:0:0:
248,227,93197,1,0,1:0:0:0:
259,192,93285,1,0,1:0:0:0:
257,155,93373,1,0,1:0:0:0:
242,121,93462,1,0,1:0:0:0:
213,151,93550,6,0,L|204:226,1,75,2|0,0:0|0:0,0:0:0:0:
326,348,93903,2,0,L|338:229,1,112.5,2|0,0:0|0:0,0:0:0:0:
345,160,94256,1,2,0:0:0:0:
240,334,94432,1,0,1:0:0:0:
203,337,94521,1,0,1:0:0:0:
168,323,94609,1,0,1:0:0:0:
97,224,94785,6,0,P|147:208|196:246,1,112.5,6|0,0:0|0:0,0:0:0:0:
136,177,95138,2,0,P|123:129|158:78,1,112.5,6|0,0:0|0:0,0:0:0:0:
266,44,95491,1,0,0:0:0:0:
140,269,95668,1,0,1:0:0:0:
186,4,95844,1,0,0:0:0:0:
293,245,96021,1,2,0:0:0:0:
84,98,96197,1,0,1:0:0:0:
347,80,96373,2,0,L|438:70,1,75,2|0,0:0|0:0,0:0:0:0:
290,246,96726,5,2,0:0:0:0:
69,213,96903,1,0,0:0:0:0:
36,12,97079,1,2,0:0:0:0:
73,15,97168,1,0,0:0:0:0:
110,17,97256,1,0,1:0:0:0:
148,19,97344,1,0,1:0:0:0:
186,20,97432,1,0,1:0:0:0:
271,196,97609,6,0,L|276:102,1,75,6|0,0:0|0:0,0:0:0:0:
418,12,97962,2,0,L|413:106,1,75,6|0,0:0|0:0,0:0:0:0:
230,142,98315,2,0,L|235:48,1,75,0|2,1:0|0:0,0:0:0:0:
200,305,98668,5,0,1:0:0:0:
169,325,98756,1,0,1:0:0:0:
133,322,98844,1,0,1:0:0:0:
107,296,98932,1,0,1:0:0:0:
103,259,99021,1,0,1:0:0:0:
124,229,99109,1,0,1:0:0:0:
158,203,99197,2,0,L|153:109,1,75,2|0,0:0|0:0,0:0:0:0:
33,164,99550,2,0,L|28:258,1,75,2|0,0:0|0:0,0:0:0:0:
154,128,99903,6,0,L|153:99,1,30,0|0,0:0|1:0,0:0:0:0:
292,136,100433,1,6,0:0:0:0:
409,94,100609,2,0,L|410:65,1,30,0|0,0:0|0:0,0:0:0:0:
216,193,101139,1,0,0:0:0:0:
389,175,101315,1,0,0:0:0:0:
343,167,101403,1,0,0:0:0:0:
304,191,101491,1,0,0:0:0:0:
290,235,101579,1,0,0:0:0:0:
307,277,101667,1,0,0:0:0:0:
348,298,101756,1,0,0:0:0:0:
393,287,101844,1,0,0:0:0:0:
420,250,101932,1,0,0:0:0:0:
423,198,102021,5,6,0:0:0:0:
242,115,102197,1,0,0:0:0:0:
358,229,102373,1,0,1:0:0:0:
324,35,102550,1,0,0:0:0:0:
245,230,102726,1,2,0:0:0:0:
155,44,102903,1,0,1:0:0:0:
155,44,102991,1,0,1:0:0:0:
155,44,103079,2,0,B|103:46|103:46|66:76,1,93.75,0|0,1:0|0:0,0:0:0:0:
156,217,103432,6,0,L|161:312,2,93.75,2|0|0,0:0|0:0|1:0,0:0:0:0:
225,85,103962,1,2,0:0:0:0:
316,205,104138,2,0,P|319:262|301:296,1,93.75,0|0,0:0|0:0,0:0:0:0:
374,152,104491,2,0,P|431:149|465:167,1,93.75,0|0,1:0|0:0,0:0:0:0:
302,127,104844,1,2,0:0:0:0:
142,84,105021,5,0,0:0:0:0:
189,238,105197,1,0,1:0:0:0:
235,42,105373,1,0,0:0:0:0:
120,196,105550,1,2,0:0:0:0:
304,220,105726,1,0,1:0:0:0:
304,220,105815,1,0,1:0:0:0:
304,220,105903,2,0,L|301:125,1,93.75,0|0,1:0|0:0,0:0:0:0:
260,298,106256,6,0,L|263:203,1,93.75,2|0,0:0|0:0,0:0:0:0:
309,57,106609,1,0,1:0:0:0:
304,220,106785,2,0,B|299:352|299:352|345:318,1,187.5,2|0,0:0|0:0,0:0:0:0:
179,210,107315,2,0,L|174:307,1,93.75,0|0,1:0|0:0,0:0:0:0:
247,117,107668,6,0,B|330:77|392:198|477:103|477:103|415:26|353:78,1,375,2|2,0:0|0:0,0:0:0:0:
352,225,108550,1,0,1:0:0:0:
397,236,108638,1,0,1:0:0:0:
443,227,108726,1,0,1:0:0:0:
304,238,108903,1,0,0:0:0:0:
247,363,109079,6,0,B|195:411|130:361|146:264|235:282|235:282|210:241|235:200,1,281.25,2|0,0:0|0:0,0:0:0:0:
264,100,109785,2,0,P|225:144|174:14,1,281.25,2|0,0:0|0:0,0:0:0:0:
126,165,110491,6,0,P|74:182|36:168,1,93.75,2|0,0:0|0:0,0:0:0:0:
67,307,110844,1,0,1:0:0:0:
484,32,111197,1,2,0:0:0:0:
327,237,111373,1,0,1:0:0:0:
327,237,111462,1,0,1:0:0:0:
327,237,111550,2,0,P|380:248|418:228,1,93.75,0|0,1:0|0:0,0:0:0:0:
247,173,111903,5,0,1:0:0:0:
201,175,111991,1,0,1:0:0:0:
165,203,112079,1,0,1:0:0:0:
151,247,112168,1,0,1:0:0:0:
165,291,112256,5,0,1:0:0:0:
183,245,112344,1,0,1:0:0:0:
175,199,112432,1,0,1:0:0:0:
140,164,112521,1,0,1:0:0:0:
93,159,112609,5,2,0:0:0:0:
49,172,112697,1,0,0:0:0:0:
17,204,112785,2,0,P|21:150|9:103,1,93.75,4|0,3:0|0:0,0:0:0:0:
111,16,113138,1,2,0:0:0:0:
278,138,113315,6,0,P|242:181|173:198,1,127.50000243187,6|0,0:0|0:0,0:0:0:0:
10,78,113668,2,0,P|52:123|119:129,1,127.50000243187,0|0,1:0|0:0,0:0:0:0:
348,82,114021,2,0,P|292:75|234:112,1,127.50000243187,2|0,0:0|0:0,0:0:0:0:
58,233,114373,2,0,P|101:198|114:126,1,127.50000243187,0|0,1:0|0:0,0:0:0:0:
151,331,114726,6,0,P|213:368|307:314,1,191.250003647804,2|0,0:0|0:0,0:0:0:0:
278,196,115079,2,0,P|335:205|399:183,1,127.50000243187,0|0,1:0|0:0,0:0:0:0:
207,132,115432,2,0,P|150:123|185:210,1,191.250003647804,2|0,0:0|0:0,0:0:0:0:
278,196,115785,2,0,P|300:129|277:69,1,127.50000243187,0|0,1:0|0:0,0:0:0:0:
57,241,116138,6,0,B|158:295|222:199|306:261,1,255.000004863739,2|0,0:0|1:0,0:0:0:0:
453,360,116668,1,0,0:0:0:0:
363,134,116844,1,2,0:0:0:0:
217,351,117021,1,0,0:0:0:0:
376,229,117197,2,0,P|452:237|494:279,1,127.50000243187,0|0,1:0|0:0,0:0:0:0:
207,271,117550,6,0,P|131:263|89:233,1,127.50000243187,2|0,0:0|0:0,0:0:0:0:
291,196,117903,2,0,P|317:245|311:319,1,127.50000243187,0|0,1:0|3:0,0:0:0:0:
184,165,118256,2,0,P|212:117|280:89,1,127.50000243187,2|0,0:0|0:0,0:0:0:0:
207,271,118609,2,0,P|138:305|86:293,1,127.50000243187,0|2,1:0|0:0,0:0:0:0:
357,184,118962,6,0,B|422:184|422:184|483:208,1,127.50000243187,6|0,0:0|0:0,0:0:0:0:
167,193,119315,2,0,B|102:193|102:193|42:171,1,127.50000243187,0|0,1:0|0:0,0:0:0:0:
357,184,119668,2,0,B|375:246|375:246|367:310,1,127.50000243187,2|0,0:0|0:0,0:0:0:0:
167,193,120021,2,0,B|162:145|162:145|186:70,1,127.50000243187,0|0,1:0|0:0,0:0:0:0:
408,27,120374,6,0,B|459:76|459:76|456:197,1,191.250003647804,2|0,0:0|0:0,0:0:0:0:
391,297,120727,2,0,B|357:261|357:261|357:181,1,127.50000243187,0|0,1:0|0:0,0:0:0:0:
408,27,121080,2,0,B|359:78|359:78|236:76,1,191.250003647804,2|0,0:0|0:0,0:0:0:0:
132,131,121433,2,0,B|168:165|168:165|249:165,1,127.50000243187,0|0,1:0|0:0,0:0:0:0:
434,219,121785,6,0,B|312:219|312:219|198:298,1,255.000004863739,2|0,0:0|1:0,0:0:0:0:
368,359,122315,1,0,3:0:0:0:
434,219,122491,2,0,B|449:161|449:161|449:94,1,127.50000243187,2|0,0:0|0:0,0:0:0:0:
268,198,122844,2,0,B|253:256|253:256|253:327,1,127.50000243187,0|0,1:0|0:0,0:0:0:0:
352,161,123197,6,0,B|298:121|298:121|166:121|166:121|112:160,1,255.000004863739,2|0,0:0|1:0,0:0:0:0:
174,354,123726,1,0,3:0:0:0:
39,218,123903,2,0,B|42:143|42:143|89:122,1,127.50000243187,2|0,0:0|0:0,0:0:0:0:
126,262,124256,1,0,0:0:0:0:
107,320,124344,1,0,0:0:0:0:
49,343,124432,1,0,0:0:0:0:
173,167,124609,6,0,P|228:139|280:232,1,191.250003647804,6|0,0:0|0:0,0:0:0:0:
215,332,124962,1,0,1:0:0:0:
361,155,125138,2,0,P|324:97|262:64,1,127.50000243187,2|0,0:0|0:0,0:0:0:0:
406,240,125491,2,0,P|467:240|525:207,1,127.50000243187,2|0,0:0|1:0,0:0:0:0:
303,224,125844,2,0,P|242:224|182:256,1,127.50000243187,0|2,3:0|0:0,0:0:0:0:
103,374,126197,5,0,0:0:0:0:
112,226,126373,2,0,P|105:164|69:110,1,127.50000243187,0|2,1:0|0:0,0:0:0:0:
0,290,126726,1,0,0:0:0:0:
271,289,126903,1,2,0:0:0:0:
112,226,127079,1,0,1:0:0:0:
411,170,127256,1,2,0:0:0:0:
164,153,127432,6,0,P|196:183|270:99,1,191.250003647804,2|0,0:0|0:0,0:0:0:0:
167,47,127785,1,0,1:0:0:0:
77,223,127961,2,0,P|67:286|94:344,1,127.50000243187,2|0,0:0|0:0,0:0:0:0:
242,124,128314,2,0,P|271:57|252:10,1,127.50000243187,2|0,0:0|1:0,0:0:0:0:
199,228,128668,2,0,P|262:238|322:206,2,127.50000243187,0|2|0,3:0|0:0|0:0,0:0:0:0:
71,142,129197,5,0,1:0:0:0:
356,98,129373,1,2,0:0:0:0:
111,60,129549,1,0,0:0:0:0:
284,247,129726,1,2,0:0:0:0:
106,185,129903,2,0,P|42:189|-7:227,1,127.50000243187,0|0,1:0|0:0,0:0:0:0:
239,227,130256,6,0,P|288:179|176:172,1,255.000004863739,6|0,0:0|1:0,0:0:0:0:
228,315,130785,1,0,3:0:0:0:
325,182,130962,2,0,P|391:170|444:200,1,127.50000243187,2|0,0:0|0:0,0:0:0:0:
478,351,131315,1,0,1:0:0:0:
347,97,131491,1,0,0:0:0:0:
512,170,131668,6,0,P|451:182|394:152,1,127.50000243187,2|0,0:0|0:0,0:0:0:0:
285,24,132021,1,0,1:0:0:0:
331,237,132197,1,0,3:0:0:0:
215,98,132373,2,0,P|158:87|95:113,1,127.50000243187,2|0,0:0|0:0,0:0:0:0:
332,142,132726,2,0,P|389:153|450:125,1,127.50000243187,0|0,1:0|0:0,0:0:0:0:
145,238,133079,1,2,0:0:0:0:
256,192,133168,12,0,135726,1:0:0:0:
293,267,135903,5,4,1:2:0:0:
360,243,136079,1,0,0:0:0:0:
402,184,136256,1,0,0:0:0:0:
400,112,136432,1,0,0:0:0:0:
350,59,136609,2,0,L|345:136,1,60,0|0,0:0|0:0,0:0:0:0:
275,132,136962,2,0,L|280:209,1,60,0|0,0:0|0:0,0:0:0:0:
209,173,137315,5,0,3:0:0:0:
168,113,137491,2,0,L|173:36,2,60,0|0|0,0:0|0:0|0:0,0:0:0:0:
137,178,138021,2,0,L|142:255,1,60,0|0,0:0|0:0,0:0:0:0:
95,293,138373,2,0,L|100:370,1,60,0|0,0:0|0:0,0:0:0:0:
331,155,138726,5,0,0:0:0:0:
307,88,138902,1,0,0:0:0:0:
248,46,139079,1,0,0:0:0:0:
176,48,139255,1,0,0:0:0:0:
123,98,139432,2,0,L|200:103,1,60,0|0,0:0|0:0,0:0:0:0:
233,153,139785,2,0,L|156:148,1,60,0|0,0:0|0:0,0:0:0:0:
123,201,140138,5,0,0:0:0:0:
63,242,140315,2,0,L|-14:237,2,60,0|0|0,0:0|0:0|0:0,0:0:0:0:
128,273,140844,2,0,L|204:278,1,60,0|0,0:0|0:0,0:0:0:0:
201,206,141196,2,0,L|275:211,1,60,0|0,0:0|0:0,0:0:0:0:
461,254,141550,5,0,0:0:0:0:
393,232,141726,1,0,0:0:0:0:
323,254,141903,1,0,0:0:0:0:
282,313,142079,1,0,0:0:0:0:
251,247,142256,2,0,L|248:183,1,60,0|0,0:0|0:0,0:0:0:0:
294,131,142609,2,0,L|291:195,1,60,0|0,0:0|0:0,0:0:0:0:
323,254,142962,5,0,0:0:0:0:
356,190,143138,2,0,L|353:125,2,60,0|0|0,0:0|0:0|0:0,0:0:0:0:
399,248,143668,2,0,L|469:253,1,60,0|0,0:0|0:0,0:0:0:0:
443,322,144021,2,0,L|513:327,1,60,0|0,0:0|0:0,0:0:0:0:
219,117,144373,5,0,0:0:0:0:
152,141,144549,1,0,0:0:0:0:
110,200,144726,1,0,0:0:0:0:
112,272,144902,1,0,0:0:0:0:
162,325,145079,2,0,L|167:248,1,60,0|0,0:0|0:0,0:0:0:0:
237,252,145432,2,0,L|232:175,1,60,0|0,0:0|0:0,0:0:0:0:
303,211,145785,5,0,0:0:0:0:
344,271,145962,2,0,L|339:348,2,60,0|0|0,0:0|0:0|0:0,0:0:0:0:
375,206,146491,2,0,L|370:129,1,60,0|0,0:0|0:0,0:0:0:0:
417,91,146844,2,0,L|412:14,1,60,0|0,0:0|0:0,0:0:0:0:
169,36,147197,5,6,0:0:0:0:
102,60,147373,1,0,0:0:0:0:
60,119,147550,1,2,0:0:0:0:
62,191,147726,1,0,0:0:0:0:
112,244,147903,2,0,L|117:167,1,60,0|0,3:0|0:0,0:0:0:0:
167,134,148256,2,0,L|162:211,1,60,2|0,0:0|0:0,0:0:0:0:
215,244,148609,5,0,3:0:0:0:
256,304,148785,2,0,L|251:381,2,60,0|2|0,0:0|0:0|0:0,0:0:0:0:
287,239,149315,2,0,L|292:163,1,60,0|0,3:0|0:0,0:0:0:0:
220,166,149667,2,0,L|225:92,1,60,2|2,0:0|0:0,0:0:0:0:
444,233,150021,5,0,3:0:0:0:
420,300,150197,1,0,0:0:0:0:
361,342,150374,1,2,0:0:0:0:
289,340,150550,1,0,0:0:0:0:
236,290,150727,2,0,L|313:285,1,60,0|0,3:0|0:0,0:0:0:0:
304,214,151080,2,0,L|363:210,1,60,2|0,0:0|0:0,0:0:0:0:
236,187,151433,5,0,3:0:0:0:
176,146,151609,2,0,L|99:151,2,60,0|2|0,0:0|0:0|0:0,0:0:0:0:
241,115,152139,2,0,L|317:110,1,60,0|0,3:0|0:0,0:0:0:0:
363,146,152491,2,0,L|289:151,1,60,2|2,0:0|0:0,0:0:0:0:
150,242,152844,5,0,3:0:0:0:
81,219,153020,1,0,0:0:0:0:
39,160,153197,1,2,0:0:0:0:
40,88,153373,1,0,0:0:0:0:
89,34,153550,2,0,L|95:110,1,60,0|0,3:0|0:0,0:0:0:0:
165,106,153903,2,0,L|161:183,1,60,2|0,0:0|0:0,0:0:0:0:
231,146,154256,5,0,3:0:0:0:
271,85,154432,2,0,L|264:8,2,60,0|2|0,0:0|0:0|0:0,0:0:0:0:
303,150,154962,2,0,L|299:227,1,60,0|0,3:0|0:0,0:0:0:0:
347,264,155314,2,0,L|343:341,1,60,2|2,0:0|0:0,0:0:0:0:
147,240,155668,5,0,3:0:0:0:
80,216,155844,1,0,0:0:0:0:
38,157,156021,1,2,0:0:0:0:
40,85,156197,1,0,0:0:0:0:
90,32,156373,2,0,L|95:109,1,60,0|0,3:0|0:0,0:0:0:0:
165,105,156726,2,0,L|160:182,1,60,2|0,0:0|0:0,0:0:0:0:
231,146,157079,5,0,3:0:0:0:
272,86,157256,2,0,L|267:9,2,60,0|2|0,0:0|0:0|0:0,0:0:0:0:
303,151,157785,2,0,L|298:228,1,60,0|0,3:0|3:0,0:0:0:0:
332,274,158138,1,0,1:0:0:0:
368,211,158315,1,0,1:0:0:0:
293,341,158491,5,6,0:0:0:0:
269,348,158579,1,0,0:0:0:0:
244,348,158667,1,0,0:0:0:0:
221,340,158755,1,0,0:0:0:0:
207,327,158844,2,0,P|186:291|198:252,1,75,0|0,1:0|3:0,0:0:0:0:
289,215,159197,2,0,P|282:264|224:245,1,112.5,2|0,0:0|0:0,0:0:0:0:
194,157,159550,1,0,3:0:0:0:
342,162,159726,2,0,L|419:166,1,75,0|0,1:0|0:0,0:0:0:0:
194,157,160079,5,0,3:0:0:0:
194,157,160256,2,0,L|117:161,1,75,2|0,0:0|0:0,0:0:0:0:
342,162,160609,2,0,P|334:206|279:176,1,112.5,0|0,1:0|0:0,0:0:0:0:
261,110,160962,1,2,0:0:0:0:
419,173,161138,1,0,0:0:0:0:
419,173,161226,1,0,0:0:0:0:
419,173,161315,6,0,L|415:268,1,75,2|0,0:0|0:0,0:0:0:0:
475,354,161668,1,2,0:0:0:0:
489,221,161844,2,0,L|491:124,1,75,0|0,0:0|1:0,0:0:0:0:
403,41,162197,1,0,0:0:0:0:
251,157,162373,1,2,0:0:0:0:
365,76,162550,1,0,1:0:0:0:
365,76,162638,1,0,3:0:0:0:
365,76,162726,6,0,L|368:161,1,75,2|0,0:0|0:0,0:0:0:0:
284,267,163079,2,0,L|281:182,1,75,2|0,0:0|0:0,0:0:0:0:
193,77,163432,2,0,P|178:117|237:135,1,112.5,0|0,1:0|0:0,0:0:0:0:
268,73,163785,1,2,0:0:0:0:
97,95,163962,1,0,3:0:0:0:
97,95,164050,1,0,3:0:0:0:
97,95,164139,6,0,L|104:190,1,75,6|0,0:0|0:0,0:0:0:0:
193,77,164491,1,0,1:0:0:0:
0,154,164668,1,0,0:0:0:0:
155,217,164844,2,0,P|131:261|83:223,1,112.5,2|0,0:0|0:0,0:0:0:0:
102,169,165197,1,2,0:0:0:0:
224,234,165373,2,0,P|259:251|302:247,1,75,0|0,1:0|0:0,0:0:0:0:
416,183,165726,5,0,0:0:0:0:
416,183,165903,2,0,P|432:147|429:105,1,75,2|0,0:0|0:0,0:0:0:0:
286,237,166256,2,0,P|310:280|351:252,1,112.5,2|0,0:0|0:0,0:0:0:0:
336,183,166609,1,0,1:0:0:0:
391,330,166785,1,0,0:0:0:0:
391,330,166873,1,0,0:0:0:0:
391,330,166962,6,0,P|420:288|423:237,1,75,2|0,0:0|0:0,0:0:0:0:
368,109,167315,1,2,0:0:0:0:
268,170,167491,2,0,L|193:175,1,75,0|0,0:0|1:0,0:0:0:0:
291,326,167844,1,0,0:0:0:0:
344,137,168020,1,2,0:0:0:0:
365,308,168197,1,0,1:0:0:0:
365,308,168285,1,0,3:0:0:0:
365,308,168373,6,0,L|368:223,1,75,2|0,0:0|0:0,0:0:0:0:
270,95,168726,2,0,L|267:180,1,75,2|0,0:0|0:0,0:0:0:0:
268,311,169079,2,0,P|247:348|195:314,1,112.5,0|0,1:0|0:0,0:0:0:0:
211,238,169432,1,2,0:0:0:0:
113,337,169609,1,0,3:0:0:0:
116,346,169697,1,0,3:0:0:0:
116,346,169786,6,0,L|123:251,1,75,6|0,0:0|0:0,0:0:0:0:
175,126,170138,1,2,0:0:0:0:
195,320,170315,1,0,3:0:0:0:
344,138,170491,2,0,P|320:94|272:132,1,112.5,2|0,0:0|0:0,0:0:0:0:
290,188,170844,1,0,1:0:0:0:
418,136,171021,2,0,P|417:96|395:60,1,75,0|2,0:0|0:0,0:0:0:0:
369,211,171373,5,0,3:0:0:0:
369,211,171550,2,0,P|404:227|447:224,1,75,0|0,1:0|0:0,0:0:0:0:
277,145,171903,2,0,P|233:169|261:210,1,112.5,2|0,0:0|0:0,0:0:0:0:
327,194,172256,1,0,1:0:0:0:
168,128,172432,1,0,3:0:0:0:
168,128,172520,1,0,0:0:0:0:
168,128,172609,6,0,P|157:175|167:226,1,75,2|0,0:0|0:0,0:0:0:0:
261,284,172962,1,0,1:0:0:0:
159,201,173138,2,0,P|111:190|60:200,1,75,0|2,3:0|0:0,0:0:0:0:
123,328,173491,1,0,0:0:0:0:
261,284,173668,2,0,P|308:273|359:283,1,75,0|0,1:0|0:0,0:0:0:0:
211,358,174021,1,2,0:0:0:0:
242,212,174197,1,0,3:0:0:0:
242,212,174285,1,0,3:0:0:0:
242,212,174373,6,0,L|239:127,1,75,0|0,1:0|0:0,0:0:0:0:
233,0,174726,2,0,P|248:40|189:58,1,112.5,2|0,0:0|0:0,0:0:0:0:
158,0,175079,1,0,1:0:0:0:
88,105,175256,1,0,0:0:0:0:
88,105,175344,1,0,0:0:0:0:
88,105,175433,6,0,L|81:200,1,75,6|0,0:0|0:0,0:0:0:0:
76,307,175785,1,0,1:0:0:0:
76,307,175962,2,0,P|65:353|125:357,1,112.5,0|0,3:0|0:0,0:0:0:0:
228,217,176315,1,0,0:0:0:0:
191,383,176491,1,0,1:0:0:0:
137,151,176668,2,0,L|133:192,1,37.5,0|0,3:0|0:0,0:0:0:0:
166,178,176844,5,2,0:0:0:0:
76,307,177021,1,0,3:0:0:0:
76,307,177109,1,0,3:0:0:0:
76,307,177197,1,0,1:0:0:0:
58,115,177373,2,0,P|54:68|63:28,2,75,2|0|0,0:0|3:0|0:0,0:0:0:0:
134,253,177903,1,0,1:0:0:0:
308,135,178256,6,0,B|265:108|256:51|256:51|246:108|206:132,1,196.875001877546,6|0,0:0|0:0,0:0:0:0:
141,159,178609,1,0,0:0:0:0:
349,122,178785,2,0,B|368:72|345:19|345:19|313:60,1,131.250001251698,0|0,0:0|0:0,0:0:0:0:
164,120,179138,2,0,B|145:70|168:17|168:17|200:58,1,131.250001251698,0|0,0:0|0:0,0:0:0:0:
377,161,179491,1,0,0:0:0:0:
141,187,179668,5,0,1:0:0:0:
141,248,179756,1,0,1:0:0:0:
199,266,179844,1,0,1:0:0:0:
258,235,179932,1,0,1:0:0:0:
327,233,180021,1,0,1:0:0:0:
398,255,180109,1,0,1:0:0:0:
404,331,180197,1,0,1:0:0:0:
346,380,180285,1,0,1:0:0:0:
300,309,180373,5,4,3:0:0:0:
309,151,180550,1,4,3:0:0:0:
84,344,180726,1,0,0:0:0:0:
437,182,180903,1,2,0:0:0:0:
108,253,181079,6,0,L|117:126,1,127.50000243187,6|0,0:0|0:0,0:0:0:0:
400,258,181432,2,0,L|391:128,1,127.50000243187,0|0,1:0|0:0,0:0:0:0:
74,55,181785,2,0,L|65:182,1,127.50000243187,2|0,0:0|0:0,0:0:0:0:
362,328,182138,2,0,L|352:200,1,127.50000243187,0|0,1:0|0:0,0:0:0:0:
243,110,182491,6,0,P|188:157|91:111,1,191.250003647804,2|0,0:0|0:0,0:0:0:0:
209,181,182844,2,0,P|218:238|202:292,1,112.500004291535,0|0,1:0|0:0,0:0:0:0:
91,111,183197,2,0,P|89:53|168:85,1,168.750006437302,2|0,0:0|0:0,0:0:0:0:
192,125,183550,2,0,P|227:84|297:83,1,112.500004291535,0|0,1:0|0:0,0:0:0:0:
452,231,183903,6,0,B|494:278|494:278|299:257,1,255.000004863739,2|0,0:0|1:0,0:0:0:0:
129,157,184432,1,0,3:0:0:0:
313,375,184609,1,2,0:0:0:0:
283,74,184785,1,0,0:0:0:0:
204,336,184962,2,0,P|155:371|94:351,1,127.50000243187,0|0,1:0|0:0,0:0:0:0:
300,246,185314,6,0,P|357:265|382:308,1,112.500004291535,2|0,0:0|0:0,0:0:0:0:
208,237,185667,2,0,L|217:107,1,127.50000243187,0|0,1:0|3:0,0:0:0:0:
447,116,186020,2,0,L|438:244,1,127.50000243187,2|0,0:0|0:0,0:0:0:0:
216,109,186373,2,0,P|268:92|337:112,1,127.50000243187,0|0,1:0|3:0,0:0:0:0:
139,106,186726,6,0,B|91:101|91:101|17:131,1,127.50000243187,6|0,0:0|0:0,0:0:0:0:
390,71,187079,2,0,B|437:66|437:66|524:96,1,127.50000243187,0|0,1:0|0:0,0:0:0:0:
120,48,187432,2,0,B|73:53|73:53|0:21,1,127.50000243187,2|0,0:0|0:0,0:0:0:0:
391,15,187785,2,0,B|439:11|439:11|511:44,1,127.50000243187,0|0,1:0|0:0,0:0:0:0:
417,269,188138,2,0,B|368:218|368:218|246:219,1,191.250003647804,2|0,0:0|0:0,0:0:0:0:
131,219,188491,2,0,B|165:183|165:183|163:111,1,112.500004291535,0|0,1:0|0:0,0:0:0:0:
188,287,188844,2,0,B|237:338|237:338|359:335,1,191.250003647804,2|0,0:0|0:0,0:0:0:0:
467,295,189197,2,0,B|431:261|431:261|361:261,1,112.500004291535,0|0,1:0|0:0,0:0:0:0:
93,344,189550,6,0,L|85:88,1,255.000004863739,2|0,0:0|1:0,0:0:0:0:
18,318,190079,1,0,3:0:0:0:
161,144,190256,2,0,L|166:275,1,127.50000243187,2|0,0:0|0:0,0:0:0:0:
18,318,190609,2,0,L|13:185,1,127.50000243187,0|0,1:0|3:0,0:0:0:0:
272,162,190962,6,0,P|352:226|261:313,1,255.000004863739,2|0,0:0|1:0,0:0:0:0:
171,182,191491,1,0,3:0:0:0:
397,153,191667,2,0,P|423:208|419:273,1,127.50000243187,2|0,0:0|0:0,0:0:0:0:
333,104,192021,1,0,0:0:0:0:
269,96,192109,1,0,0:0:0:0:
208,112,192197,1,0,0:0:0:0:
210,275,192373,6,0,P|289:288|342:202,1,191.250003647804,6|0,0:0|0:0,0:0:0:0:
333,104,192726,1,0,1:0:0:0:
130,206,192903,2,0,B|70:203|70:203|23:153,1,127.50000243187,2|0,0:0|0:0,0:0:0:0:
288,113,193256,2,0,B|347:115|347:115|386:153,1,112.500004291535,2|0,0:0|0:0,0:0:0:0:
366,338,193609,1,0,3:0:0:0:
173,288,193785,6,0,B|185:176|185:176|324:138,1,255.000004863739,2|0,0:0|1:0,0:0:0:0:
443,109,194314,1,2,0:0:0:0:
200,59,194491,1,0,0:0:0:0:
274,312,194667,1,2,0:0:0:0:
308,17,194844,1,0,1:0:0:0:
391,262,195020,1,0,3:0:0:0:
213,112,195197,6,0,P|153:104|88:205,1,191.250003647804,2|0,0:0|0:0,0:0:0:0:
165,283,195550,1,0,1:0:0:0:
213,112,195726,2,0,P|197:50|151:9,1,127.50000243187,2|0,0:0|0:0,0:0:0:0:
165,283,196079,2,0,P|196:337|262:361,1,127.50000243187,2|0,0:0|1:0,0:0:0:0:
126,175,196432,2,0,P|53:189|12:220,2,127.50000243187,0|2|0,3:0|0:0|0:0,0:0:0:0:
349,142,196962,5,0,1:0:0:0:
254,360,197138,1,0,0:0:0:0:
493,203,197314,1,2,0:0:0:0:
175,111,197491,1,0,3:0:0:0:
363,295,197667,2,0,P|426:307|481:278,1,127.50000243187,0|0,1:0|0:0,0:0:0:0:
331,107,198021,6,0,P|266:132|366:184,1,255.000004863739,6|0,0:0|1:0,0:0:0:0:
261,36,198550,1,0,3:0:0:0:
278,244,198726,2,0,B|279:304|279:304|258:369,1,127.50000243187,2|0,0:0|0:0,0:0:0:0:
108,187,199079,1,0,1:0:0:0:
358,261,199256,1,0,3:0:0:0:
211,88,199432,6,0,P|142:89|96:110,1,112.500004291535,2|0,0:0|0:0,0:0:0:0:
0,294,199785,1,0,1:0:0:0:
267,162,199962,1,0,3:0:0:0:
136,367,200138,2,0,B|68:378|68:378|-3:363,1,127.50000243187,2|0,0:0|0:0,0:0:0:0:
234,296,200491,2,0,B|301:283|301:283|361:296,1,112.500004291535,0|0,1:0|0:0,0:0:0:0:
0,210,200844,1,2,0:0:0:0:
256,192,200932,12,0,203138,0:0:0:0:
343,378,203315,5,0,1:0:0:0:
379,378,203403,1,0,1:0:0:0:
409,356,203491,1,0,1:0:0:0:
421,321,203579,1,0,1:0:0:0:
414,285,203668,6,0,P|380:254|337:258,1,75,6|0,0:0|0:0,0:0:0:0:
209,308,204020,2,0,P|246:314|284:307,1,75,0|0,0:0|0:0,0:0:0:0:
352,252,204373,2,0,P|356:214|349:177,1,75,0|0,0:0|0:0,0:0:0:0:
283,75,204726,1,0,3:0:0:0:
214,167,204903,6,0,L|134:165,1,75,2|0,0:0|0:0,0:0:0:0:
49,124,205256,2,0,L|123:121,1,75,0|0,0:0|0:0,0:0:0:0:
220,80,205609,2,0,L|140:78,1,75,0|0,0:0|0:0,0:0:0:0:
41,34,205962,1,0,0:0:0:0:
41,204,206138,2,0,B|45:253|69:291|69:291|90:263,1,112.5,0|0,3:0|0:0,0:0:0:0:
142,210,206491,6,0,P|183:204|216:213,1,75,2|0,0:0|0:0,0:0:0:0:
171,294,206844,2,0,P|149:331|120:351,1,75,0|0,0:0|0:0,0:0:0:0:
271,286,207197,2,0,P|308:305|332:330,1,75,0|0,0:0|0:0,0:0:0:0:
175,298,207550,1,0,3:0:0:0:
64,228,207726,6,0,L|67:152,1,75,2|0,0:0|0:0,0:0:0:0:
31,189,208079,2,0,L|34:113,1,75,0|0,0:0|3:0,0:0:0:0:
203,118,208432,6,0,L|279:121,1,75,2|0,0:0|0:0,0:0:0:0:
242,85,208785,2,0,L|318:88,1,75,0|0,0:0|3:0,0:0:0:0:
283,51,209138,1,0,0:0:0:0:
249,194,209315,6,0,P|247:234|259:269,1,75,2|0,0:0|0:0,0:0:0:0:
347,297,209667,2,0,P|386:299|421:288,1,75,0|0,0:0|0:0,0:0:0:0:
257,266,210020,2,0,P|218:278|188:299,1,75,0|0,0:0|0:0,0:0:0:0:
300,362,210373,1,0,3:0:0:0:
374,212,210550,6,0,P|385:170|381:130,1,75,2|0,0:0|0:0,0:0:0:0:
458,281,210903,2,0,P|438:243|433:203,1,75,0|0,0:0|0:0,0:0:0:0:
405,381,211256,2,0,P|416:339|412:299,1,75,0|0,0:0|0:0,0:0:0:0:
374,212,211609,1,0,0:0:0:0:
265,181,211785,2,0,B|216:175|173:192|173:192|199:214,1,112.5,0|0,3:0|0:0,0:0:0:0:
201,139,212138,6,0,L|186:63,1,75,2|0,0:0|0:0,0:0:0:0:
242,252,212491,2,0,L|246:329,1,75,0|0,0:0|0:0,0:0:0:0:
166,182,212844,2,0,L|152:109,1,75,0|0,0:0|0:0,0:0:0:0:
134,276,213197,1,0,3:0:0:0:
245,207,213373,1,2,0:0:0:0:
384,180,213550,5,0,1:0:0:0:
421,180,213638,1,0,1:0:0:0:
453,198,213726,1,0,1:0:0:0:
472,230,213814,1,0,1:0:0:0:
472,267,213902,5,0,1:0:0:0:
467,236,213991,1,0,1:0:0:0:
472,197,214079,1,0,1:0:0:0:
486,164,214167,1,0,1:0:0:0:
502,129,214255,5,0,1:0:0:0:
500,89,214343,1,0,1:0:0:0:
470,60,214432,1,0,1:0:0:0:
434,80,214521,1,0,1:0:0:0:
470,60,214609,6,0,L|475:17,1,37.5,0|0,1:0|3:0,0:0:0:0:
434,80,214785,2,0,L|419:126,1,37.5,4|0,1:3|1:0,0:0:0:0:
