osu file format v14

[General]
AudioFilename: audio.mp3
AudioLeadIn: 0
PreviewTime: 161250
Countdown: 0
SampleSet: Soft
StackLeniency: 0.4
Mode: 0
LetterboxInBreaks: 0
WidescreenStoryboard: 1

[Editor]
Bookmarks: 1500
DistanceSpacing: 0.7
BeatDivisor: 4
GridSize: 32
TimelineZoom: 2.099999

[Metadata]
Title:STIGMA
TitleUnicode:STIGMA
Artist:DUSTCELL
ArtistUnicode:DUSTCELL
Creator:SMOKELIND
Version:EX
Source:
Tags:EMA EM A Misumi Kamitsubaki Studio 神椿スタジオ rei sirose 白瀬玲 Kudou Chitose 久遠千歳 Kudo vtuber youtube virtual youtuber Mechari Kazato Asa Shikibe Mayu Shizuku- Agatsu [_Eli_] Eli Elinor Basensorex Japanese Pop
BeatmapID:2742338
BeatmapSetID:1323916

[Difficulty]
HPDrainRate:5.4
CircleSize:4.2
OverallDifficulty:9
ApproachRate:9.7
SliderMultiplier:2.07
SliderTickRate:1

[Events]
//Background and Video events
0,0,"87002337_p0.jpg",0,0
//Break Periods
//Storyboard Layer 0 (Background)
//Storyboard Layer 1 (Fail)
//Storyboard Layer 2 (Pass)
//Storyboard Layer 3 (Foreground)
//Storyboard Layer 4 (Overlay)
//Storyboard Sound Samples

[TimingPoints]
410,272.727272727273,4,2,77,77,1,0
410,-93.4579439252336,4,2,77,77,0,0
614,-93.4579439252336,4,2,77,7,0,0
682,-93.4579439252336,4,2,77,77,0,0
750,-93.4579439252336,4,2,77,7,0,0
818,-93.4579439252336,4,2,77,77,0,0
887,-93.4579439252336,4,2,77,7,0,0
955,-93.4579439252336,4,2,77,77,0,0
1023,-93.4579439252336,4,2,77,7,0,0
1091,-93.4579439252336,4,2,77,77,0,0
1432,-93.4579439252336,4,2,77,7,0,0
1500,-93.4579439252336,4,2,77,77,0,0
1569,-93.4579439252336,4,2,77,7,0,0
1637,-93.4579439252336,4,2,77,77,0,0
1978,-93.4579439252336,4,2,77,7,0,0
2046,-93.4579439252336,4,2,77,77,0,0
2114,-93.4579439252336,4,2,77,7,0,0
2182,-93.4579439252336,4,2,77,77,0,0
2796,-93.4579439252336,4,2,77,7,0,0
2864,-93.4579439252336,4,2,77,77,0,0
2932,-93.4579439252336,4,2,77,7,0,0
3000,-93.4579439252336,4,2,77,77,0,0
3069,-93.4579439252336,4,2,77,7,0,0
3137,-93.4579439252336,4,2,77,77,0,0
3205,-93.4579439252336,4,2,77,7,0,0
3273,-93.4579439252336,4,2,77,77,0,0
3614,-93.4579439252336,4,2,77,7,0,0
3682,-93.4579439252336,4,2,77,77,0,0
3750,-93.4579439252336,4,2,77,7,0,0
3818,-93.4579439252336,4,2,77,77,0,0
3887,-93.4579439252336,4,2,77,7,0,0
3955,-93.4579439252336,4,2,77,77,0,0
4160,-93.4579439252336,4,2,77,7,0,0
4228,-93.4579439252336,4,2,77,77,0,0
4296,-93.4579439252336,4,2,77,7,0,0
4364,-93.4579439252336,4,2,77,77,0,0
4432,-93.4579439252336,4,2,77,7,0,0
4500,-93.4579439252336,4,2,77,77,0,0
4569,-93.4579439252336,4,2,77,7,0,0
4637,-93.4579439252336,4,2,77,77,0,0
4705,-93.4579439252336,4,2,77,7,0,0
4773,-93.4579439252336,4,2,77,77,0,0
4978,-93.4579439252336,4,2,77,7,0,0
5046,-93.4579439252336,4,2,77,77,0,0
5114,-93.4579439252336,4,2,77,7,0,0
5182,-93.4579439252336,4,2,77,77,0,0
5250,-93.4579439252336,4,2,77,7,0,0
5318,-93.4579439252336,4,2,77,77,0,0
5387,-93.4579439252336,4,2,77,7,0,0
5455,-93.4579439252336,4,2,77,77,0,0
5796,-93.4579439252336,4,2,77,7,0,0
5864,-93.4579439252336,4,2,77,77,0,0
5932,-93.4579439252336,4,2,77,7,0,0
6000,-93.4579439252336,4,2,77,77,0,0
6069,-93.4579439252336,4,2,77,7,0,0
6137,-93.4579439252336,4,2,77,77,0,0
6341,-93.4579439252336,4,2,77,7,0,0
6409,-93.4579439252336,4,2,77,77,0,0
6478,-93.4579439252336,4,2,77,7,0,0
6546,-93.4579439252336,4,2,77,77,0,0
7160,-93.4579439252336,4,2,77,7,0,0
7228,-93.4579439252336,4,2,77,77,0,0
7296,-93.4579439252336,4,2,77,7,0,0
7364,-93.4579439252336,4,2,77,77,0,0
7432,-93.4579439252336,4,2,77,7,0,0
7500,-93.4579439252336,4,2,77,77,0,0
7569,-93.4579439252336,4,2,77,7,0,0
7637,-93.4579439252336,4,2,77,77,0,0
7978,-93.4579439252336,4,2,77,7,0,0
8046,-93.4579439252336,4,2,77,77,0,0
8114,-93.4579439252336,4,2,77,7,0,0
8182,-93.4579439252336,4,2,77,77,0,0
8250,-93.4579439252336,4,2,77,7,0,0
8318,-93.4579439252336,4,2,77,77,0,0
8523,-93.4579439252336,4,2,77,7,0,0
8591,-93.4579439252336,4,2,77,77,0,0
8660,-93.4579439252336,4,2,77,7,0,0
8728,-93.4579439252336,4,2,77,77,0,0
8796,-93.4579439252336,4,2,77,7,0,0
8864,-93.4579439252336,4,2,77,77,0,0
8932,-93.4579439252336,4,2,77,7,0,0
9000,-93.4579439252336,4,2,77,77,0,0
9069,-93.4579439252336,4,2,77,7,0,0
9137,-93.4579439252336,4,2,77,77,0,0
9341,-93.4579439252336,4,2,77,7,0,0
9409,-93.4579439252336,4,2,77,77,0,0
9478,-93.4579439252336,4,2,77,7,0,0
9546,-93.4579439252336,4,2,77,77,0,0
9614,-93.4579439252336,4,2,77,7,0,0
9682,-93.4579439252336,4,2,77,77,0,0
9750,-93.4579439252336,4,2,77,7,0,0
9818,-93.4579439252336,4,2,77,77,0,0
10160,-93.4579439252336,4,2,77,7,0,0
10228,-93.4579439252336,4,2,77,77,0,0
10296,-93.4579439252336,4,2,77,7,0,0
10364,-93.4579439252336,4,2,77,77,0,0
10432,-93.4579439252336,4,2,77,7,0,0
10500,-93.4579439252336,4,2,77,77,0,0
10705,-93.4579439252336,4,2,77,7,0,0
10773,-93.4579439252336,4,2,77,77,0,0
11523,-93.4579439252336,4,2,77,7,0,0
11591,-93.4579439252336,4,2,77,77,0,0
11660,-93.4579439252336,4,2,77,7,0,0
11728,-93.4579439252336,4,2,77,77,0,0
11796,-93.4579439252336,4,2,77,7,0,0
11864,-93.4579439252336,4,2,77,77,0,0
11932,-93.4579439252336,4,2,77,7,0,0
12000,-93.4579439252336,4,2,77,77,0,0
12205,-93.4579439252336,4,2,77,7,0,0
12273,-93.4579439252336,4,2,77,77,0,0
12341,-93.4579439252336,4,2,77,7,0,0
12409,-93.4579439252336,4,2,77,77,0,0
12478,-93.4579439252336,4,2,77,7,0,0
12546,-93.4579439252336,4,2,77,77,0,0
12614,-93.4579439252336,4,2,77,7,0,0
12682,-93.4579439252336,4,2,77,77,0,0
12887,-93.4579439252336,4,2,77,7,0,0
12955,-93.4579439252336,4,2,77,77,0,0
13023,-93.4579439252336,4,2,77,7,0,0
13091,-93.4579439252336,4,2,77,77,0,0
13160,-93.4579439252336,4,2,77,7,0,0
13228,-93.4579439252336,4,2,77,77,0,0
13296,-93.4579439252336,4,2,77,7,0,0
13364,-93.4579439252336,4,2,77,77,0,0
13432,-93.4579439252336,4,2,77,7,0,0
13500,-93.4579439252336,4,2,77,77,0,0
13705,-93.4579439252336,4,2,77,7,0,0
13773,-93.4579439252336,4,2,77,77,0,0
13841,-93.4579439252336,4,2,77,7,0,0
13909,-93.4579439252336,4,2,77,77,0,0
13978,-93.4579439252336,4,2,77,7,0,0
14046,-93.4579439252336,4,2,77,77,0,0
14114,-93.4579439252336,4,2,77,7,0,0
14182,-93.4579439252336,4,2,77,77,0,0
14523,-93.4579439252336,4,2,77,7,0,0
14591,-93.4579439252336,4,2,77,77,0,0
14660,-93.4579439252336,4,2,77,7,0,0
14728,-93.4579439252336,4,2,77,77,0,0
14796,-93.4579439252336,4,2,77,7,0,0
14864,-93.4579439252336,4,2,77,77,0,0
15069,-93.4579439252336,4,2,77,7,0,0
15137,-93.4579439252336,4,2,77,77,0,0
15205,-93.4579439252336,4,2,77,7,0,0
15273,-93.4579439252336,4,2,77,77,0,0
15887,-93.4579439252336,4,2,77,7,0,0
15955,-93.4579439252336,4,2,77,77,0,0
16023,-93.4579439252336,4,2,77,7,0,0
16091,-93.4579439252336,4,2,77,77,0,0
16160,-93.4579439252336,4,2,77,7,0,0
16228,-93.4579439252336,4,2,77,77,0,0
16296,-93.4579439252336,4,2,77,7,0,0
16364,-93.4579439252336,4,2,77,77,0,0
16569,-93.4579439252336,4,2,77,7,0,0
16637,-93.4579439252336,4,2,77,77,0,0
16705,-93.4579439252336,4,2,77,7,0,0
16773,-93.4579439252336,4,2,77,77,0,0
16910,-175.438596491228,4,2,77,57,0,0
17864,-129.87012987013,4,2,77,57,0,0
26830,-129.87012987013,4,2,77,7,0,0
26864,-129.87012987013,4,2,77,57,0,0
27103,-129.87012987013,4,2,77,7,0,0
27137,-129.87012987013,4,2,77,57,0,0
31432,-129.87012987013,4,2,77,7,0,0
31500,-129.87012987013,4,2,77,57,0,0
32523,-129.87012987013,4,2,77,7,0,0
32591,-129.87012987013,4,2,77,57,0,0
33341,-129.87012987013,4,2,77,7,0,0
33409,-129.87012987013,4,2,77,57,0,0
35319,-129.87012987013,4,2,77,47,0,0
36137,-175.438596491228,4,2,77,47,0,0
41455,-212.765957446809,4,2,77,47,0,0
41796,-212.765957446809,4,2,77,7,0,0
41864,-212.765957446809,4,2,77,47,0,0
42955,-370.370370370372,4,2,77,47,0,0
43705,-212.765957446809,4,2,77,7,0,0
43773,-212.765957446809,4,2,77,47,0,0
44046,-93.4579439252336,4,2,77,77,0,0
44250,-93.4579439252336,4,2,77,7,0,0
44318,-93.4579439252336,4,2,77,77,0,0
45069,-93.4579439252336,4,2,77,7,0,0
45137,-93.4579439252336,4,2,77,77,0,0
46432,-93.4579439252336,4,2,77,7,0,0
46500,-93.4579439252336,4,2,77,77,0,0
47250,-93.4579439252336,4,2,77,7,0,0
47318,-93.4579439252336,4,2,77,77,0,0
48614,-93.4579439252336,4,2,77,7,0,0
48682,-93.4579439252336,4,2,77,77,0,0
49432,-93.4579439252336,4,2,77,7,0,0
49500,-93.4579439252336,4,2,77,77,0,0
50796,-93.4579439252336,4,2,77,7,0,0
50864,-93.4579439252336,4,2,77,77,0,0
51887,-93.4579439252336,4,2,77,7,0,0
51955,-93.4579439252336,4,2,77,77,0,0
52978,-93.4579439252336,4,2,77,7,0,0
53046,-93.4579439252336,4,2,77,77,0,0
53796,-93.4579439252336,4,2,77,7,0,0
53864,-93.4579439252336,4,2,77,77,0,0
55160,-93.4579439252336,4,2,77,7,0,0
55228,-93.4579439252336,4,2,77,77,0,0
55978,-93.4579439252336,4,2,77,7,0,0
56046,-93.4579439252336,4,2,77,77,0,0
57341,-93.4579439252336,4,2,77,7,0,0
57409,-93.4579439252336,4,2,77,77,0,0
58160,-93.4579439252336,4,2,77,7,0,0
58228,-93.4579439252336,4,2,77,77,0,0
59523,-93.4579439252336,4,2,77,7,0,0
59591,-93.4579439252336,4,2,77,77,0,0
60614,-93.4579439252336,4,2,77,7,0,0
60682,-93.4579439252336,4,2,77,77,0,0
61705,-93.4579439252336,4,2,77,7,0,0
61773,-93.4579439252336,4,2,77,77,0,0
61841,-93.4579439252336,4,2,77,7,0,0
61909,-93.4579439252336,4,2,77,77,0,0
61978,-93.4579439252336,4,2,77,7,0,0
62046,-93.4579439252336,4,2,77,77,0,0
62114,-93.4579439252336,4,2,77,7,0,0
62182,-93.4579439252336,4,2,77,77,0,0
62523,-93.4579439252336,4,2,77,7,0,0
62591,-93.4579439252336,4,2,77,77,0,0
62660,-93.4579439252336,4,2,77,7,0,0
62728,-93.4579439252336,4,2,77,77,0,0
62796,-93.4579439252336,4,2,77,7,0,0
62864,-93.4579439252336,4,2,77,77,0,0
63069,-93.4579439252336,4,2,77,7,0,0
63137,-93.4579439252336,4,2,77,77,0,0
63205,-93.4579439252336,4,2,77,7,0,0
63273,-93.4579439252336,4,2,77,77,0,0
63887,-93.4579439252336,4,2,77,7,0,0
63955,-93.4579439252336,4,2,77,77,0,0
64023,-93.4579439252336,4,2,77,7,0,0
64091,-93.4579439252336,4,2,77,77,0,0
64160,-93.4579439252336,4,2,77,7,0,0
64228,-93.4579439252336,4,2,77,77,0,0
64296,-93.4579439252336,4,2,77,7,0,0
64364,-93.4579439252336,4,2,77,77,0,0
64705,-93.4579439252336,4,2,77,7,0,0
64773,-93.4579439252336,4,2,77,77,0,0
64841,-93.4579439252336,4,2,77,7,0,0
64909,-93.4579439252336,4,2,77,77,0,0
64978,-93.4579439252336,4,2,77,7,0,0
65046,-93.4579439252336,4,2,77,77,0,0
65250,-93.4579439252336,4,2,77,7,0,0
65318,-93.4579439252336,4,2,77,77,0,0
65387,-93.4579439252336,4,2,77,7,0,0
65455,-93.4579439252336,4,2,77,77,0,0
65523,-93.4579439252336,4,2,77,7,0,0
65591,-93.4579439252336,4,2,77,77,0,0
65660,-93.4579439252336,4,2,77,7,0,0
65728,-93.4579439252336,4,2,77,77,0,0
65796,-93.4579439252336,4,2,77,7,0,0
65864,-93.4579439252336,4,2,77,77,0,0
66069,-93.4579439252336,4,2,77,7,0,0
66137,-93.4579439252336,4,2,77,77,0,0
66205,-93.4579439252336,4,2,77,7,0,0
66273,-93.4579439252336,4,2,77,77,0,0
66341,-93.4579439252336,4,2,77,7,0,0
66409,-93.4579439252336,4,2,77,77,0,0
66478,-93.4579439252336,4,2,77,7,0,0
66546,-93.4579439252336,4,2,77,77,0,0
66887,-93.4579439252336,4,2,77,7,0,0
66955,-93.4579439252336,4,2,77,77,0,0
67023,-93.4579439252336,4,2,77,7,0,0
67091,-93.4579439252336,4,2,77,77,0,0
67160,-93.4579439252336,4,2,77,7,0,0
67228,-93.4579439252336,4,2,77,77,0,0
67432,-93.4579439252336,4,2,77,7,0,0
67500,-93.4579439252336,4,2,77,77,0,0
67569,-93.4579439252336,4,2,77,7,0,0
67637,-93.4579439252336,4,2,77,77,0,0
68250,-93.4579439252336,4,2,77,7,0,0
68318,-93.4579439252336,4,2,77,77,0,0
68387,-93.4579439252336,4,2,77,7,0,0
68455,-93.4579439252336,4,2,77,77,0,0
68523,-93.4579439252336,4,2,77,7,0,0
68591,-93.4579439252336,4,2,77,77,0,0
68660,-93.4579439252336,4,2,77,7,0,0
68728,-93.4579439252336,4,2,77,77,0,0
69069,-93.4579439252336,4,2,77,7,0,0
69137,-93.4579439252336,4,2,77,77,0,0
69205,-93.4579439252336,4,2,77,7,0,0
69273,-93.4579439252336,4,2,77,77,0,0
69341,-93.4579439252336,4,2,77,7,0,0
69409,-93.4579439252336,4,2,77,77,0,0
69614,-93.4579439252336,4,2,77,7,0,0
69682,-93.4579439252336,4,2,77,77,0,0
69750,-93.4579439252336,4,2,77,7,0,0
69818,-93.4579439252336,4,2,77,77,0,0
69887,-93.4579439252336,4,2,77,7,0,0
69955,-93.4579439252336,4,2,77,77,0,0
70023,-93.4579439252336,4,2,77,7,0,0
70091,-93.4579439252336,4,2,77,77,0,0
70160,-93.4579439252336,4,2,77,7,0,0
70228,-93.4579439252336,4,2,77,77,0,0
70432,-93.4579439252336,4,2,77,7,0,0
70500,-93.4579439252336,4,2,77,77,0,0
70569,-93.4579439252336,4,2,77,7,0,0
70637,-93.4579439252336,4,2,77,77,0,0
70705,-93.4579439252336,4,2,77,7,0,0
70773,-93.4579439252336,4,2,77,77,0,0
70841,-93.4579439252336,4,2,77,7,0,0
70909,-93.4579439252336,4,2,77,77,0,0
71250,-93.4579439252336,4,2,77,7,0,0
71318,-93.4579439252336,4,2,77,77,0,0
71387,-93.4579439252336,4,2,77,7,0,0
71455,-93.4579439252336,4,2,77,77,0,0
71523,-93.4579439252336,4,2,77,7,0,0
71591,-93.4579439252336,4,2,77,77,0,0
71796,-93.4579439252336,4,2,77,7,0,0
71864,-93.4579439252336,4,2,77,77,0,0
72614,-93.4579439252336,4,2,77,7,0,0
72682,-93.4579439252336,4,2,77,77,0,0
72750,-93.4579439252336,4,2,77,7,0,0
72818,-93.4579439252336,4,2,77,77,0,0
72887,-93.4579439252336,4,2,77,7,0,0
72955,-93.4579439252336,4,2,77,77,0,0
73023,-93.4579439252336,4,2,77,7,0,0
73091,-93.4579439252336,4,2,77,77,0,0
73296,-93.4579439252336,4,2,77,7,0,0
73364,-93.4579439252336,4,2,77,77,0,0
73432,-93.4579439252336,4,2,77,7,0,0
73500,-93.4579439252336,4,2,77,77,0,0
73569,-93.4579439252336,4,2,77,7,0,0
73637,-93.4579439252336,4,2,77,77,0,0
73978,-93.4579439252336,4,2,77,7,0,0
74046,-93.4579439252336,4,2,77,77,0,0
74114,-93.4579439252336,4,2,77,7,0,0
74182,-93.4579439252336,4,2,77,77,0,0
74250,-93.4579439252336,4,2,77,7,0,0
74318,-93.4579439252336,4,2,77,77,0,0
74387,-93.4579439252336,4,2,77,7,0,0
74455,-93.4579439252336,4,2,77,77,0,0
74523,-93.4579439252336,4,2,77,7,0,0
74591,-93.4579439252336,4,2,77,77,0,0
74796,-93.4579439252336,4,2,77,7,0,0
74864,-93.4579439252336,4,2,77,77,0,0
74932,-93.4579439252336,4,2,77,7,0,0
75000,-93.4579439252336,4,2,77,77,0,0
75069,-93.4579439252336,4,2,77,7,0,0
75137,-93.4579439252336,4,2,77,77,0,0
75205,-93.4579439252336,4,2,77,7,0,0
75273,-93.4579439252336,4,2,77,77,0,0
75614,-93.4579439252336,4,2,77,7,0,0
75682,-93.4579439252336,4,2,77,77,0,0
75750,-93.4579439252336,4,2,77,7,0,0
75818,-93.4579439252336,4,2,77,77,0,0
75887,-93.4579439252336,4,2,77,7,0,0
75955,-93.4579439252336,4,2,77,77,0,0
76160,-93.4579439252336,4,2,77,7,0,0
76228,-93.4579439252336,4,2,77,77,0,0
76296,-93.4579439252336,4,2,77,7,0,0
76364,-93.4579439252336,4,2,77,77,0,0
76978,-93.4579439252336,4,2,77,7,0,0
77046,-93.4579439252336,4,2,77,77,0,0
77114,-93.4579439252336,4,2,77,7,0,0
77182,-93.4579439252336,4,2,77,77,0,0
77250,-93.4579439252336,4,2,77,7,0,0
77318,-93.4579439252336,4,2,77,77,0,0
77387,-93.4579439252336,4,2,77,7,0,0
77455,-93.4579439252336,4,2,77,77,0,0
77660,-93.4579439252336,4,2,77,7,0,0
77728,-93.4579439252336,4,2,77,77,0,0
77796,-93.4579439252336,4,2,77,7,0,0
77864,-93.4579439252336,4,2,77,77,0,0
78000,-175.438596491228,4,2,77,57,0,0
78955,-129.87012987013,4,2,77,57,0,0
80046,-149.253731343284,4,2,77,57,0,0
87682,-129.87012987013,4,2,77,57,0,0
88841,-129.87012987013,4,2,77,7,0,0
88910,-129.87012987013,4,2,77,57,0,0
95523,-129.87012987013,4,2,77,7,0,0
95592,-129.87012987013,4,2,77,57,0,0
96410,-129.87012987013,4,2,77,47,0,0
96955,-212.765957446809,4,2,77,47,0,0
97160,-212.765957446809,4,2,77,7,0,0
97228,-212.765957446809,4,2,77,47,0,0
97705,-212.765957446809,4,2,77,7,0,0
97773,-212.765957446809,4,2,77,47,0,0
98250,-212.765957446809,4,2,77,7,0,0
98318,-212.765957446809,4,2,77,47,0,0
98796,-212.765957446809,4,2,77,7,0,0
98864,-212.765957446809,4,2,77,47,0,0
99341,-212.765957446809,4,2,77,7,0,0
99409,-212.765957446809,4,2,77,47,0,0
99887,-212.765957446809,4,2,77,7,0,0
99955,-212.765957446809,4,2,77,47,0,0
100432,-212.765957446809,4,2,77,7,0,0
100500,-212.765957446809,4,2,77,47,0,0
102955,-588.235294117647,4,2,77,47,0,0
104796,-212.765957446809,4,2,77,7,0,0
104864,-212.765957446809,4,2,77,47,0,0
105137,-93.4579439252336,4,2,77,77,0,0
105341,-93.4579439252336,4,2,77,7,0,0
105409,-93.4579439252336,4,2,77,77,0,0
106160,-93.4579439252336,4,2,77,7,0,0
106228,-93.4579439252336,4,2,77,77,0,0
107523,-93.4579439252336,4,2,77,7,0,0
107591,-93.4579439252336,4,2,77,77,0,0
108341,-93.4579439252336,4,2,77,7,0,0
108409,-93.4579439252336,4,2,77,77,0,0
109705,-93.4579439252336,4,2,77,7,0,0
109773,-93.4579439252336,4,2,77,77,0,0
110523,-93.4579439252336,4,2,77,7,0,0
110591,-93.4579439252336,4,2,77,77,0,0
111887,-93.4579439252336,4,2,77,7,0,0
111955,-93.4579439252336,4,2,77,77,0,0
112978,-93.4579439252336,4,2,77,7,0,0
113046,-93.4579439252336,4,2,77,77,0,0
114069,-93.4579439252336,4,2,77,7,0,0
114137,-93.4579439252336,4,2,77,77,0,0
114887,-93.4579439252336,4,2,77,7,0,0
114955,-93.4579439252336,4,2,77,77,0,0
116250,-93.4579439252336,4,2,77,7,0,0
116318,-93.4579439252336,4,2,77,77,0,0
117069,-93.4579439252336,4,2,77,7,0,0
117137,-93.4579439252336,4,2,77,77,0,0
118432,-93.4579439252336,4,2,77,7,0,0
118500,-93.4579439252336,4,2,77,77,0,0
119250,-93.4579439252336,4,2,77,7,0,0
119318,-93.4579439252336,4,2,77,77,0,0
120614,-93.4579439252336,4,2,77,7,0,0
120682,-93.4579439252336,4,2,77,77,0,0
121705,-93.4579439252336,4,2,77,7,0,0
121773,-93.4579439252336,4,2,77,77,0,0
122796,-93.4579439252336,4,2,77,7,0,0
122864,-93.4579439252336,4,2,77,77,0,0
122932,-93.4579439252336,4,2,77,7,0,0
123000,-93.4579439252336,4,2,77,77,0,0
123069,-93.4579439252336,4,2,77,7,0,0
123137,-93.4579439252336,4,2,77,77,0,0
123205,-93.4579439252336,4,2,77,7,0,0
123273,-93.4579439252336,4,2,77,77,0,0
123614,-93.4579439252336,4,2,77,7,0,0
123682,-93.4579439252336,4,2,77,77,0,0
123750,-93.4579439252336,4,2,77,7,0,0
123818,-93.4579439252336,4,2,77,77,0,0
123887,-93.4579439252336,4,2,77,7,0,0
123955,-93.4579439252336,4,2,77,77,0,0
124160,-93.4579439252336,4,2,77,7,0,0
124228,-93.4579439252336,4,2,77,77,0,0
124296,-93.4579439252336,4,2,77,7,0,0
124364,-93.4579439252336,4,2,77,77,0,0
124978,-93.4579439252336,4,2,77,7,0,0
125046,-93.4579439252336,4,2,77,77,0,0
125114,-93.4579439252336,4,2,77,7,0,0
125182,-93.4579439252336,4,2,77,77,0,0
125250,-93.4579439252336,4,2,77,7,0,0
125318,-93.4579439252336,4,2,77,77,0,0
125387,-93.4579439252336,4,2,77,7,0,0
125455,-93.4579439252336,4,2,77,77,0,0
125796,-93.4579439252336,4,2,77,7,0,0
125864,-93.4579439252336,4,2,77,77,0,0
125932,-93.4579439252336,4,2,77,7,0,0
126000,-93.4579439252336,4,2,77,77,0,0
126069,-93.4579439252336,4,2,77,7,0,0
126137,-93.4579439252336,4,2,77,77,0,0
126341,-93.4579439252336,4,2,77,7,0,0
126409,-93.4579439252336,4,2,77,77,0,0
126478,-93.4579439252336,4,2,77,7,0,0
126546,-93.4579439252336,4,2,77,77,0,0
126614,-93.4579439252336,4,2,77,7,0,0
126682,-93.4579439252336,4,2,77,77,0,0
126750,-93.4579439252336,4,2,77,7,0,0
126818,-93.4579439252336,4,2,77,77,0,0
126887,-93.4579439252336,4,2,77,7,0,0
126955,-93.4579439252336,4,2,77,77,0,0
127160,-93.4579439252336,4,2,77,7,0,0
127228,-93.4579439252336,4,2,77,77,0,0
127296,-93.4579439252336,4,2,77,7,0,0
127364,-93.4579439252336,4,2,77,77,0,0
127432,-93.4579439252336,4,2,77,7,0,0
127500,-93.4579439252336,4,2,77,77,0,0
127569,-93.4579439252336,4,2,77,7,0,0
127637,-93.4579439252336,4,2,77,77,0,0
127978,-93.4579439252336,4,2,77,7,0,0
128046,-93.4579439252336,4,2,77,77,0,0
128114,-93.4579439252336,4,2,77,7,0,0
128182,-93.4579439252336,4,2,77,77,0,0
128250,-93.4579439252336,4,2,77,7,0,0
128318,-93.4579439252336,4,2,77,77,0,0
128523,-93.4579439252336,4,2,77,7,0,0
128591,-93.4579439252336,4,2,77,77,0,0
128660,-93.4579439252336,4,2,77,7,0,0
128728,-93.4579439252336,4,2,77,77,0,0
129341,-93.4579439252336,4,2,77,7,0,0
129409,-93.4579439252336,4,2,77,77,0,0
129478,-93.4579439252336,4,2,77,7,0,0
129546,-93.4579439252336,4,2,77,77,0,0
129614,-93.4579439252336,4,2,77,7,0,0
129682,-93.4579439252336,4,2,77,77,0,0
129750,-93.4579439252336,4,2,77,7,0,0
129818,-93.4579439252336,4,2,77,77,0,0
130160,-93.4579439252336,4,2,77,7,0,0
130228,-93.4579439252336,4,2,77,77,0,0
130296,-93.4579439252336,4,2,77,7,0,0
130364,-93.4579439252336,4,2,77,77,0,0
130432,-93.4579439252336,4,2,77,7,0,0
130500,-93.4579439252336,4,2,77,77,0,0
130705,-93.4579439252336,4,2,77,7,0,0
130773,-93.4579439252336,4,2,77,77,0,0
130841,-93.4579439252336,4,2,77,7,0,0
130909,-93.4579439252336,4,2,77,77,0,0
130978,-93.4579439252336,4,2,77,7,0,0
131046,-93.4579439252336,4,2,77,77,0,0
131114,-93.4579439252336,4,2,77,7,0,0
131182,-93.4579439252336,4,2,77,77,0,0
131250,-93.4579439252336,4,2,77,7,0,0
131318,-93.4579439252336,4,2,77,77,0,0
131523,-93.4579439252336,4,2,77,7,0,0
131591,-93.4579439252336,4,2,77,77,0,0
131660,-93.4579439252336,4,2,77,7,0,0
131728,-93.4579439252336,4,2,77,77,0,0
131796,-93.4579439252336,4,2,77,7,0,0
131864,-93.4579439252336,4,2,77,77,0,0
131932,-93.4579439252336,4,2,77,7,0,0
132000,-93.4579439252336,4,2,77,77,0,0
132341,-93.4579439252336,4,2,77,7,0,0
132409,-93.4579439252336,4,2,77,77,0,0
132478,-93.4579439252336,4,2,77,7,0,0
132546,-93.4579439252336,4,2,77,77,0,0
132614,-93.4579439252336,4,2,77,7,0,0
132682,-93.4579439252336,4,2,77,77,0,0
132887,-93.4579439252336,4,2,77,7,0,0
132955,-93.4579439252336,4,2,77,77,0,0
133705,-93.4579439252336,4,2,77,7,0,0
133773,-93.4579439252336,4,2,77,77,0,0
133841,-93.4579439252336,4,2,77,7,0,0
133909,-93.4579439252336,4,2,77,77,0,0
133978,-93.4579439252336,4,2,77,7,0,0
134046,-93.4579439252336,4,2,77,77,0,0
134114,-93.4579439252336,4,2,77,7,0,0
134182,-93.4579439252336,4,2,77,77,0,0
134387,-93.4579439252336,4,2,77,7,0,0
134455,-93.4579439252336,4,2,77,77,0,0
134523,-93.4579439252336,4,2,77,7,0,0
134591,-93.4579439252336,4,2,77,77,0,0
134660,-93.4579439252336,4,2,77,7,0,0
134728,-93.4579439252336,4,2,77,77,0,0
134796,-93.4579439252336,4,2,77,7,0,0
134864,-93.4579439252336,4,2,77,77,0,0
135069,-93.4579439252336,4,2,77,7,0,0
135137,-93.4579439252336,4,2,77,77,0,0
135205,-93.4579439252336,4,2,77,7,0,0
135273,-93.4579439252336,4,2,77,77,0,0
135341,-93.4579439252336,4,2,77,7,0,0
135409,-93.4579439252336,4,2,77,77,0,0
135478,-93.4579439252336,4,2,77,7,0,0
135546,-93.4579439252336,4,2,77,77,0,0
135614,-93.4579439252336,4,2,77,7,0,0
135682,-93.4579439252336,4,2,77,77,0,0
135887,-93.4579439252336,4,2,77,7,0,0
135955,-93.4579439252336,4,2,77,77,0,0
136023,-93.4579439252336,4,2,77,7,0,0
136091,-93.4579439252336,4,2,77,77,0,0
136160,-93.4579439252336,4,2,77,7,0,0
136228,-93.4579439252336,4,2,77,77,0,0
136296,-93.4579439252336,4,2,77,7,0,0
136364,-93.4579439252336,4,2,77,77,0,0
136705,-93.4579439252336,4,2,77,7,0,0
136773,-93.4579439252336,4,2,77,77,0,0
136841,-93.4579439252336,4,2,77,7,0,0
136909,-93.4579439252336,4,2,77,77,0,0
136978,-93.4579439252336,4,2,77,7,0,0
137046,-93.4579439252336,4,2,77,77,0,0
137250,-93.4579439252336,4,2,77,7,0,0
137318,-93.4579439252336,4,2,77,77,0,0
137387,-93.4579439252336,4,2,77,7,0,0
137455,-93.4579439252336,4,2,77,77,0,0
138069,-93.4579439252336,4,2,77,7,0,0
138137,-93.4579439252336,4,2,77,77,0,0
138205,-93.4579439252336,4,2,77,7,0,0
138273,-93.4579439252336,4,2,77,77,0,0
138341,-93.4579439252336,4,2,77,7,0,0
138409,-93.4579439252336,4,2,77,77,0,0
138478,-93.4579439252336,4,2,77,7,0,0
138546,-93.4579439252336,4,2,77,77,0,0
138750,-93.4579439252336,4,2,77,7,0,0
138818,-93.4579439252336,4,2,77,77,0,0
139091,-175.438596491228,4,2,77,57,0,0
140046,-175.438596491228,4,2,77,47,0,0
140591,-212.765957446809,4,2,77,47,0,0
143250,-212.765957446809,4,2,77,7,0,0
143319,-212.765957446809,4,2,77,47,0,0
147614,-212.765957446809,4,2,77,7,0,0
147683,-212.765957446809,4,2,77,47,0,0
151978,-212.765957446809,4,2,77,7,0,0
152047,-212.765957446809,4,2,77,47,0,0
157228,-370.370370370372,4,2,77,47,0,0
157432,-212.765957446809,4,2,77,7,0,0
157500,-212.765957446809,4,2,7,77,0,0
159614,-212.765957446809,4,2,77,7,0,0
159682,-212.765957446809,4,2,77,57,0,0
161319,-588.23529411765,4,2,77,47,0,0
161796,-212.765957446809,4,2,77,7,0,0
161864,-85.4700854700855,4,2,77,87,0,0
196773,-85.4700854700855,4,2,77,27,0,0

[Colours]
Combo1 : 106,106,106
Combo2 : 255,193,64

[HitObjects]
0,38,410,6,0,B|111:10|55:121|167:93,1,193.803744085579,4|0,1:0|0:0,0:0:0:0:
166,80,682,2,0,P|136:87|105:77,1,55.3724983101655,10|0,0:0|0:0,0:0:0:0:
272,163,819,2,0,P|255:188|226:203,1,55.3724983101655,2|0,0:0|0:0,0:0:0:0:
394,140,955,2,0,P|399:170|379:224,1,83.0587474652482,2|0,0:0|0:0,0:0:0:0:
369,223,1091,1,0,1:0:0:0:
305,21,1228,5,10,0:0:0:0:
371,60,1364,2,0,P|401:54|434:49,1,55.3724983101655,2|0,0:0|0:0,0:0:0:0:
505,266,1500,5,0,1:0:0:0:
384,296,1637,2,0,L|444:304,1,55.3724983101655,2|0,0:0|0:0,0:0:0:0:
304,356,1773,1,8,0:0:0:0:
233,307,1910,2,0,P|229:273|223:239,1,55.3724983101655,2|0,1:0|0:0,0:0:0:0:
115,146,2046,2,0,P|146:159|178:171,1,55.3724983101655,2|0,0:0|0:0,0:0:0:0:
288,79,2182,1,0,1:0:0:0:
283,100,2250,1,0,0:0:0:0:
280,122,2319,1,10,0:0:0:0:
331,190,2455,1,0,0:0:0:0:
207,27,2591,6,0,B|178:15|159:-13|159:-13|104:27|24:40,1,193.803744085579,0|0,1:0|0:0,0:0:0:0:
23,35,2864,2,0,P|24:53|30:30,1,55.3724983101654,10|0,0:0|0:0,0:0:0:0:
137,177,3000,2,0,P|115:187|115:163,1,55.3724983101654,2|0,0:0|0:0,0:0:0:0:
0,292,3137,2,0,P|31:307|31:270,1,83.0587474652482,2|0,0:0|0:0,0:0:0:0:
25,265,3273,1,0,1:0:0:0:
228,359,3410,5,10,0:0:0:0:
287,307,3546,2,0,P|292:277|301:243,1,55.3724983101654,2|0,0:0|0:0,0:0:0:0:
457,146,3682,5,0,1:0:0:0:
383,172,3819,2,0,P|361:155|328:151,1,55.3724983101654,2|0,0:0|0:0,0:0:0:0:
154,211,3955,5,8,0:0:0:0:
134,134,4091,2,0,P|156:117|189:113,1,55.3724983101654,2|0,1:0|0:0,0:0:0:0:
220,21,4228,2,0,P|246:29|268:54,1,55.3724983101654,2|0,0:0|0:0,0:0:0:0:
361,26,4364,2,0,P|369:52|361:84,1,55.3724983101654,2|0,1:0|0:0,0:0:0:0:
437,144,4500,2,0,P|420:166|389:178,1,55.3724983101654,10|0,0:0|0:0,0:0:0:0:
383,273,4637,2,0,P|355:271|327:253,1,55.3724983101654,2|0,0:0|0:0,0:0:0:0:
255,124,4773,6,0,B|264:151|286:174|286:174|230:200|214:296,1,193.803744085579,0|0,1:0|0:0,0:0:0:0:
224,289,5046,2,0,P|231:255|244:229,1,55.3724983101654,10|0,0:0|0:0,0:0:0:0:
127,353,5182,2,0,P|109:323|100:295,1,55.3724983101654,2|0,0:0|0:0,0:0:0:0:
321,373,5319,2,0,P|329:325|346:288,1,83.0587474652482,2|0,0:0|0:0,0:0:0:0:
357,290,5455,1,0,1:0:0:0:
181,142,5591,5,8,0:0:0:0:
188,215,5728,2,0,P|214:223|239:235,1,55.3724983101654,2|0,0:0|0:0,0:0:0:0:
146,77,5864,5,0,1:0:0:0:
69,76,6000,2,0,P|94:72|128:63,1,55.3724983101654,2|0,0:0|0:0,0:0:0:0:
264,8,6137,1,8,0:0:0:0:
346,216,6273,2,0,P|357:193|369:160,1,55.3724983101654,2|0,1:0|0:0,0:0:0:0:
239,88,6410,2,0,P|250:111|262:144,1,55.3724983101654,2|0,0:0|0:0,0:0:0:0:
187,296,6546,1,0,1:0:0:0:
166,299,6614,1,0,0:0:0:0:
145,302,6682,1,10,0:0:0:0:
93,243,6819,1,0,0:0:0:0:
282,363,6955,6,0,B|393:391|337:280|449:308,1,193.803744085579,0|0,1:0|0:0,0:0:0:0:
452,298,7228,2,0,P|423:291|378:301,1,55.3724983101654,10|0,0:0|0:0,0:0:0:0:
313,206,7364,2,0,P|290:225|273:268,1,55.3724983101654,2|0,0:0|0:0,0:0:0:0:
166,276,7500,2,0,P|169:308|196:351,1,83.0587474652482,2|0,0:0|0:0,0:0:0:0:
211,351,7637,1,0,1:0:0:0:
220,184,7773,5,10,0:0:0:0:
151,186,7910,2,0,P|178:169|217:172,1,55.3724983101654,2|0,0:0|0:0,0:0:0:0:
23,269,8046,5,0,1:0:0:0:
56,199,8182,2,0,P|49:171|45:133,1,55.3724983101654,2|0,0:0|0:0,0:0:0:0:
266,18,8319,5,8,0:0:0:0:
202,50,8455,2,0,P|227:37|260:30,1,55.3724983101654,2|0,1:0|0:0,0:0:0:0:
335,121,8591,2,0,P|310:108|277:101,1,55.3724983101654,2|0,0:0|0:0,0:0:0:0:
138,166,8728,2,0,P|160:147|190:132,1,55.3724983101654,2|0,1:0|0:0,0:0:0:0:
360,232,8864,2,0,P|339:213|309:198,1,55.3724983101654,10|0,0:0|0:0,0:0:0:0:
146,274,9000,2,0,P|162:250|188:229,1,55.3724983101654,2|0,0:0|0:0,0:0:0:0:
338,363,9137,6,0,P|414:363|439:250,1,193.803744085579,4|0,1:0|0:0,0:0:0:0:
438,259,9410,2,0,P|408:264|375:274,1,55.3724983101654,10|0,0:0|0:0,0:0:0:0:
451,80,9546,2,0,P|471:102|495:127,1,55.3724983101654,2|0,0:0|0:0,0:0:0:0:
286,176,9682,2,0,P|295:147|304:113,1,55.3724983101654,2|0,0:0|0:0,0:0:0:0:
172,20,9819,1,0,1:0:0:0:
82,231,9955,5,8,0:0:0:0:
141,176,10091,2,0,P|171:173|200:191,1,55.3724983101654,2|0,0:0|0:0,0:0:0:0:
265,366,10228,5,0,1:0:0:0:
302,290,10364,2,0,P|295:320|289:352,1,55.3724983101654,2|0,0:0|0:0,0:0:0:0:
157,251,10500,1,8,0:0:0:0:
361,149,10637,2,0,P|367:179|373:211,1,55.3724983101654,2|0,1:0|0:0,0:0:0:0:
214,89,10773,5,2,0:0:0:0:
389,31,10910,1,0,1:0:0:0:
188,165,11046,1,10,0:0:0:0:
188,165,11319,6,0,B|94:205|62:106|62:106|89:121|89:147,1,193.803744085579,0|0,1:0|0:0,0:0:0:0:
96,124,11591,2,0,P|76:99|47:91,1,55.3724983101654,10|0,0:0|0:0,0:0:0:0:
124,279,11728,2,0,P|155:274|177:253,1,55.3724983101654,2|0,0:0|0:0,0:0:0:0:
231,102,11864,2,0,P|262:106|284:127,1,55.3724983101654,2|0,0:0|0:0,0:0:0:0:
392,261,12000,1,0,1:0:0:0:
414,256,12069,1,0,0:0:0:0:
435,251,12137,2,0,L|373:242,1,55.3724983101654,10|0,0:0|0:0,0:0:0:0:
273,373,12273,2,0,L|335:364,1,55.3724983101654,2|0,0:0|0:0,0:0:0:0:
162,239,12410,5,0,1:0:0:0:
199,312,12546,2,0,P|207:279|194:248,1,55.3724983101654,2|0,0:0|0:0,0:0:0:0:
14,205,12682,5,8,0:0:0:0:
45,133,12819,2,0,P|72:126|115:137,1,55.3724983101654,2|0,1:0|0:0,0:0:0:0:
164,76,12955,2,0,P|188:90|211:127,1,55.3724983101654,2|0,0:0|0:0,0:0:0:0:
289,117,13091,2,0,P|296:144|287:187,1,55.3724983101654,2|0,1:0|0:0,0:0:0:0:
350,233,13228,2,0,P|335:257|299:282,1,55.3724983101654,10|0,0:0|0:0,0:0:0:0:
313,358,13364,2,0,P|285:366|242:358,1,55.3724983101654,2|0,0:0|0:0,0:0:0:0:
444,314,13500,6,0,P|464:258|473:111,1,193.803744085579,0|0,1:0|0:0,0:0:0:0:
461,117,13773,2,0,P|446:136|402:146,1,55.3724983101654,10|0,0:0|0:0,0:0:0:0:
334,230,13910,2,0,P|309:228|276:198,1,55.3724983101654,2|0,0:0|0:0,0:0:0:0:
169,185,14046,2,0,P|156:164|161:119,1,55.3724983101654,2|0,0:0|0:0,0:0:0:0:
249,42,14182,1,0,1:0:0:0:
80,212,14319,5,8,0:0:0:0:
18,178,14455,2,0,P|14:150|10:123,1,55.3724983101654,2|0,0:0|0:0,0:0:0:0:
92,311,14591,5,0,1:0:0:0:
164,281,14728,2,0,P|192:286|224:298,1,55.3724983101654,2|0,0:0|0:0,0:0:0:0:
319,183,14864,1,8,0:0:0:0:
471,362,15000,2,0,P|443:367|411:379,1,55.3724983101654,2|0,1:0|0:0,0:0:0:0:
272,241,15137,2,0,P|290:262|316:284,1,55.3724983101654,2|0,0:0|0:0,0:0:0:0:
481,144,15273,1,0,1:0:0:0:
463,165,15341,1,0,0:0:0:0:
439,180,15410,1,10,0:0:0:0:
360,156,15546,1,0,0:0:0:0:
226,9,15682,6,0,B|252:46|252:46|202:104|187:187,1,193.803744085579,0|0,1:0|0:0,0:0:0:0:
177,189,15955,2,0,P|208:195|250:207,1,55.3724983101654,10|0,0:0|0:0,0:0:0:0:
86,341,16091,2,0,P|75:310|65:268,1,55.3724983101654,2|0,0:0|0:0,0:0:0:0:
266,332,16228,2,0,P|244:356|213:386,1,55.3724983101654,2|0,0:0|0:0,0:0:0:0:
120,236,16364,1,0,1:0:0:0:
347,358,16500,6,0,P|373:346|399:314,1,55.3724983101654,10|0,0:0|0:0,0:0:0:0:
491,271,16637,2,0,P|486:243|471:220,1,55.3724983101654,2|0,0:0|0:0,0:0:0:0:
352,204,16773,5,0,3:0:0:0:
300,152,16910,2,0,P|326:128|371:130,1,58.9949992798462,2|0,0:0|3:0,0:0:0:0:
421,58,17182,2,0,P|394:34|349:36,2,58.9949992798462,2|2|2,0:0|3:0|0:0,0:0:0:0:
440,154,17591,1,10,0:3:0:0:
138,23,17864,6,0,B|44:15|94:95|1:87,2,159.389996838272,6|8|0,1:0|0:0|0:0,0:0:0:0:
234,80,18546,1,0,1:0:0:0:
119,179,18682,2,0,P|126:137|133:100,1,79.6949984191361,10|0,0:0|0:0,0:0:0:0:
271,224,18955,5,2,1:0:0:0:
196,247,19091,1,0,0:0:0:0:
311,146,19228,2,0,P|353:152|390:160,1,79.6949984191361,10|0,0:0|0:0,0:0:0:0:
462,338,19500,5,2,0:0:0:0:
398,295,19637,1,0,1:0:0:0:
510,172,19773,2,0,P|501:210|496:250,1,79.6949984191361,10|0,0:0|0:0,0:0:0:0:
347,371,20046,6,0,P|312:350|274:340,1,79.6949984191361,2|0,1:0|0:0,0:0:0:0:
142,226,20319,2,0,P|180:258|100:335,1,159.389996838272,10|0,0:0|0:0,0:0:0:0:
14,280,20728,1,0,1:0:0:0:
14,280,20796,1,0,0:0:0:0:
14,280,20864,2,0,L|-1:187,1,79.6949984191361,8|0,0:0|0:0,0:0:0:0:
143,49,21137,6,0,P|106:62|59:74,1,79.6949984191361,0|0,1:0|0:0,0:0:0:0:
207,210,21410,2,0,P|170:197|123:185,1,79.6949984191361,8|0,0:0|0:0,0:0:0:0:
299,91,21682,5,0,0:0:0:0:
357,267,21819,1,0,1:0:0:0:
357,267,21887,1,0,0:0:0:0:
357,267,21955,1,10,0:0:0:0:
284,217,22091,1,0,0:0:0:0:
355,22,22228,6,0,P|397:26|448:36,1,79.6949984191361,2|0,1:0|0:0,0:0:0:0:
251,147,22500,2,0,P|246:104|237:54,1,79.6949984191361,10|0,0:0|0:0,0:0:0:0:
392,128,22773,1,2,0:0:0:0:
223,269,22910,1,0,1:0:0:0:
223,269,22978,1,0,0:0:0:0:
223,269,23046,1,10,0:0:0:0:
189,188,23182,1,0,0:0:0:0:
19,245,23319,6,0,P|50:216|110:216,1,79.6949984191361,2|0,1:0|0:0,0:0:0:0:
217,353,23591,2,0,B|124:361|174:281|81:289,1,159.389996838272,10|0,0:0|0:0,0:0:0:0:
215,169,24000,1,0,1:0:0:0:
362,325,24137,1,10,0:0:0:0:
286,303,24273,1,0,0:0:0:0:
477,188,24410,6,0,P|444:208|381:229,1,79.6949984191361,2|0,1:0|0:0,0:0:0:0:
258,71,24682,2,0,P|312:104|416:138,1,159.389996838272,10|2,0:0|0:0,0:0:0:0:
229,196,25091,1,0,1:0:0:0:
229,196,25160,1,0,0:0:0:0:
229,196,25228,2,0,P|209:163|188:100,1,79.6949984191361,10|0,0:0|0:0,0:0:0:0:
0,38,25500,5,2,1:0:0:0:
111,6,25637,1,0,0:0:0:0:
179,148,25773,5,10,0:0:0:0:
102,123,25910,1,0,0:0:0:0:
32,233,26046,5,2,0:0:0:0:
109,208,26183,1,0,1:0:0:0:
265,362,26319,1,10,0:0:0:0:
265,362,26591,6,0,P|305:374|348:287,1,139.466247233488,6|0,1:0|0:0,0:0:0:0:
360,291,26864,2,0,P|329:240|380:180,1,139.466247233488,10|0,0:0|0:0,0:0:0:0:
385,187,27137,1,2,0:0:0:0:
463,224,27273,1,0,1:0:0:0:
502,37,27410,2,0,P|463:45|410:62,1,79.6949984191361,10|0,0:0|0:0,0:0:0:0:
282,187,27682,5,2,1:0:0:0:
307,110,27819,1,0,0:0:0:0:
136,16,27955,2,0,P|146:52|154:97,1,79.6949984191361,10|0,0:0|0:0,0:0:0:0:
77,259,28228,5,2,0:0:0:0:
0,234,28365,1,0,1:0:0:0:
131,366,28500,2,0,P|137:326|148:288,1,79.6949984191361,10|0,0:0|0:0,0:0:0:0:
313,225,28773,6,0,P|285:258|224:258,1,79.6949984191361,2|0,1:0|0:0,0:0:0:0:
329,121,29046,2,0,P|366:131|391:161,1,79.6949984191361,10|0,0:0|0:0,0:0:0:0:
225,196,29319,1,2,0:0:0:0:
204,122,29455,1,0,1:0:0:0:
258,294,29591,2,0,P|295:283|320:253,1,79.6949984191361,8|0,0:0|0:0,0:0:0:0:
429,96,29864,6,0,B|401:136|401:136|435:176|449:252,1,159.389996838272,2|8,1:0|0:0,0:0:0:0:
336,347,30273,5,0,0:0:0:0:
259,332,30409,1,0,0:0:0:0:
181,173,30546,1,0,1:0:0:0:
181,173,30614,1,0,0:0:0:0:
181,173,30682,1,10,0:0:0:0:
248,207,30818,1,2,0:0:0:0:
16,276,30955,6,0,P|25:236|35:184,1,79.6949984191361,2|0,1:0|0:0,0:0:0:0:
181,173,31228,2,0,P|172:134|162:47,1,119.542497628704,10|0,0:0|0:0,0:0:0:0:
223,6,31500,1,0,0:0:0:0:
88,101,31637,1,0,1:0:0:0:
88,101,31705,1,0,0:0:0:0:
88,101,31773,1,10,0:0:0:0:
149,144,31910,1,0,0:0:0:0:
324,13,32046,6,0,P|301:44|279:84,1,79.6949984191361,2|0,1:0|0:0,0:0:0:0:
447,231,32319,2,0,P|424:200|391:114,1,119.542497628704,10|0,0:0|0:0,0:0:0:0:
439,63,32591,5,2,0:0:0:0:
499,112,32728,1,0,1:0:0:0:
314,245,32864,5,10,0:0:0:0:
329,168,33000,1,0,0:0:0:0:
382,357,33137,6,0,P|333:333|254:311,1,119.542497628704,2|0,1:0|0:0,0:0:0:0:
199,343,33410,2,0,P|231:302|211:250,1,79.6949984191361,10|0,0:0|0:0,0:0:0:0:
82,174,33682,2,0,P|84:212|112:240,1,79.6949984191361,2|0,0:0|1:0,0:0:0:0:
183,206,33887,1,0,0:0:0:0:
183,206,33955,2,0,P|221:185|268:211,1,79.6949984191361,10|0,0:0|0:0,0:0:0:0:
384,324,34228,6,0,P|337:276|356:220,1,119.542497628704,2|0,1:0|0:0,0:0:0:0:
410,192,34500,1,8,0:0:0:0:
480,52,34637,1,0,3:0:0:0:
480,52,34705,1,0,3:0:0:0:
480,52,34773,2,0,P|488:91|498:142,1,79.6949984191361,0|0,0:0|1:0,0:0:0:0:
287,185,35046,5,10,0:0:0:0:
357,113,35182,1,2,0:0:0:0:
382,212,35319,1,6,0:0:0:0:
76,104,35864,5,2,3:0:0:0:
76,104,36137,6,0,L|143:89,1,58.9949992798462,2|0,0:0|0:0,0:0:0:0:
133,91,36410,1,2,3:0:0:0:
251,314,36682,6,0,L|184:299,1,58.9949992798462,2|0,0:0|0:0,0:0:0:0:
193,301,36955,1,2,3:0:0:0:
371,244,37228,5,2,0:0:0:0:
371,244,37364,1,2,0:0:0:0:
314,189,37500,1,2,3:0:0:0:
314,189,37773,6,0,L|324:118,1,58.9949992798462,2|0,0:0|0:0,0:0:0:0:
322,130,38046,1,2,3:0:0:0:
457,288,38319,6,0,L|447:217,1,58.9949992798462,2|0,0:0|0:0,0:0:0:0:
448,229,38592,1,2,3:0:0:0:
225,362,39137,1,0,3:0:0:0:
225,362,39410,6,0,L|144:339,1,58.9949992798462,2|0,0:0|0:0,0:0:0:0:
168,345,39682,1,2,3:0:0:0:
291,239,39955,6,0,L|311:320,1,58.9949992798462,2|0,0:0|0:0,0:0:0:0:
305,296,40228,1,2,3:0:0:0:
137,229,40500,6,0,L|197:170,1,58.9949992798462,2|0,0:0|0:0,0:0:0:0:
179,187,40772,1,2,3:0:0:0:
170,112,41046,1,2,0:0:0:0:
211,46,41319,1,2,3:0:0:0:
211,46,41455,2,0,L|346:26,1,121.612498144341,0|0,3:0|0:0,0:0:0:0:
405,16,41864,5,2,1:0:0:0:
485,249,42410,5,2,0:0:0:0:
42,55,42955,6,0,P|70:34|64:104,1,160.683753922943,2|0,0:0|0:0,0:0:0:0:
75,72,43773,1,2,0:0:0:0:
75,72,44046,6,0,P|152:28|265:72,1,193.803744085579,6|0,1:0|0:0,0:0:0:0:
249,66,44319,2,0,P|293:91|362:81,1,110.744996620331,8|0,0:0|0:0,0:0:0:0:
178,223,44591,1,2,0:0:0:0:
159,114,44728,1,0,1:0:0:0:
439,270,44864,2,0,P|362:226|249:270,1,193.803744085579,10|0,0:0|0:0,0:0:0:0:
263,263,45137,6,0,P|249:320|240:384,1,110.744996620331,2|0,1:0|0:0,0:0:0:0:
47,225,45410,5,10,0:0:0:0:
133,293,45546,1,0,1:0:0:0:
258,138,45682,5,2,0:0:0:0:
158,183,45818,1,0,1:0:0:0:
64,12,45955,5,10,0:0:0:0:
164,57,46091,1,0,0:0:0:0:
38,255,46228,6,0,P|24:152|7:57,1,193.803744085579,2|0,1:0|0:0,0:0:0:0:
0,52,46500,1,8,0:0:0:0:
321,221,46773,5,2,0:0:0:0:
217,176,46910,1,0,1:0:0:0:
365,355,47046,2,0,P|373:314|442:169,1,193.803744085579,10|0,0:0|0:0,0:0:0:0:
457,173,47319,6,0,P|447:131|366:104,1,110.744996620331,2|0,1:0|0:0,0:0:0:0:
218,232,47591,5,10,0:0:0:0:
299,93,47728,1,0,1:0:0:0:
102,173,47864,5,2,0:0:0:0:
258,159,48001,1,0,1:0:0:0:
76,28,48137,5,10,0:0:0:0:
182,162,48274,1,0,0:0:0:0:
364,44,48410,6,0,P|306:44|304:171,1,193.803744085579,2|0,1:0|0:0,0:0:0:0:
299,157,48682,1,8,0:0:0:0:
405,129,48819,1,0,0:0:0:0:
493,292,48955,2,0,P|439:272|381:258,1,110.744996620331,0|0,0:0|1:0,0:0:0:0:
212,354,49228,2,0,P|277:319|196:268,1,193.803744085579,10|0,0:0|0:0,0:0:0:0:
199,273,49500,6,0,P|160:291|102:248,1,110.744996620331,2|0,1:0|0:0,0:0:0:0:
88,51,49773,5,10,0:0:0:0:
132,173,49910,1,0,1:0:0:0:
319,246,50046,5,2,0:0:0:0:
363,124,50183,1,0,1:0:0:0:
156,23,50319,5,10,0:0:0:0:
200,145,50456,1,0,0:0:0:0:
457,33,50591,6,0,P|420:-8|314:68,1,193.803744085579,2|0,1:0|0:0,0:0:0:0:
323,55,50864,2,0,P|339:14|418:4,1,110.744996620331,10|0,0:0|0:0,0:0:0:0:
489,91,51137,1,2,0:0:0:0:
406,301,51273,1,0,1:0:0:0:
227,160,51410,2,0,P|289:140|351:125,1,110.744996620331,10|0,0:0|0:0,0:0:0:0:
211,348,51682,6,0,P|160:324|16:287,1,193.803744085579,2|0,1:0|0:0,0:0:0:0:
17,296,51955,1,8,0:0:0:0:
158,208,52091,1,0,1:0:0:0:
133,122,52228,5,0,0:0:0:0:
316,271,52364,1,0,1:0:0:0:
447,52,52500,1,10,0:0:0:0:
349,134,52637,1,8,2:3:0:0:
508,313,52773,6,0,B|492:291|470:276|470:276|501:205|516:124,1,193.803744085579,6|0,1:0|0:0,0:0:0:0:
506,136,53046,2,0,P|493:191|474:247,1,110.744996620331,8|0,0:0|0:0,0:0:0:0:
209,336,53318,1,2,0:0:0:0:
276,234,53455,1,0,1:0:0:0:
42,165,53591,2,0,P|87:197|125:96,1,193.803744085579,10|0,0:0|0:0,0:0:0:0:
128,95,53864,6,0,P|156:54|228:67,1,110.744996620331,2|0,1:0|0:0,0:0:0:0:
363,247,54137,5,10,0:0:0:0:
402,139,54273,1,0,1:0:0:0:
164,189,54410,5,2,0:0:0:0:
237,277,54546,1,0,1:0:0:0:
325,35,54682,5,10,0:0:0:0:
212,54,54818,1,0,0:0:0:0:
403,237,54955,6,0,P|408:186|298:204,1,193.803744085579,2|0,1:0|0:0,0:0:0:0:
302,204,55227,1,10,0:0:0:0:
17,215,55500,5,0,0:0:0:0:
58,337,55637,1,0,1:0:0:0:
206,123,55773,2,0,P|159:158|22:198,1,193.803744085579,10|0,0:0|0:0,0:0:0:0:
29,186,56046,6,0,P|79:178|141:153,1,110.744996620331,2|0,1:0|0:0,0:0:0:0:
290,14,56319,5,10,0:0:0:0:
251,185,56455,1,0,1:0:0:0:
430,273,56591,5,2,0:0:0:0:
391,102,56727,1,0,1:0:0:0:
217,333,56864,1,10,0:0:0:0:
217,333,57137,6,0,B|324:360|282:257|390:285,1,193.803744085579,2|0,1:0|0:0,0:0:0:0:
402,300,57410,1,8,0:0:0:0:
484,261,57546,1,0,0:0:0:0:
215,138,57682,2,0,P|230:191|241:245,1,110.744996620331,0|0,0:0|1:0,0:0:0:0:
378,93,57955,2,0,P|332:127|364:62,1,193.803744085579,10|0,0:0|0:0,0:0:0:0:
363,50,58228,6,0,P|317:44|287:100,1,110.744996620331,2|0,1:0|0:0,0:0:0:0:
251,312,58500,5,10,0:0:0:0:
116,350,58637,1,0,1:0:0:0:
11,188,58773,5,2,0:0:0:0:
146,226,58910,1,0,1:0:0:0:
319,63,59046,5,10,0:0:0:0:
182,101,59183,1,0,0:0:0:0:
398,0,59319,6,0,B|409:22|431:44|431:44|403:106|388:180,1,193.803744085579,2|0,1:0|0:0,0:0:0:0:
376,163,59591,2,0,P|384:203|399:165,1,110.744996620331,10|0,0:0|0:0,0:0:0:0:
256,68,59864,1,2,0:0:0:0:
285,192,60000,1,0,1:0:0:0:
0,92,60137,2,0,P|35:40|98:27,1,110.744996620331,10|0,0:0|0:0,0:0:0:0:
134,321,60410,6,0,P|116:244|51:123,1,193.803744085579,2|0,1:0|0:0,0:0:0:0:
53,142,60682,1,8,0:0:0:0:
186,220,60818,1,0,1:0:0:0:
302,20,60955,5,2,0:0:0:0:
200,120,61091,1,0,1:0:0:0:
459,265,61228,1,10,0:0:0:0:
459,265,61500,6,0,B|348:293|404:182|292:210,1,193.803744085579,4|0,1:0|0:0,0:0:0:0:
293,223,61772,2,0,P|323:216|354:226,1,55.3724983101655,10|0,0:0|0:0,0:0:0:0:
203,284,61909,2,0,P|220:309|249:324,1,55.3724983101655,2|0,0:0|0:0,0:0:0:0:
147,187,62046,2,0,P|123:201|103:254,1,83.0587474652482,2|0,0:0|0:0,0:0:0:0:
117,262,62181,1,0,1:0:0:0:
297,63,62318,5,10,0:0:0:0:
298,137,62454,2,0,P|302:109|307:82,1,55.3724983101655,2|0,0:0|0:0,0:0:0:0:
164,36,62591,5,0,1:0:0:0:
121,102,62728,2,0,P|92:95|56:91,1,55.3724983101654,2|0,0:0|0:0,0:0:0:0:
178,223,62863,1,8,0:0:0:0:
11,317,63000,2,0,P|18:288|22:252,1,55.3724983101654,2|0,1:0|0:0,0:0:0:0:
188,155,63137,2,0,P|191:182|198:209,1,55.3724983101654,2|0,0:0|0:0,0:0:0:0:
340,318,63273,1,0,1:0:0:0:
366,311,63341,1,0,0:0:0:0:
393,305,63410,1,10,0:0:0:0:
426,225,63545,1,0,0:0:0:0:
267,378,63682,6,0,B|258:354|230:332|230:332|279:276|277:198,1,193.803744085579,0|0,1:0|0:0,0:0:0:0:
271,201,63955,2,0,P|240:188|197:177,1,55.3724983101654,10|0,0:0|0:0,0:0:0:0:
194,73,64091,2,0,P|162:85|124:107,1,55.3724983101654,2|0,0:0|0:0,0:0:0:0:
39,54,64228,2,0,P|23:88|8:136,1,83.0587474652482,2|0,0:0|0:0,0:0:0:0:
19,143,64363,1,0,1:0:0:0:
126,280,64500,5,10,0:0:0:0:
196,282,64637,2,0,P|170:272|119:260,1,55.3724983101654,2|0,0:0|0:0,0:0:0:0:
288,367,64773,5,0,1:0:0:0:
344,316,64910,2,0,P|374:310|408:302,1,55.3724983101654,2|0,0:0|0:0,0:0:0:0:
484,155,65045,5,8,0:0:0:0:
414,132,65182,2,0,L|406:72,1,55.3724983101654,2|0,1:0|0:0,0:0:0:0:
283,210,65319,2,0,L|228:202,1,55.3724983101654,2|0,0:0|0:0,0:0:0:0:
180,105,65455,2,0,L|125:97,1,55.3724983101654,2|0,1:0|0:0,0:0:0:0:
22,155,65591,2,0,L|29:209,1,55.3724983101654,10|0,0:0|0:0,0:0:0:0:
127,258,65727,2,0,L|134:312,1,55.3724983101654,2|0,0:0|0:0,0:0:0:0:
337,378,65864,6,0,L|363:170,1,193.803744085579,0|0,1:0|0:0,0:0:0:0:
367,177,66137,2,0,P|392:166|434:157,1,55.3724983101654,10|0,0:0|0:0,0:0:0:0:
273,252,66273,2,0,P|248:241|206:232,1,55.3724983101654,2|0,0:0|0:0,0:0:0:0:
376,333,66410,2,0,P|407:319|459:308,1,83.0587474652482,2|0,0:0|0:0,0:0:0:0:
465,324,66545,1,0,1:0:0:0:
254,381,66681,5,8,0:0:0:0:
175,354,66819,2,0,P|157:329|157:291,1,55.3724983101654,2|0,0:0|0:0,0:0:0:0:
183,133,66955,5,0,1:0:0:0:
112,159,67091,2,0,L|97:98,1,55.3724983101654,2|0,0:0|0:0,0:0:0:0:
249,0,67228,1,8,0:0:0:0:
198,51,67364,2,0,L|120:38,1,55.3724983101654,2|0,1:0|0:0,0:0:0:0:
265,161,67500,2,0,L|343:148,1,55.3724983101654,2|0,0:0|0:0,0:0:0:0:
168,249,67636,1,0,1:0:0:0:
147,246,67704,1,0,0:0:0:0:
126,243,67772,1,10,0:0:0:0:
73,306,67909,1,0,0:0:0:0:
266,190,68046,6,0,B|274:220|300:238|300:238|238:284|233:363,1,193.803744085579,0|0,1:0|0:0,0:0:0:0:
244,352,68319,2,0,P|252:318|267:290,1,55.3724983101654,10|0,0:0|0:0,0:0:0:0:
165,180,68455,2,0,P|178:204|186:230,1,55.3724983101654,2|0,0:0|0:0,0:0:0:0:
322,107,68591,2,0,P|288:84|228:103,1,83.0587474652482,2|0,0:0|0:0,0:0:0:0:
237,101,68727,1,0,1:0:0:0:
403,228,68863,5,10,0:0:0:0:
450,169,69000,2,0,L|463:108,1,55.3724983101654,2|0,0:0|0:0,0:0:0:0:
259,200,69137,5,0,1:0:0:0:
281,273,69273,2,0,P|252:281|222:295,1,55.3724983101654,2|0,0:0|0:0,0:0:0:0:
116,384,69409,5,8,0:0:0:0:
36,164,69546,2,0,P|61:184|96:184,1,55.3724983101654,2|0,1:0|0:0,0:0:0:0:
131,110,69682,2,0,P|152:92|193:84,1,55.3724983101654,2|0,0:0|0:0,0:0:0:0:
252,26,69819,2,0,P|274:42|291:80,1,55.3724983101654,2|0,1:0|0:0,0:0:0:0:
370,109,69955,2,0,P|359:134|325:159,1,55.3724983101654,10|0,0:0|0:0,0:0:0:0:
331,242,70091,2,0,P|303:237|271:210,1,55.3724983101654,2|0,0:0|0:0,0:0:0:0:
158,183,70228,6,0,P|181:248|195:377,1,193.803744085579,4|0,1:0|0:0,0:0:0:0:
208,372,70500,2,0,P|237:359|271:351,1,55.3724983101654,10|0,0:0|0:0,0:0:0:0:
378,305,70637,2,0,P|348:292|315:284,1,55.3724983101654,2|0,0:0|0:0,0:0:0:0:
205,246,70773,2,0,P|234:233|268:225,1,55.3724983101654,2|0,0:0|0:0,0:0:0:0:
408,163,70909,1,0,1:0:0:0:
197,59,71045,5,8,0:0:0:0:
255,111,71182,2,0,P|284:98|318:90,1,55.3724983101654,2|0,0:0|0:0,0:0:0:0:
137,177,71319,5,0,1:0:0:0:
64,166,71455,2,0,P|90:172|116:182,1,55.3724983101654,2|0,0:0|0:0,0:0:0:0:
187,380,71590,1,8,0:0:0:0:
259,353,71728,2,0,P|266:322|275:289,1,55.3724983101654,2|0,1:0|0:0,0:0:0:0:
398,156,71863,5,2,0:0:0:0:
445,300,72000,1,0,1:0:0:0:
239,132,72136,1,10,0:0:0:0:
239,132,72410,6,0,B|132:105|174:208|66:180,1,193.803744085579,0|0,1:0|0:0,0:0:0:0:
55,182,72682,2,0,P|85:194|118:191,1,55.3724983101654,10|0,0:0|0:0,0:0:0:0:
217,117,72819,2,0,P|189:117|164:128,1,55.3724983101654,2|0,0:0|0:0,0:0:0:0:
193,263,72955,2,0,P|211:236|215:203,1,55.3724983101654,2|0,0:0|0:0,0:0:0:0:
85,106,73091,1,0,1:0:0:0:
79,79,73160,1,0,0:0:0:0:
72,52,73228,2,0,P|97:40|124:40,1,55.3724983101654,10|0,0:0|0:0,0:0:0:0:
269,128,73364,2,0,P|241:127|216:116,1,55.3724983101654,2|0,0:0|0:0,0:0:0:0:
396,48,73500,5,0,1:0:0:0:
376,123,73637,1,2,0:0:0:0:
461,305,73772,5,8,0:0:0:0:
428,234,73910,2,0,P|398:223|362:217,1,55.3724983101654,2|0,1:0|0:0,0:0:0:0:
376,123,74046,2,0,P|344:124|308:131,1,55.3724983101654,2|0,0:0|0:0,0:0:0:0:
289,42,74182,2,0,P|259:54|229:75,1,55.3724983101654,2|0,1:0|0:0,0:0:0:0:
176,4,74319,2,0,P|153:26|133:57,1,55.3724983101654,10|0,0:0|0:0,0:0:0:0:
59,0,74455,2,0,P|46:29|39:65,1,55.3724983101654,2|0,0:0|0:0,0:0:0:0:
86,194,74591,6,0,P|119:170|244:240,1,193.803744085579,0|0,1:0|0:0,0:0:0:0:
232,240,74864,2,0,P|220:265|212:304,1,55.3724983101654,10|0,0:0|0:0,0:0:0:0:
330,344,75000,2,0,P|316:320|307:293,1,55.3724983101654,2|0,0:0|0:0,0:0:0:0:
416,235,75137,2,0,P|402:258|393:285,1,55.3724983101654,2|0,0:0|0:0,0:0:0:0:
330,184,75272,1,0,1:0:0:0:
501,23,75409,5,8,0:0:0:0:
463,86,75546,2,0,P|435:75|407:68,1,55.3724983101654,2|0,0:0|0:0,0:0:0:0:
267,141,75682,5,0,1:0:0:0:
217,198,75819,2,0,P|185:191|144:189,1,55.3724983101654,2|0,0:0|0:0,0:0:0:0:
243,316,75954,1,8,0:0:0:0:
206,379,76091,2,0,L|216:316,1,55.3724983101654,2|0,1:0|0:0,0:0:0:0:
74,272,76228,2,0,L|65:217,1,55.3724983101654,2|0,0:0|0:0,0:0:0:0:
157,40,76364,1,0,1:0:0:0:
152,67,76432,1,0,0:0:0:0:
147,94,76500,1,10,0:0:0:0:
190,163,76636,1,0,0:0:0:0:
401,45,76773,6,0,B|294:18|336:121|228:93,1,193.803744085579,0|0,1:0|0:0,0:0:0:0:
212,100,77045,2,0,P|209:131|203:174,1,55.3724983101654,10|0,0:0|0:0,0:0:0:0:
49,27,77181,2,0,P|78:12|118:-2,1,55.3724983101654,2|0,0:0|0:0,0:0:0:0:
80,204,77318,2,0,P|53:185|19:157,1,55.3724983101654,2|0,0:0|0:0,0:0:0:0:
157,49,77454,1,0,1:0:0:0:
314,238,77591,6,0,P|321:204|335:170,1,55.3724983101654,10|0,0:0|0:0,0:0:0:0:
208,296,77728,2,0,P|201:262|187:228,1,55.3724983101654,2|0,0:0|0:0,0:0:0:0:
308,337,77863,5,0,0:0:0:0:
381,363,78000,2,0,P|407:341|441:331,1,58.9949992798462,2|0,0:0|0:0,0:0:0:0:
492,243,78273,2,0,P|465:230|436:227,2,58.9949992798462,2|2|2,0:0|0:0|0:0,0:0:0:0:
437,128,78682,2,0,P|407:130|381:143,1,58.9949992798462,2|2,0:0|0:0,0:0:0:0:
296,263,78955,6,0,B|202:271|252:191|159:199,1,159.389996838272,6|10,1:0|0:0,0:0:0:0:
162,198,79364,1,10,0:0:0:0:
311,97,79500,2,0,P|304:136|298:178,1,79.6949984191361,2|0,0:0|0:0,0:0:0:0:
298,175,79773,1,10,0:0:0:0:
174,42,79910,5,2,0:0:0:0:
174,42,80046,2,0,P|143:22|85:37,1,69.3449967198259,2|0,0:0|0:0,0:0:0:0:
89,102,80250,2,0,P|119:121|177:106,1,69.3449967198259,2|0,0:0|0:0,0:0:0:0:
224,101,80455,1,10,0:0:0:0:
224,101,80591,1,2,0:0:0:0:
315,324,80864,5,8,0:0:0:0:
366,256,81000,1,2,0:0:0:0:
237,359,81137,6,0,P|201:341|163:330,1,69.3449967198259,2|0,0:0|0:0,0:0:0:0:
115,265,81341,2,0,P|153:254|188:236,1,69.3449967198259,2|0,0:0|0:0,0:0:0:0:
230,171,81546,1,10,0:0:0:0:
74,47,81682,2,0,P|81:91|86:135,1,69.3449967198259,2|0,0:0|0:0,0:0:0:0:
157,150,81887,2,0,P|161:110|168:71,1,69.3449967198259,2|0,0:0|0:0,0:0:0:0:
224,30,82091,1,2,0:0:0:0:
364,170,82228,6,0,P|416:143|485:135,2,104.017495079739,2|2|10,0:0|0:0|0:0,0:0:0:0:
454,304,82773,2,0,P|463:270|482:224,1,69.3449967198259,2|0,0:0|0:0,0:0:0:0:
475,238,83046,1,8,0:0:0:0:
326,306,83319,6,0,P|294:324|262:341,1,69.3449967198259,2|2,0:0|0:0,0:0:0:0:
265,339,83591,1,10,0:0:0:0:
194,207,83728,1,10,0:0:0:0:
259,178,83864,2,0,P|288:195|319:211,1,69.3449967198259,2|0,0:0|0:0,0:0:0:0:
319,211,84137,1,10,0:0:0:0:
170,66,84410,6,0,P|187:95|203:126,1,69.3449967198259,2|0,0:0|0:0,0:0:0:0:
203,126,84682,1,10,0:0:0:0:
26,218,84819,1,8,0:0:0:0:
97,209,84955,2,0,P|112:178|130:148,1,69.3449967198259,2|2,0:0|0:0,0:0:0:0:
129,148,85228,1,8,0:0:0:0:
406,38,85500,6,0,P|369:25|328:16,1,69.3449967198259,2|0,0:0|0:0,0:0:0:0:
339,18,85773,1,10,0:0:0:0:
272,187,85910,1,8,0:0:0:0:
322,133,86046,2,0,P|359:120|400:111,1,69.3449967198259,2|2,0:0|0:0,0:0:0:0:
388,113,86319,5,8,0:0:0:0:
434,183,86455,1,2,0:0:0:0:
382,247,86591,1,2,0:0:0:0:
402,324,86728,1,2,0:0:0:0:
222,273,86864,6,0,P|254:257|302:242,1,69.3449967198259,10|10,0:0|0:0,0:0:0:0:
285,246,87137,1,2,0:0:0:0:
71,81,87410,5,12,2:3:0:0:
91,56,87500,5,12,2:3:0:0:
123,61,87591,5,12,2:3:0:0:
176,110,87682,6,0,B|270:118|220:38|313:46,1,159.389996838272,2|8,1:0|0:0,0:0:0:0:
309,45,88091,1,2,0:0:0:0:
421,209,88228,2,0,P|396:173|350:165,1,79.6949984191361,2|2,1:0|0:0,0:0:0:0:
363,163,88500,1,10,0:0:0:0:
274,321,88637,6,0,P|231:351|161:295,1,139.466247233488,2|0,0:0|0:0,0:0:0:0:
161,287,88910,1,2,0:0:0:0:
237,121,89046,1,10,0:0:0:0:
259,237,89182,1,10,0:0:0:0:
68,126,89319,2,0,P|77:86|85:41,1,79.6949984191361,2|0,1:0|0:0,0:0:0:0:
163,183,89591,1,10,0:0:0:0:
394,31,89864,5,2,1:0:0:0:
336,114,90000,1,2,0:0:0:0:
467,223,90137,5,10,0:0:0:0:
436,137,90273,1,10,0:0:0:0:
289,236,90410,5,2,1:0:0:0:
273,234,90478,1,0,0:0:0:0:
257,232,90546,2,0,L|247:181,1,39.847499209568,2|0,0:0|0:0,0:0:0:0:
218,39,90682,5,10,0:0:0:0:
163,131,90819,1,2,0:0:0:0:
82,256,90955,6,0,P|45:235|9:222,1,79.6949984191361,2|2,1:0|0:0,0:0:0:0:
126,367,91228,2,0,P|163:346|199:333,1,79.6949984191361,10|0,0:0|0:0,0:0:0:0:
370,366,91500,1,2,1:0:0:0:
370,366,91569,1,0,0:0:0:0:
370,366,91637,1,0,0:0:0:0:
325,188,91773,1,10,0:0:0:0:
256,267,91910,1,0,0:0:0:0:
450,337,92046,6,0,P|467:259|501:187,1,159.389996838272,2|8,1:0|0:0,0:0:0:0:
500,187,92455,1,0,0:0:0:0:
356,68,92591,2,0,P|373:107|381:153,1,79.6949984191361,2|0,1:0|0:0,0:0:0:0:
380,143,92864,1,10,0:0:0:0:
177,45,93000,6,0,P|219:64|174:149,1,159.389996838272,2|0,0:0|0:0,0:0:0:0:
18,71,93410,2,0,P|59:85|87:128,1,79.6949984191361,10|0,0:0|0:0,0:0:0:0:
111,272,93682,1,2,1:0:0:0:
111,272,93750,1,0,0:0:0:0:
111,272,93819,1,0,0:0:0:0:
18,157,93955,1,8,0:0:0:0:
93,187,94091,1,2,0:0:0:0:
7,381,94228,6,0,P|44:360|93:345,1,79.6949984191361,2|2,1:0|0:0,0:0:0:0:
311,363,94500,5,10,0:0:0:0:
218,384,94636,1,10,0:0:0:0:
290,214,94773,1,2,1:0:0:0:
402,349,94909,1,2,0:0:0:0:
402,349,94978,1,0,0:0:0:0:
402,349,95046,1,10,0:0:0:0:
301,290,95182,1,2,0:0:0:0:
474,150,95319,6,0,B|447:169|447:169|407:137|335:125,1,139.466247233488,2|0,1:0|0:0,0:0:0:0:
353,116,95591,2,0,P|321:111|348:138,1,79.6949984191361,10|0,0:0|0:0,0:0:0:0:
214,28,95864,2,0,P|176:43|127:66,1,79.6949984191361,2|0,1:0|0:0,0:0:0:0:
42,208,96137,5,0,3:0:0:0:
45,192,96205,1,0,3:0:0:0:
47,176,96273,1,0,3:0:0:0:
49,160,96341,1,0,3:0:0:0:
51,144,96410,1,6,0:0:0:0:
460,54,96955,6,0,P|417:58|374:85,1,85.1287487010384,0|0,3:0|0:0,0:0:0:0:
379,92,97228,1,0,0:0:0:0:
308,21,97500,6,0,P|279:53|269:103,1,85.1287487010384,2|0,3:0|0:0,0:0:0:0:
275,104,97773,1,0,0:0:0:0:
179,108,98046,6,0,P|181:151|207:194,1,85.1287487010384,0|0,3:0|0:0,0:0:0:0:
212,190,98319,1,0,0:0:0:0:
190,315,98591,6,0,P|224:288|273:280,1,85.1287487010384,2|0,3:0|0:0,0:0:0:0:
275,287,98864,1,2,0:0:0:0:
278,187,99136,6,0,P|320:191|362:220,1,85.1287487010384,0|0,3:0|0:0,0:0:0:0:
359,225,99409,1,0,0:0:0:0:
432,162,99682,6,0,P|459:195|469:244,1,85.1287487010384,2|0,3:0|0:0,0:0:0:0:
464,245,99955,1,0,0:0:0:0:
414,74,100228,6,0,P|456:78|498:107,1,85.1287487010384,0|0,3:0|0:0,0:0:0:0:
494,111,100501,1,0,0:0:0:0:
327,170,100773,6,0,L|272:164,1,48.6449992577362,10|0,0:0|3:0,0:0:0:0:
278,164,101046,1,0,0:0:0:0:
178,245,101319,6,0,L|233:239,1,48.6449992577362,8|0,0:0|3:0,0:0:0:0:
226,239,101592,1,0,0:0:0:0:
140,324,101864,6,0,L|85:318,1,48.6449992577362,10|2,0:0|3:0,0:0:0:0:
91,318,102137,1,0,0:0:0:0:
7,208,102410,6,0,L|62:202,1,48.6449992577362,8|8,0:0|0:0,0:0:0:0:
55,202,102682,1,0,0:0:0:0:
231,40,102955,6,0,P|240:115|218:53,1,241.931251476631,2|0,1:0|0:0,0:0:0:0:
254,75,104864,1,2,0:0:0:0:
254,75,105137,6,0,B|363:61|309:158|419:143,1,193.803744085579,6|0,1:0|0:0,0:0:0:0:
418,160,105410,2,0,P|439:129|408:153,1,110.744996620331,8|0,0:0|0:0,0:0:0:0:
326,260,105682,1,2,0:0:0:0:
272,153,105819,1,0,1:0:0:0:
160,352,105955,2,0,P|98:369|34:271,1,193.803744085579,10|0,0:0|0:0,0:0:0:0:
36,261,106228,6,0,P|65:220|133:215,1,110.744996620331,2|0,1:0|0:0,0:0:0:0:
323,250,106501,5,10,0:0:0:0:
219,298,106637,1,0,1:0:0:0:
115,130,106773,5,2,0:0:0:0:
215,175,106909,1,0,1:0:0:0:
316,0,107046,5,10,0:0:0:0:
216,45,107182,1,0,0:0:0:0:
431,227,107319,6,0,B|404:218|392:194|392:194|339:240|252:251,1,193.803744085579,2|0,1:0|0:0,0:0:0:0:
251,241,107591,1,8,0:0:0:0:
325,150,107728,1,0,0:0:0:0:
490,46,107864,5,2,0:0:0:0:
457,160,108000,1,0,1:0:0:0:
194,31,108137,2,0,P|272:20|256:108,1,193.803744085579,10|0,0:0|0:0,0:0:0:0:
242,106,108410,6,0,P|191:114|129:133,1,110.744996620331,2|0,1:0|0:0,0:0:0:0:
46,317,108682,5,10,0:0:0:0:
161,224,108819,1,0,1:0:0:0:
344,296,108955,5,2,0:0:0:0:
229,188,109092,1,0,1:0:0:0:
350,14,109228,5,10,0:0:0:0:
300,156,109365,1,0,0:0:0:0:
63,25,109500,6,0,B|172:11|118:108|228:93,1,193.803744085579,2|0,1:0|0:0,0:0:0:0:
247,85,109773,1,8,0:0:0:0:
350,14,109910,1,0,0:0:0:0:
462,223,110046,2,0,P|422:270|363:253,1,110.744996620331,0|0,0:0|1:0,0:0:0:0:
208,171,110319,2,0,P|253:198|183:288,1,193.803744085579,10|0,0:0|0:0,0:0:0:0:
182,294,110591,6,0,P|227:296|269:232,1,110.744996620331,2|0,1:0|0:0,0:0:0:0:
109,134,110864,5,10,0:0:0:0:
56,265,111001,1,0,1:0:0:0:
208,171,111137,5,2,0:0:0:0:
155,40,111274,1,0,1:0:0:0:
15,188,111410,5,10,0:0:0:0:
138,123,111546,1,0,0:0:0:0:
326,278,111682,6,0,P|384:241|516:204,1,193.803744085579,2|0,1:0|0:0,0:0:0:0:
510,199,111955,2,0,P|445:208|390:233,1,110.744996620331,10|0,0:0|0:0,0:0:0:0:
202,367,112228,1,2,0:0:0:0:
87,209,112364,1,0,1:0:0:0:
291,114,112500,2,0,P|278:173|270:229,1,110.744996620331,10|0,0:0|0:0,0:0:0:0:
37,70,112773,6,0,B|64:55|85:31|85:31|129:90|219:84,1,193.803744085579,2|0,1:0|0:0,0:0:0:0:
209,74,113046,1,8,0:0:0:0:
86,131,113182,1,0,1:0:0:0:
334,303,113319,5,0,0:0:0:0:
159,182,113455,1,0,1:0:0:0:
42,366,113591,1,10,0:0:0:0:
154,257,113728,1,8,2:3:0:0:
321,384,113864,6,0,B|430:397|376:300|486:315,1,193.803744085579,6|0,1:0|0:0,0:0:0:0:
497,306,114137,2,0,P|476:255|465:182,1,110.744996620331,8|0,0:0|0:0,0:0:0:0:
249,177,114409,1,2,0:0:0:0:
278,281,114546,1,0,1:0:0:0:
374,51,114682,2,0,P|319:16|213:77,1,193.803744085579,10|0,0:0|0:0,0:0:0:0:
230,70,114955,6,0,P|200:101|201:58,1,110.744996620331,2|0,1:0|0:0,0:0:0:0:
289,184,115228,5,10,0:0:0:0:
188,250,115364,1,0,1:0:0:0:
397,348,115500,5,2,0:0:0:0:
269,292,115637,1,0,1:0:0:0:
459,163,115773,5,10,0:0:0:0:
343,243,115910,1,0,0:0:0:0:
182,29,116046,6,0,P|155:15|82:129,1,193.803744085579,2|0,1:0|0:0,0:0:0:0:
82,130,116318,1,10,0:0:0:0:
326,384,116591,5,0,0:0:0:0:
371,249,116728,1,0,1:0:0:0:
190,375,116864,2,0,B|126:377|117:325|117:325|75:354|35:306,1,193.803744085579,10|0,0:0|0:0,0:0:0:0:
36,289,117137,6,0,P|30:232|24:175,1,110.744996620331,2|0,1:0|0:0,0:0:0:0:
219,33,117410,5,10,0:0:0:0:
128,137,117546,1,0,1:0:0:0:
297,244,117682,5,2,0:0:0:0:
220,126,117819,1,0,1:0:0:0:
313,347,117955,1,10,0:0:0:0:
313,347,118228,6,0,P|373:353|396:234,1,193.803744085579,2|0,1:0|0:0,0:0:0:0:
382,236,118501,1,8,0:0:0:0:
288,214,118637,1,0,0:0:0:0:
434,68,118773,2,0,P|381:92|333:117,1,110.744996620331,0|0,0:0|1:0,0:0:0:0:
89,6,119046,2,0,P|142:30|264:108,1,193.803744085579,10|0,0:0|0:0,0:0:0:0:
253,109,119319,6,0,P|206:78|158:50,1,110.744996620331,2|0,1:0|0:0,0:0:0:0:
0,183,119591,5,10,0:0:0:0:
137,119,119728,1,0,1:0:0:0:
298,259,119864,5,2,0:0:0:0:
161,195,120001,1,0,1:0:0:0:
39,333,120137,5,10,0:0:0:0:
176,269,120274,1,0,0:0:0:0:
375,384,120410,6,0,P|400:300|468:208,1,193.803744085579,2|0,1:0|0:0,0:0:0:0:
459,202,120682,2,0,P|437:167|356:178,1,110.744996620331,10|0,0:0|0:0,0:0:0:0:
211,259,120955,1,2,0:0:0:0:
308,301,121091,1,0,1:0:0:0:
178,124,121228,2,0,P|200:89|281:100,1,110.744996620331,10|0,0:0|0:0,0:0:0:0:
180,260,121500,6,0,B|71:273|125:176|15:191,1,193.803744085579,2|0,1:0|0:0,0:0:0:0:
5,205,121773,1,10,0:0:0:0:
47,319,121910,1,0,1:0:0:0:
232,177,122046,5,2,0:0:0:0:
305,352,122182,1,0,1:0:0:0:
119,193,122319,1,10,0:0:0:0:
512,346,122591,6,0,B|401:374|457:263|345:291,1,193.803744085579,4|0,1:0|0:0,0:0:0:0:
346,304,122863,2,0,P|376:297|407:307,1,55.3724983101655,10|0,0:0|0:0,0:0:0:0:
240,221,123000,2,0,P|250:192|274:171,1,55.3724983101655,2|0,0:0|0:0,0:0:0:0:
125,273,123136,2,0,P|108:247|104:190,1,83.0587474652482,2|0,0:0|0:0,0:0:0:0:
114,187,123272,1,0,1:0:0:0:
217,371,123409,5,10,0:0:0:0:
143,344,123546,2,0,P|113:350|80:355,1,55.3724983101655,2|0,0:0|0:0,0:0:0:0:
31,147,123682,5,0,1:0:0:0:
100,103,123818,2,0,L|93:40,1,55.3724983101654,2|0,0:0|0:0,0:0:0:0:
323,0,123954,1,8,0:0:0:0:
269,50,124091,2,0,L|279:118,1,55.3724983101654,2|0,1:0|0:0,0:0:0:0:
421,243,124227,2,0,L|358:218,1,55.3724983101654,2|0,0:0|0:0,0:0:0:0:
235,353,124363,1,0,1:0:0:0:
238,333,124431,1,0,0:0:0:0:
243,310,124500,1,10,0:0:0:0:
191,260,124636,1,0,0:0:0:0:
459,325,124773,6,0,P|512:290|465:185,1,193.803744085579,0|0,1:0|0:0,0:0:0:0:
465,177,125046,2,0,P|432:181|395:189,1,55.3724983101654,10|0,0:0|0:0,0:0:0:0:
333,100,125182,2,0,P|305:94|278:91,1,55.3724983101654,2|0,0:0|0:0,0:0:0:0:
169,181,125319,2,0,P|194:207|223:172,1,83.0587474652482,2|0,0:0|0:0,0:0:0:0:
223,166,125454,1,0,1:0:0:0:
56,26,125591,5,10,0:0:0:0:
125,64,125727,2,0,P|130:94|139:128,1,55.3724983101654,2|0,0:0|0:0,0:0:0:0:
7,257,125864,5,0,1:0:0:0:
75,217,126000,2,0,P|97:234|130:238,1,55.3724983101654,2|0,0:0|0:0,0:0:0:0:
299,153,126136,5,8,0:0:0:0:
354,224,126272,2,0,P|332:241|299:245,1,55.3724983101654,2|0,1:0|0:0,0:0:0:0:
268,337,126409,2,0,P|242:329|220:304,1,55.3724983101654,2|0,0:0|0:0,0:0:0:0:
127,332,126545,2,0,P|119:306|127:274,1,55.3724983101654,2|0,1:0|0:0,0:0:0:0:
51,214,126681,2,0,P|68:192|99:180,1,55.3724983101654,10|0,0:0|0:0,0:0:0:0:
105,85,126818,2,0,P|133:87|161:105,1,55.3724983101654,2|0,0:0|0:0,0:0:0:0:
249,231,126955,6,0,B|360:259|304:148|416:176,1,193.803744085579,0|0,1:0|0:0,0:0:0:0:
423,189,127228,2,0,P|435:218|438:254,1,55.3724983101654,10|0,0:0|0:0,0:0:0:0:
440,94,127364,2,0,P|469:105|497:127,1,55.3724983101654,2|0,0:0|0:0,0:0:0:0:
386,25,127500,2,0,P|414:11|449:5,1,55.3724983101654,2|0,0:0|0:0,0:0:0:0:
343,147,127636,1,0,1:0:0:0:
161,29,127772,5,8,0:0:0:0:
197,95,127910,2,0,P|223:101|248:113,1,55.3724983101654,2|0,0:0|0:0,0:0:0:0:
325,262,128046,5,0,1:0:0:0:
401,256,128181,2,0,P|376:260|342:269,1,55.3724983101654,2|0,0:0|0:0,0:0:0:0:
234,368,128318,1,8,0:0:0:0:
107,172,128454,2,0,P|96:195|84:228,1,55.3724983101654,2|0,1:0|0:0,0:0:0:0:
197,276,128591,2,0,P|186:253|174:220,1,55.3724983101654,2|0,0:0|0:0,0:0:0:0:
312,102,128727,1,0,1:0:0:0:
291,99,128795,1,0,0:0:0:0:
270,96,128863,1,10,0:0:0:0:
216,157,129000,1,0,0:0:0:0:
389,45,129137,6,0,B|389:78|428:90|428:90|375:139|358:226,1,193.803744085579,0|0,1:0|0:0,0:0:0:0:
350,214,129410,2,0,P|328:235|284:243,1,55.3724983101654,10|0,0:0|0:0,0:0:0:0:
248,320,129546,2,0,P|217:319|180:295,1,55.3724983101654,2|0,0:0|0:0,0:0:0:0:
109,342,129682,2,0,P|87:320|77:277,1,55.3724983101654,2|0,0:0|0:0,0:0:0:0:
187,195,129818,1,0,1:0:0:0:
10,67,129954,1,10,0:0:0:0:
79,26,130091,2,0,L|85:87,1,55.3724983101654,2|0,0:0|0:0,0:0:0:0:
271,92,130228,5,0,1:0:0:0:
208,61,130364,2,0,P|236:53|259:65,1,55.3724983101654,2|0,0:0|0:0,0:0:0:0:
151,230,130500,5,8,0:0:0:0:
220,226,130637,2,0,P|198:213|167:209,1,55.3724983101654,2|0,1:0|0:0,0:0:0:0:
298,315,130773,2,0,P|276:328|245:332,1,55.3724983101654,2|0,0:0|0:0,0:0:0:0:
364,196,130910,2,0,P|345:178|316:166,1,55.3724983101654,2|0,1:0|0:0,0:0:0:0:
435,278,131046,2,0,P|416:295|387:307,1,55.3724983101654,10|0,0:0|0:0,0:0:0:0:
512,191,131182,2,0,P|493:173|464:161,1,55.3724983101654,2|0,0:0|0:0,0:0:0:0:
293,65,131318,6,0,P|223:95|209:207,1,193.803744085579,4|0,1:0|0:0,0:0:0:0:
219,209,131591,2,0,P|189:216|155:220,1,55.3724983101654,10|0,0:0|0:0,0:0:0:0:
305,363,131727,2,0,P|314:334|326:302,1,55.3724983101654,2|0,0:0|0:0,0:0:0:0:
115,342,131863,2,0,P|135:364|157:392,1,55.3724983101654,2|0,0:0|0:0,0:0:0:0:
269,261,132000,1,0,1:0:0:0:
53,173,132136,5,8,0:0:0:0:
112,228,132272,2,0,P|142:231|171:213,1,55.3724983101654,2|0,0:0|0:0,0:0:0:0:
232,31,132410,5,0,1:0:0:0:
205,102,132545,2,0,P|212:72|218:40,1,55.3724983101654,2|0,0:0|0:0,0:0:0:0:
356,133,132681,1,8,0:0:0:0:
163,220,132818,2,0,P|157:190|151:158,1,55.3724983101654,2|0,1:0|0:0,0:0:0:0:
303,311,132954,5,2,0:0:0:0:
123,353,133091,1,0,1:0:0:0:
321,215,133227,1,10,0:0:0:0:
321,215,133500,6,0,P|357:203|462:310,1,193.803744085579,0|0,1:0|0:0,0:0:0:0:
451,295,133773,2,0,P|439:258|418:240,1,55.3724983101654,10|0,0:0|0:0,0:0:0:0:
368,128,133910,2,0,P|329:131|306:147,1,55.3724983101654,2|0,0:0|0:0,0:0:0:0:
205,286,134046,2,0,P|177:286|152:274,1,55.3724983101654,2|0,0:0|0:0,0:0:0:0:
47,114,134181,1,0,1:0:0:0:
44,136,134250,1,0,0:0:0:0:
42,158,134318,2,0,P|50:184|55:218,1,55.3724983101654,10|0,0:0|0:0,0:0:0:0:
195,81,134455,2,0,P|186:107|182:134,1,55.3724983101654,2|0,0:0|0:0,0:0:0:0:
342,141,134591,5,0,1:0:0:0:
313,72,134727,2,0,P|305:105|318:136,1,55.3724983101654,2|0,0:0|0:0,0:0:0:0:
498,179,134863,5,8,0:0:0:0:
467,251,135000,2,0,P|440:258|397:247,1,55.3724983101654,2|0,1:0|0:0,0:0:0:0:
348,308,135136,2,0,P|324:294|301:257,1,55.3724983101654,2|0,0:0|0:0,0:0:0:0:
223,267,135272,2,0,P|216:240|225:197,1,55.3724983101654,2|0,1:0|0:0,0:0:0:0:
162,151,135409,2,0,P|177:127|213:102,1,55.3724983101654,10|0,0:0|0:0,0:0:0:0:
199,26,135545,2,0,P|227:18|270:26,1,55.3724983101654,2|0,0:0|0:0,0:0:0:0:
68,70,135682,6,0,P|48:126|39:273,1,193.803744085579,0|0,1:0|0:0,0:0:0:0:
51,267,135954,2,0,P|66:248|110:238,1,55.3724983101654,10|0,0:0|0:0,0:0:0:0:
178,154,136091,2,0,P|203:156|236:186,1,55.3724983101654,2|0,0:0|0:0,0:0:0:0:
343,199,136227,2,0,P|356:220|351:265,1,55.3724983101654,2|0,0:0|0:0,0:0:0:0:
263,342,136363,1,0,1:0:0:0:
432,172,136500,5,8,0:0:0:0:
494,206,136636,2,0,P|498:234|502:261,1,55.3724983101654,2|0,0:0|0:0,0:0:0:0:
413,65,136773,5,0,1:0:0:0:
348,103,136909,2,0,P|320:98|288:86,1,55.3724983101654,2|0,0:0|0:0,0:0:0:0:
193,201,137045,1,8,0:0:0:0:
41,22,137181,2,0,P|69:17|101:5,1,55.3724983101654,2|0,1:0|0:0,0:0:0:0:
240,143,137318,2,0,P|222:122|196:100,1,55.3724983101654,2|0,0:0|0:0,0:0:0:0:
31,240,137454,1,0,1:0:0:0:
49,219,137522,1,0,0:0:0:0:
73,204,137591,1,10,0:0:0:0:
152,228,137727,1,0,0:0:0:0:
274,381,137864,6,0,P|272:341|347:206,1,193.803744085579,0|0,1:0|0:0,0:0:0:0:
335,195,138136,2,0,P|304:189|262:177,1,55.3724983101654,10|0,0:0|0:0,0:0:0:0:
426,43,138272,2,0,P|437:74|447:116,1,55.3724983101654,2|0,0:0|0:0,0:0:0:0:
246,52,138409,2,0,P|268:28|299:-2,1,55.3724983101654,2|0,0:0|0:0,0:0:0:0:
392,148,138545,1,0,1:0:0:0:
158,30,138682,6,0,P|130:11|85:-3,1,55.3724983101654,10|0,0:0|0:0,0:0:0:0:
0,131,138819,2,0,P|27:112|118:88,1,110.744996620331,2|0,0:0|0:0,0:0:0:0:
159,207,139091,6,0,P|131:188|94:177,1,58.9949992798462,2|0,0:0|0:0,0:0:0:0:
70,329,139364,2,0,P|85:305|98:268,2,58.9949992798462,2|2|2,0:0|0:0|0:0,0:0:0:0:
228,365,139773,2,0,P|212:341|199:304,1,58.9949992798462,2|2,0:0|0:0,0:0:0:0:
303,202,140046,5,0,3:0:0:0:
303,202,140591,6,0,P|323:187|355:180,1,48.6449992577362,0|0,3:0|0:0,0:0:0:0:
345,180,140864,1,0,0:0:0:0:
229,192,141137,6,0,P|232:167|251:140,1,48.6449992577362,0|0,3:0|0:0,0:0:0:0:
243,147,141410,1,0,0:0:0:0:
171,241,141682,6,0,P|156:220|150:188,1,48.6449992577362,0|0,3:0|0:0,0:0:0:0:
150,198,141955,1,0,0:0:0:0:
166,317,142228,6,0,P|141:312|114:293,1,48.6449992577362,0|0,3:0|0:0,0:0:0:0:
121,300,142501,1,0,0:0:0:0:
25,128,142773,1,0,3:0:0:0:
223,27,143046,2,0,P|214:69|206:121,1,85.1287487010384
217,125,143319,5,0,3:0:0:0:
284,170,143591,1,0,0:0:0:0:
364,144,143864,1,0,3:0:0:0:
429,192,144137,1,0,0:0:0:0:
467,303,144410,6,0,P|473:279|482:257,1,48.6449992577362,0|0,3:0|0:0,0:0:0:0:
482,256,144682,1,0,0:0:0:0:
404,228,144955,6,0,P|418:208|434:190,1,48.6449992577362,0|0,3:0|0:0,0:0:0:0:
434,189,145227,1,0,0:0:0:0:
375,139,145500,6,0,P|395:126|417:115,1,48.6449992577362,0|0,3:0|0:0,0:0:0:0:
417,114,145772,1,0,0:0:0:0:
381,46,146046,6,0,P|404:42|429:40,1,48.6449992577362,0|0,3:0|0:0,0:0:0:0:
429,39,146318,1,0,0:0:0:0:
305,125,146591,6,0,P|281:121|256:119,1,48.6449992577362,0|0,3:0|0:0,0:0:0:0:
256,119,146864,1,0,0:0:0:0:
129,251,147137,1,0,3:0:0:0:
13,101,147410,2,0,P|52:123|81:157,1,85.1287487010384
76,167,147682,5,0,3:0:0:0:
38,231,147955,1,0,0:0:0:0:
70,295,148228,1,0,3:0:0:0:
15,347,148500,1,0,0:0:0:0:
162,374,148773,6,0,L|218:366,1,48.6449992577362,2|0,3:0|0:0,0:0:0:0:
210,367,149046,1,0,0:0:0:0:
206,295,149319,6,0,L|262:287,1,48.6449992577362,2|0,3:0|0:0,0:0:0:0:
254,288,149592,1,0,0:0:0:0:
255,214,149864,6,0,L|311:206,1,48.6449992577362,0|0,3:0|0:0,0:0:0:0:
303,207,150137,1,0,0:0:0:0:
310,132,150410,6,0,L|366:124,1,48.6449992577362,2|0,3:0|0:0,0:0:0:0:
358,125,150683,1,0,0:0:0:0:
354,54,150955,6,0,L|410:46,1,48.6449992577362,2|0,3:0|0:0,0:0:0:0:
402,47,151228,1,0,0:0:0:0:
466,148,151500,1,2,3:0:0:0:
394,298,151773,6,0,L|377:213,1,85.1287487010384,2|0,0:0|0:0,0:0:0:0:
365,208,152046,5,2,3:0:0:0:
298,253,152318,1,2,0:0:0:0:
218,227,152591,1,2,3:0:0:0:
153,275,152864,1,0,0:0:0:0:
36,147,153137,6,0,P|48:125|77:109,1,48.6449992577362,2|0,3:0|0:0,0:0:0:0:
67,111,153410,1,0,0:0:0:0:
84,33,153682,6,0,P|108:39|130:64,1,48.6449992577362,2|0,3:0|0:0,0:0:0:0:
125,54,153955,1,0,0:0:0:0:
199,56,154228,6,0,P|197:81|178:108,1,48.6449992577362,2|0,3:0|0:0,0:0:0:0:
185,101,154501,1,0,0:0:0:0:
211,178,154773,6,0,P|186:182|155:170,1,48.6449992577362,2|0,3:0|0:0,0:0:0:0:
163,175,155046,1,0,0:0:0:0:
97,206,155319,6,0,P|87:182|92:150,1,48.6449992577362,2|0,3:0|0:0,0:0:0:0:
88,159,155592,1,2,0:0:0:0:
193,289,155864,1,0,3:0:0:0:
295,194,156137,1,0,0:0:0:0:
415,63,156410,5,0,3:0:0:0:
406,139,156682,1,0,0:0:0:0:
403,162,156955,1,2,3:0:0:0:
402,172,157228,2,0,L|405:223,1,48.9037511939392,2|0,0:0|0:0,0:0:0:0:
403,233,157500,6,0,B|362:325|108:356|117:162|212:150|311:170|235:341|235:341|235:341|235:341|132:289|56:354|56:354|89:332|140:351,1,753.997488494911,4|0,1:1|0:0,0:0:0:0:
125,358,159682,6,0,P|100:351|68:361,1,48.6449992577362,8|0,3:2|0:0,0:0:0:0:
40,209,159955,1,8,0:3:0:0:
110,249,160091,1,8,0:0:0:0:
176,208,160228,5,4,0:3:0:0:
181,186,160500,5,4,0:3:0:0:
186,165,160773,5,0,3:0:0:0:
246,50,160910,6,0,L|296:39,2,48.6449992577362,0|0|0,3:0|3:0|3:0,0:0:0:0:
173,88,161319,6,0,P|141:89|114:75,1,61.5825003758697,2|0,0:0|0:0,0:0:0:0:
63,10,161864,6,0,P|85:95|96:200,1,181.642500692911,6|0,1:0|0:0,0:0:0:0:
0,265,162137,2,0,P|30:213|116:213,1,121.095000461941,8|0,0:0|0:0,0:0:0:0:
301,372,162410,1,2,0:0:0:0:
224,255,162546,1,0,1:0:0:0:
436,102,162682,5,10,0:0:0:0:
416,138,162750,1,0,0:0:0:0:
378,156,162818,1,0,0:0:0:0:
338,147,162886,1,0,0:0:0:0:
311,115,162955,2,0,P|272:73|187:76,1,121.095000461941,0|0,1:0|0:0,0:0:0:0:
47,274,163228,2,0,P|35:214|12:128,1,121.095000461941,10|0,0:0|0:0,0:0:0:0:
168,292,163500,1,2,0:0:0:0:
182,311,163569,1,0,0:0:0:0:
196,330,163637,2,0,P|224:315|264:309,1,60.5475002309704,0|0,1:0|0:0,0:0:0:0:
460,375,163773,5,10,0:0:0:0:
419,365,163841,1,0,0:0:0:0:
390,336,163909,1,0,0:0:0:0:
382,295,163977,1,0,0:0:0:0:
397,256,164045,1,0,1:0:0:0:
480,122,164182,1,0,0:0:0:0:
261,251,164319,2,0,P|208:225|121:211,1,121.095000461941,10|0,0:0|0:0,0:0:0:0:
52,110,164523,1,0,0:0:0:0:
69,127,164591,2,0,P|128:114|182:87,1,121.095000461941,0|0,0:0|1:0,0:0:0:0:
393,7,164864,6,0,P|373:31|349:75,1,60.5475002309704,10|0,0:0|0:0,0:0:0:0:
434,239,165000,1,0,0:0:0:0:
257,109,165137,2,0,P|276:134|314:168,1,60.5475002309704,2|0,1:0|0:0,0:0:0:0:
494,189,165273,1,0,0:0:0:0:
494,164,165341,1,0,0:0:0:0:
491,139,165410,2,0,P|424:126|364:184,1,121.095000461941,10|0,0:0|0:0,0:0:0:0:
185,370,165682,2,0,P|207:306|224:239,1,121.095000461941,2|0,0:0|1:0,0:0:0:0:
115,184,165887,1,0,0:0:0:0:
128,164,165955,2,0,P|123:123|111:79,1,60.5475002309704,10|0,0:0|0:0,0:0:0:0:
321,31,166091,5,0,0:0:0:0:
311,53,166160,1,0,0:0:0:0:
300,74,166228,2,0,B|165:107|218:-21|82:13,1,242.190000923881,2|8,1:0|0:0,0:0:0:0:
293,151,166637,1,0,0:0:0:0:
301,173,166705,1,0,0:0:0:0:
305,196,166773,2,0,P|295:226|283:271,1,60.5475002309704
371,343,166910,1,0,1:0:0:0:
209,173,167046,2,0,P|153:182|89:197,1,121.095000461941,10|0,0:0|0:0,0:0:0:0:
277,364,167319,6,0,P|294:302|315:241,1,121.095000461941,2|0,1:0|0:0,0:0:0:0:
436,220,167523,1,0,0:0:0:0:
453,202,167591,2,0,P|435:140|415:79,1,121.095000461941,10|0,0:0|0:0,0:0:0:0:
312,32,167796,1,0,0:0:0:0:
301,53,167864,2,0,P|276:75|226:76,1,60.5475002309704,2|0,0:0|0:0,0:0:0:0:
140,1,168000,1,0,1:0:0:0:
238,170,168137,1,10,0:0:0:0:
216,181,168205,1,0,0:0:0:0:
192,186,168273,2,0,P|164:166|152:118,1,60.5475002309704
335,135,168410,5,2,1:0:0:0:
330,177,168478,1,0,0:0:0:0:
325,219,168546,1,0,0:0:0:0:
320,261,168614,1,0,0:0:0:0:
315,303,168682,1,8,0:0:0:0:
104,357,168819,1,2,0:0:0:0:
99,333,168887,1,0,0:0:0:0:
93,309,168955,2,0,P|148:272|207:313,1,121.095000461941,0|0,0:0|1:0,0:0:0:0:
375,350,169228,2,0,P|320:387|261:346,1,121.095000461941,10|0,0:0|0:0,0:0:0:0:
451,242,169500,6,0,P|464:172|482:99,1,121.095000461941,2|0,1:0|0:0,0:0:0:0:
207,182,169773,1,10,0:0:0:0:
322,32,169910,2,0,P|335:90|346:150,1,121.095000461941,2|0,0:0|0:0,0:0:0:0:
148,248,170182,1,2,1:0:0:0:
115,33,170319,1,10,0:0:0:0:
309,237,170455,5,2,0:0:0:0:
309,237,170523,1,0,0:0:0:0:
309,237,170591,1,2,1:0:0:0:
207,182,170728,1,2,0:0:0:0:
81,382,170864,5,10,0:0:0:0:
187,321,171000,1,2,1:0:0:0:
5,173,171137,2,0,P|16:206|26:243,1,60.5475002309704,2|0,0:0|0:0,0:0:0:0:
98,66,171273,1,2,1:0:0:0:
260,203,171410,2,0,P|248:236|239:273,1,60.5475002309704,10|0,0:0|0:0,0:0:0:0:
167,96,171546,1,2,0:0:0:0:
412,18,171682,5,2,1:0:0:0:
317,151,171819,2,0,P|372:128|443:113,1,121.095000461941,2|8,0:0|0:0,0:0:0:0:
505,293,172091,1,2,0:0:0:0:
480,283,172160,1,0,0:0:0:0:
456,278,172228,1,0,0:0:0:0:
253,384,172364,1,2,1:0:0:0:
313,177,172500,1,10,0:0:0:0:
344,259,172637,1,2,0:0:0:0:
117,364,172773,6,0,P|112:331|99:289,1,60.5475002309704,2|0,1:0|0:0,0:0:0:0:
4,148,172910,2,0,P|58:183|112:142,1,121.095000461941,2|8,0:0|0:0,0:0:0:0:
257,1,173182,1,2,0:0:0:0:
268,22,173250,1,0,0:0:0:0:
279,43,173319,2,0,P|271:72|267:102,1,60.5475002309704,2|0,0:0|0:0,0:0:0:0:
355,212,173455,1,2,1:0:0:0:
185,131,173591,2,0,P|200:156|220:180,1,60.5475002309704,10|0,0:0|0:0,0:0:0:0:
403,149,173728,1,2,0:0:0:0:
267,338,173864,6,0,P|237:325|183:318,1,60.5475002309704,2|0,1:0|0:0,0:0:0:0:
87,366,174000,1,2,0:0:0:0:
311,272,174137,1,10,0:0:0:0:
362,354,174273,2,0,P|420:327|490:314,1,121.095000461941,2|0,0:0|0:0,0:0:0:0:
355,212,174546,1,0,1:0:0:0:
506,46,174682,5,10,0:0:0:0:
502,69,174750,1,0,0:0:0:0:
499,93,174818,1,0,0:0:0:0:
495,117,174886,1,0,0:0:0:0:
492,141,174955,2,0,B|357:174|410:46|274:80,1,242.190000923881,2|8,1:0|0:0,0:0:0:0:
68,100,175364,5,0,0:0:0:0:
68,100,175432,1,0,0:0:0:0:
68,100,175500,2,0,P|126:76|188:57,1,121.095000461941,2|0,0:0|1:0,0:0:0:0:
116,303,175773,2,0,P|66:264|18:220,1,121.095000461941,10|0,0:0|0:0,0:0:0:0:
311,157,176046,2,0,P|302:219|288:282,1,121.095000461941,2|0,1:0|0:0,0:0:0:0:
63,90,176319,2,0,P|121:66|183:47,1,121.095000461941,10|0,0:0|0:0,0:0:0:0:
246,152,176523,1,0,0:0:0:0:
264,167,176591,2,0,P|321:185|377:208,1,121.095000461941,2|0,0:0|1:0,0:0:0:0:
455,294,176796,1,0,0:0:0:0:
449,317,176864,2,0,P|391:335|335:358,1,121.095000461941,10|0,0:0|0:0,0:0:0:0:
131,340,177137,5,2,1:0:0:0:
171,327,177205,1,0,0:0:0:0:
198,296,177273,1,0,0:0:0:0:
206,255,177341,1,0,0:0:0:0:
190,216,177410,2,0,L|54:192,1,121.095000461941,8|0,0:0|0:0,0:0:0:0:
26,85,177614,1,0,0:0:0:0:
43,67,177682,2,0,L|162:88,1,121.095000461941,0|0,0:0|1:0,0:0:0:0:
417,7,177955,2,0,P|357:24|344:108,1,121.095000461941,10|0,0:0|0:0,0:0:0:0:
507,250,178228,5,10,0:0:0:0:
497,203,178296,1,8,0:0:0:0:
465,167,178364,1,8,0:0:0:0:
420,151,178432,1,8,0:0:0:0:
373,160,178500,2,0,P|361:192|348:236,1,60.5475002309704,8|8,0:0|0:0,0:0:0:0:
157,288,178637,2,0,P|146:259|136:230,1,60.5475002309704,8|8,0:3|0:3,0:0:0:0:
303,369,178773,5,6,0:3:0:0:
330,382,178841,1,4,0:3:0:0:
359,384,178909,1,4,0:3:0:0:
388,375,178977,1,4,0:3:0:0:
412,357,179046,5,10,0:0:0:0:
414,339,179114,1,8,0:3:0:0:
415,320,179182,1,8,0:3:0:0:
417,302,179250,1,8,0:3:0:0:
419,284,179319,2,0,P|371:220|288:299,1,181.642500692911,6|0,1:0|0:0,0:0:0:0:
189,366,179591,2,0,P|132:337|63:308,1,121.095000461941,8|0,0:0|0:0,0:0:0:0:
28,139,179864,1,2,0:0:0:0:
192,275,180000,1,0,1:0:0:0:
341,92,180136,5,10,0:0:0:0:
321,56,180204,1,0,0:0:0:0:
283,38,180272,1,0,0:0:0:0:
243,47,180340,1,0,0:0:0:0:
220,84,180410,2,0,P|164:108|110:135,1,121.095000461941,0|0,1:0|0:0,0:0:0:0:
371,230,180682,2,0,P|317:202|261:178,1,121.095000461941,10|0,0:0|0:0,0:0:0:0:
88,311,180954,1,2,0:0:0:0:
105,328,181023,1,0,0:0:0:0:
109,351,181091,2,0,P|138:339|177:330,1,60.5475002309704,0|0,1:0|0:0,0:0:0:0:
214,105,181228,5,10,0:0:0:0:
180,130,181296,1,0,0:0:0:0:
162,168,181364,1,0,0:0:0:0:
165,210,181432,1,0,0:0:0:0:
187,245,181500,1,0,1:0:0:0:
309,303,181637,1,2,0:0:0:0:
391,82,181773,2,0,P|372:138|360:207,1,121.095000461941,10|0,0:0|0:0,0:0:0:0:
448,285,181978,1,0,0:0:0:0:
469,295,182046,2,0,P|450:239|438:170,1,121.095000461941,0|0,0:0|1:0,0:0:0:0:
289,359,182319,6,0,P|260:347|217:341,1,60.5475002309704,10|0,0:0|0:0,0:0:0:0:
92,373,182455,1,0,0:0:0:0:
200,188,182591,2,0,P|171:199|136:224,1,60.5475002309704,2|0,1:0|0:0,0:0:0:0:
360,257,182728,1,0,0:0:0:0:
349,278,182796,1,0,0:0:0:0:
332,295,182864,2,0,P|263:271|203:270,1,121.095000461941,10|0,0:0|0:0,0:0:0:0:
70,147,183137,2,0,P|117:108|173:85,1,121.095000461941,2|0,0:0|1:0,0:0:0:0:
301,182,183341,1,0,0:0:0:0:
278,173,183410,2,0,P|262:140|281:97,1,60.5475002309704,10|0,0:0|0:0,0:0:0:0:
493,27,183546,5,0,0:0:0:0:
489,50,183614,1,0,0:0:0:0:
486,74,183682,2,0,B|454:89|439:110|439:110|385:53|271:33,1,242.190000923881,2|8,1:0|0:0,0:0:0:0:
128,157,184091,1,0,0:0:0:0:
133,180,184160,1,0,0:0:0:0:
151,195,184228,2,0,P|159:161|166:118,1,60.5475002309704
91,42,184364,1,0,1:0:0:0:
258,203,184500,2,0,P|314:182|398:176,1,121.095000461941,10|0,0:0|0:0,0:0:0:0:
262,360,184773,6,0,P|206:339|122:333,1,121.095000461941,2|0,1:0|0:0,0:0:0:0:
19,360,184978,1,0,0:0:0:0:
40,349,185046,2,0,P|51:280|71:205,1,121.095000461941,10|0,0:0|0:0,0:0:0:0:
177,107,185250,1,0,0:0:0:0:
167,129,185319,2,0,P|137:144|98:140,1,60.5475002309704,2|0,0:0|0:0,0:0:0:0:
140,1,185454,1,0,1:0:0:0:
284,138,185591,1,10,0:0:0:0:
290,114,185659,1,0,0:0:0:0:
300,91,185728,2,0,P|330:91|356:105,1,60.5475002309704
498,325,185864,5,2,1:0:0:0:
456,316,185932,1,0,0:0:0:0:
414,308,186000,1,0,0:0:0:0:
373,299,186068,1,0,0:0:0:0:
331,291,186136,1,8,0:0:0:0:
159,363,186273,1,0,0:0:0:0:
200,354,186341,1,0,0:0:0:0:
242,346,186409,1,2,0:0:0:0:
300,220,186546,1,0,1:0:0:0:
82,111,186682,2,0,L|95:241,1,121.095000461941,10|0,0:0|0:0,0:0:0:0:
400,67,186955,6,0,P|341:44|261:6,1,121.095000461941,2|0,1:0|0:0,0:0:0:0:
348,263,187228,2,0,P|396:223|469:173,1,121.095000461941,10|0,0:0|0:0,0:0:0:0:
190,109,187500,2,0,P|200:171|207:259,1,121.095000461941,2|0,0:0|1:0,0:0:0:0:
36,336,187773,5,10,0:0:0:0:
34,323,187841,1,0,0:0:0:0:
33,311,187909,1,0,0:0:0:0:
32,299,187977,1,0,0:0:0:0:
30,287,188046,2,0,P|76:245|209:247,1,181.642500692911,4|0,1:0|0:0,0:0:0:0:
264,338,188319,2,0,P|336:338|375:288,1,121.095000461941,10|0,0:0|0:0,0:0:0:0:
448,127,188591,2,0,P|434:157|423:192,1,60.5475002309704,2|0,0:0|0:0,0:0:0:0:
472,289,188728,1,0,1:0:0:0:
320,109,188864,2,0,P|334:139|345:174,1,60.5475002309704,10|0,0:0|0:0,0:0:0:0:
296,271,189001,1,0,0:0:0:0:
82,83,189137,6,0,P|140:60|220:22,1,121.095000461941,2|0,1:0|0:0,0:0:0:0:
134,279,189410,2,0,P|85:239|12:189,1,121.095000461941,10|0,0:0|0:0,0:0:0:0:
292,125,189682,2,0,P|281:187|274:275,1,121.095000461941,2|0,0:0|1:0,0:0:0:0:
390,62,189955,5,10,0:0:0:0:
379,67,190023,1,0,0:0:0:0:
366,66,190091,1,0,0:0:0:0:
354,62,190160,1,0,0:0:0:0:
350,49,190228,2,0,B|308:17|308:17|248:61|146:41,1,181.642500692911,0|0,1:0|0:0,0:0:0:0:
20,2,190500,2,0,P|79:28|48:91,1,121.095000461941,10|0,0:0|0:0,0:0:0:0:
34,235,190773,2,0,P|59:214|111:207,1,60.5475002309704,2|0,0:0|0:0,0:0:0:0:
195,301,190910,1,0,1:0:0:0:
124,135,191046,2,0,P|150:154|168:203,1,60.5475002309704,10|0,0:0|0:0,0:0:0:0:
95,294,191183,1,0,0:0:0:0:
284,75,191319,6,0,P|344:58|414:51,1,121.095000461941,2|0,1:0|0:0,0:0:0:0:
500,216,191591,2,0,P|442:191|373:176,1,121.095000461941,10|0,0:0|0:0,0:0:0:0:
263,356,191864,2,0,P|317:324|383:301,1,121.095000461941,2|0,0:0|1:0,0:0:0:0:
151,128,192137,5,10,0:0:0:0:
147,151,192205,1,0,0:0:0:0:
144,175,192273,1,0,0:0:0:0:
141,199,192341,1,0,0:0:0:0:
138,223,192410,2,0,P|206:247|253:103,1,242.190000923881,2|8,1:0|0:0,0:0:0:0:
36,45,192819,1,0,0:0:0:0:
36,45,192887,1,0,0:0:0:0:
36,45,192955,2,0,P|58:108|78:177,1,121.095000461941,0|0,0:0|1:0,0:0:0:0:
220,3,193228,2,0,P|307:2|351:119,1,181.642500692911,10|0,0:0|0:0,0:0:0:0:
370,191,193500,6,0,P|431:160|493:140,1,121.095000461941,2|0,1:0|0:0,0:0:0:0:
277,287,193773,2,0,P|334:306|387:334,1,121.095000461941,10|0,0:0|0:0,0:0:0:0:
160,162,194046,2,0,P|213:134|270:114,1,121.095000461941,2|0,0:0|1:0,0:0:0:0:
64,305,194319,2,0,P|121:324|174:352,1,121.095000461941,10|0,0:0|0:0,0:0:0:0:
48,190,194591,2,0,P|37:123|20:51,1,121.095000461941,2|0,1:0|0:0,0:0:0:0:
136,16,194796,1,8,0:3:0:0:
136,16,194864,2,0,P|122:75|113:134,1,121.095000461941,8|0,0:0|0:0,0:0:0:0:
235,216,195137,5,2,3:0:0:0:
246,214,195205,1,0,3:0:0:0:
258,212,195273,1,0,3:0:0:0:
270,210,195341,1,0,3:0:0:0:
282,208,195409,5,8,0:0:0:0:
330,87,195546,1,0,0:0:0:0:
504,303,195682,5,2,1:0:0:0:
371,229,195819,1,0,0:0:0:0:
196,132,195955,5,10,0:0:0:0:
307,94,196092,1,0,0:0:0:0:
282,208,196228,1,2,0:0:0:0:
104,40,196364,5,0,1:0:0:0:
35,277,196500,5,10,0:0:0:0:
83,217,196637,1,0,0:0:0:0:
153,208,196773,1,2,0:0:0:0:
