osu file format v14

[General]
AudioFilename: audio.mp3
AudioLeadIn: 0
PreviewTime: 161250
Countdown: 0
SampleSet: Soft
StackLeniency: 0.4
Mode: 0
LetterboxInBreaks: 0
WidescreenStoryboard: 1

[Editor]
Bookmarks: 410,17864,35319,44046,52773,61500,70228,78955,87682,96410,105137,113864,122591,131319,140046,148773,157500,161864,163773,166228,168410,170591,172773,174955,177137,179319,181228,182319,183682,184773,185864,186955,188046,189137,189955,191319,192410,193500,194591,196773
DistanceSpacing: 1.4
BeatDivisor: 3
GridSize: 32
TimelineZoom: 1.899999

[Metadata]
Title:STIGMA
TitleUnicode:STIGMA
Artist:DUSTCELL
ArtistUnicode:DUSTCELL
Creator:SMOKELIND
Version:ELI'S HARD
Source:
Tags:EMA EM A Misumi Kamitsubaki Studio 神椿スタジオ rei sirose 白瀬玲 Kudou Chitose 久遠千歳 Kudo vtuber youtube virtual youtuber Mechari Kazato Asa Shikibe Mayu Shizuku- Agatsu [_Eli_] Eli Elinor Basensorex Japanese Pop
BeatmapID:2815761
BeatmapSetID:1323916

[Difficulty]
HPDrainRate:4
CircleSize:3.6
OverallDifficulty:7
ApproachRate:8
SliderMultiplier:1.4
SliderTickRate:1

[Events]
//Background and Video events
0,0,"87002337_p0.jpg",0,0
//Break Periods
2,35519,41114
2,96610,102205
2,140110,148023
2,157700,158932
//Storyboard Layer 0 (Background)
//Storyboard Layer 1 (Fail)
//Storyboard Layer 2 (Pass)
//Storyboard Layer 3 (Foreground)
//Storyboard Layer 4 (Overlay)
//Storyboard Sound Samples

[TimingPoints]
410,272.727272727273,4,2,77,77,1,0
410,-100,4,2,77,77,0,0
16910,-100,4,2,77,57,0,0
17319,-166.666666666667,4,2,77,57,0,0
17864,-111.111111111111,4,2,77,57,0,0
35319,-125,4,2,77,47,0,0
44046,-100,4,2,77,77,0,0
61500,-100,4,2,77,77,0,0
78000,-100,4,2,77,57,0,0
78410,-166.666666666667,4,2,77,57,0,0
78955,-111.111111111111,4,2,77,57,0,0
87682,-111.111111111111,4,2,77,57,0,0
96410,-125,4,2,77,47,0,0
105137,-100,4,2,77,77,0,0
122591,-100,4,2,77,77,0,0
139091,-100,4,2,77,57,0,0
139500,-166.666666666667,4,2,77,57,0,0
140046,-125,4,2,77,47,0,0
148773,-250,4,2,77,47,0,0
157500,-250,4,2,7,77,0,0
159614,-250,4,2,77,47,0,0
161864,-100,4,2,77,87,0,1
196773,-100,4,2,77,27,0,0

[Colours]
Combo1 : 106,106,106
Combo2 : 255,193,64

[HitObjects]
56,60,410,6,0,B|120:44|116:116|192:100,1,140,4|10,1:0|0:0,0:0:0:0:
248,48,819,1,2,0:0:0:0:
328,28,955,2,0,L|472:56,1,140,2|10,0:0|0:0,0:0:0:0:
500,132,1364,2,0,L|356:160,1,140,2|2,0:0|0:0,0:0:0:0:
212,232,1910,5,2,1:0:0:0:
212,232,2046,2,0,P|200:268|212:300,1,70,2|0,0:0|1:0,0:0:0:0:
276,352,2319,1,10,0:0:0:0:
444,348,2591,6,0,B|488:288|488:288|448:228,1,140,0|10,1:0|0:0,0:0:0:0:
400,164,3000,1,2,0:0:0:0:
344,100,3137,2,0,B|264:99|292:159|224:159,1,140,2|10,0:0|0:0,0:0:0:0:
140,164,3546,2,0,P|104:108|144:48,1,140,2|2,0:0|0:0,0:0:0:0:
304,28,4091,5,2,1:0:0:0:
304,28,4228,2,0,L|376:40,1,70,2|2,0:0|1:0,0:0:0:0:
452,64,4500,2,0,L|440:132,1,70,10|2,0:0|0:0,0:0:0:0:
420,216,4773,6,0,P|396:268|320:264,1,140,0|10,1:0|0:0,0:0:0:0:
248,224,5182,1,2,0:0:0:0:
180,172,5319,2,0,P|124:196|48:224,1,140,2|8,0:0|0:0,0:0:0:0:
8,296,5728,2,0,P|73:320|138:347,1,140,2|2,0:0|0:0,0:0:0:0:
308,348,6273,5,2,1:0:0:0:
308,348,6410,2,0,P|344:348|368:324,1,70,2|0,0:0|1:0,0:0:0:0:
408,252,6682,1,10,0:0:0:0:
368,88,6955,6,0,B|324:80|324:80|283:105|283:105|232:96,1,140,0|10,1:0|0:0,0:0:0:0:
152,92,7364,1,2,0:0:0:0:
220,32,7500,2,0,P|260:84|224:152,1,140,2|10,0:0|0:0,0:0:0:0:
160,184,7910,2,0,P|120:236|156:304,1,140,2|2,0:0|0:0,0:0:0:0:
308,348,8455,5,2,1:0:0:0:
308,348,8591,2,0,L|376:328,1,70,2|2,0:0|1:0,0:0:0:0:
432,264,8864,2,0,L|364:244,1,70,10|2,0:0|0:0,0:0:0:0:
272,176,9137,6,0,B|236:108|296:108|268:40,1,140,4|10,1:0|0:0,0:0:0:0:
192,8,9546,1,2,0:0:0:0:
164,88,9682,2,0,B|128:116|128:116|40:76,1,140,2|8,0:0|0:0,0:0:0:0:
0,152,10091,2,0,L|128:216,1,140,2|2,0:0|0:0,0:0:0:0:
236,340,10637,5,2,1:0:0:0:
236,340,10773,2,0,P|256:308|256:276,1,70,2|0,0:0|1:0,0:0:0:0:
240,192,11046,1,10,0:0:0:0:
292,32,11319,6,0,B|356:32|344:96|412:96,1,140,0|10,1:0|0:0,0:0:0:0:
492,76,11728,1,2,0:0:0:0:
508,160,11864,2,0,P|497:217|484:300,1,140,2|10,0:0|0:0,0:0:0:0:
412,344,12273,2,0,P|401:274|388:206,1,140,2|2,0:0|0:0,0:0:0:0:
248,132,12819,5,2,1:0:0:0:
248,132,12955,2,0,P|224:112|184:112,1,70,2|2,0:0|1:0,0:0:0:0:
136,176,13228,2,0,P|112:196|72:196,1,70,10|2,0:0|0:0,0:0:0:0:
24,129,13500,6,0,P|20:61|89:32,1,140,0|10,1:0|0:0,0:0:0:0:
160,60,13910,1,2,0:0:0:0:
220,120,14046,2,0,B|260:140|260:140|344:92,1,140,2|8,0:0|0:0,0:0:0:0:
400,28,14455,2,0,P|440:76|412:140,1,140,2|2,0:0|0:0,0:0:0:0:
324,284,15000,5,2,1:0:0:0:
324,284,15137,2,0,L|252:260,1,70,2|0,0:0|1:0,0:0:0:0:
180,296,15410,1,10,0:0:0:0:
40,204,15682,6,0,B|86:191|86:191|105:153|105:153|155:139,1,140,0|10,1:0|0:0,0:0:0:0:
236,132,16091,1,2,0:0:0:0:
276,56,16228,2,0,L|136:20,1,140,2|10,0:0|0:0,0:0:0:0:
56,32,16637,2,0,P|20:68|40:148,1,140,2|2,0:0|0:0,0:0:0:0:
148,276,17182,5,2,0:0:0:0:
148,276,17319,2,0,L|188:260,3,41.9999987182618,2|2|10|0,3:0|0:0|0:3|0:0,0:0:0:0:
296,228,17864,6,0,B|352:224|344:280|408:272,1,125.999996154785,6|8,1:0|0:0,0:0:0:0:
496,148,18410,1,0,0:0:0:0:
388,44,18682,2,0,L|372:104,1,62.9999980773926,10|0,0:0|0:0,0:0:0:0:
304,140,18955,6,0,P|248:140|224:80,1,125.999996154785,2|10,1:0|0:0,0:0:0:0:
164,36,19364,1,0,0:0:0:0:
164,36,19500,2,0,B|136:68|136:68|52:44,1,125.999996154785,2|10,0:0|0:0,0:0:0:0:
12,192,20046,6,0,L|40:316,1,125.999996154785,2|10,1:0|0:0,0:0:0:0:
112,344,20455,1,0,0:0:0:0:
112,344,20591,2,0,L|139:221,1,125.999996154785,0|8,0:0|0:0,0:0:0:0:
264,136,21137,6,0,B|320:136|312:192|372:192,1,125.999996154785,0|8,1:0|0:0,0:0:0:0:
456,160,21546,1,0,0:0:0:0:
456,160,21682,2,0,P|488:116|456:60,1,125.999996154785,0|10,0:0|0:0,0:0:0:0:
284,24,22228,6,0,L|224:48,1,62.9999980773926,2|0,1:0|0:0,0:0:0:0:
144,16,22500,2,0,B|88:24|112:76|44:84,1,125.999996154785,10|2,0:0|0:0,0:0:0:0:
212,144,23046,1,10,0:0:0:0:
80,260,23319,6,0,L|96:320,1,62.9999980773926,2|0,1:0|0:0,0:0:0:0:
168,348,23591,2,0,B|227:359|219:291|279:307,1,125.999996154785,10|0,0:0|0:0,0:0:0:0:
424,264,24137,6,0,P|361:242|304:220,2,125.999996154785,10|2|10,0:0|1:0|0:0,0:0:0:0:
504,136,24955,1,2,0:0:0:0:
416,12,25228,6,0,P|380:12|360:32,1,62.9999980773926,10|0,0:0|0:0,0:0:0:0:
328,104,25500,2,0,P|292:104|272:84,1,62.9999980773926,2|0,1:0|0:0,0:0:0:0:
224,32,25773,2,0,P|168:12|112:44,1,125.999996154785,10|2,0:0|0:0,0:0:0:0:
4,148,26319,1,10,0:0:0:0:
48,292,26591,6,0,B|80:264|80:264|160:300,1,125.999996154785,6|10,1:0|0:0,0:0:0:0:
198,367,27000,1,0,0:0:0:0:
198,367,27137,2,0,P|238:323|222:259,1,125.999996154785,2|10,0:0|0:0,0:0:0:0:
216,108,27682,6,0,L|276:88,1,62.9999980773926,2|0,1:0|0:0,0:0:0:0:
340,48,27955,2,0,B|400:28|400:96|456:80,1,125.999996154785,10|2,0:0|0:0,0:0:0:0:
512,220,28500,1,10,0:0:0:0:
400,328,28773,6,0,L|384:264,1,62.9999980773926,2|0,1:0|0:0,0:0:0:0:
316,232,29046,2,0,L|300:293,1,62.9999980773926,10|0,0:0|0:0,0:0:0:0:
248,348,29319,2,0,P|200:348|164:284,1,125.999996154785,2|8,0:0|0:0,0:0:0:0:
152,136,29864,6,0,B|208:116|212:184|268:164,1,125.999996154785,2|8,1:0|0:0,0:0:0:0:
336,132,30273,1,0,0:0:0:0:
336,132,30410,2,0,B|368:80|368:80|328:28,1,125.999996154785,0|10,0:0|0:0,0:0:0:0:
176,20,30955,6,0,L|116:40,1,62.9999980773926,2|0,1:0|0:0,0:0:0:0:
48,76,31228,2,0,P|20:124|52:184,1,125.999996154785,10|0,0:0|0:0,0:0:0:0:
148,296,31773,1,10,0:0:0:0:
252,188,32046,6,0,L|316:204,1,62.9999980773926,2|0,1:0|0:0,0:0:0:0:
360,264,32319,2,0,B|400:252|400:252|444:276|444:276|480:264,1,125.999996154785,10|2,0:0|0:0,0:0:0:0:
504,116,32864,1,10,0:0:0:0:
372,44,33137,6,0,L|360:108,1,62.9999980773926,2|0,1:0|0:0,0:0:0:0:
288,132,33410,2,0,L|272:72,1,62.9999980773926,10|0,0:0|0:0,0:0:0:0:
208,32,33682,2,0,P|168:52|168:128,1,125.999996154785,2|10,0:0|0:0,0:0:0:0:
280,228,34228,6,0,L|316:216,4,31.4999990386963,2|0|0|0|8,1:0|0:0|0:0|0:0|0:0,0:0:0:0:
152,312,34773,2,0,L|116:300,4,31.4999990386963,0|0|0|0|10,0:0|0:0|1:0|0:0|0:0,0:0:0:0:
280,356,35319,1,6,0:0:0:0:
256,192,41864,12,2,43773,0:0:0:0:
280,356,44046,6,0,B|348:348|324:288|396:280,1,140,6|8,1:0|0:0,0:0:0:0:
476,296,44455,1,0,0:0:0:0:
500,216,44591,2,0,P|468:164|396:164,1,140,2|10,0:0|0:0,0:0:0:0:
272,280,45137,6,0,L|204:256,1,70,2|0,1:0|0:0,0:0:0:0:
152,192,45410,2,0,L|220:168,1,70,10|0,0:0|1:0,0:0:0:0:
296,136,45682,2,0,P|308:100|296:72,1,70,2|0,0:0|1:0,0:0:0:0:
228,20,45955,2,0,P|188:20|160:40,1,70,10|0,0:0|0:0,0:0:0:0:
92,80,46228,6,0,B|60:140|60:140|100:200,1,140,2|8,1:0|0:0,0:0:0:0:
188,344,46773,2,0,B|256:344|244:284|308:284,1,140,2|10,0:0|0:0,0:0:0:0:
376,332,47182,1,0,0:0:0:0:
456,308,47319,6,0,P|468:280|452:244,1,70,2|0,1:0|0:0,0:0:0:0:
376,208,47591,2,0,P|364:180|380:144,1,70,10|0,0:0|1:0,0:0:0:0:
432,80,47864,2,0,L|364:60,1,70,2|0,0:0|1:0,0:0:0:0:
288,24,48137,2,0,L|220:44,1,70,10|0,0:0|0:0,0:0:0:0:
160,100,48410,6,0,B|204:128|204:128|176:212,1,140,2|8,1:0|0:0,0:0:0:0:
152,292,48819,1,0,0:0:0:0:
96,352,48955,2,0,P|48:352|8:276,1,140,0|10,0:0|0:0,0:0:0:0:
12,112,49500,6,0,L|80:88,1,70,2|0,1:0|0:0,0:0:0:0:
128,24,49773,2,0,L|196:48,1,70,10|0,0:0|1:0,0:0:0:0:
232,120,50046,2,0,P|268:120|296:100,1,70,2|0,0:0|1:0,0:0:0:0:
340,28,50319,2,0,P|376:28|404:48,1,70,10|0,0:0|0:0,0:0:0:0:
452,116,50591,6,0,P|436:184|420:260,1,140,2|10,1:0|0:0,0:0:0:0:
404,336,51000,1,0,0:0:0:0:
320,352,51137,2,0,B|272:339|272:339|252:301|252:301|201:289,1,140,2|10,0:0|0:0,0:0:0:0:
48,352,51682,6,0,P|92:304|72:236,1,140,2|8,1:0|0:0,0:0:0:0:
36,164,52091,1,0,1:0:0:0:
92,100,52228,2,0,L|160:120,1,70,0|0,0:0|1:0,0:0:0:0:
208,188,52500,2,0,L|276:168,1,70,10|8,0:0|2:3,0:0:0:0:
360,108,52773,6,0,B|404:156|404:156|360:216,1,140,6|8,1:0|0:0,0:0:0:0:
304,280,53182,1,0,0:0:0:0:
364,336,53319,2,0,P|440:336|468:280,1,140,2|10,0:0|0:0,0:0:0:0:
492,120,53864,6,0,L|424:96,1,70,2|0,1:0|0:0,0:0:0:0:
368,36,54137,2,0,L|301:59,1,70,10|0,0:0|1:0,0:0:0:0:
224,96,54410,2,0,P|208:128|220:160,1,70,2|0,0:0|1:0,0:0:0:0:
288,204,54682,2,0,P|304:236|292:268,1,70,10|0,0:0|0:0,0:0:0:0:
240,332,54955,6,0,B|204:304|204:304|116:344,1,140,2|10,1:0|0:0,0:0:0:0:
32,340,55364,1,0,0:0:0:0:
12,260,55500,2,0,P|28:216|116:212,1,140,0|10,0:0|0:0,0:0:0:0:
260,132,56046,6,0,L|192:112,1,70,2|0,1:0|0:0,0:0:0:0:
148,40,56319,2,0,L|216:20,1,70,10|0,0:0|1:0,0:0:0:0:
300,20,56591,2,0,P|340:20|364:40,1,70,2|0,0:0|1:0,0:0:0:0:
392,116,56864,2,0,P|432:116|456:96,1,70,10|0,0:0|0:0,0:0:0:0:
504,28,57137,6,0,B|464:52|464:52|500:140,1,140,2|8,1:0|0:0,0:0:0:0:
496,224,57546,1,0,0:0:0:0:
440,284,57682,2,0,P|392:284|352:208,1,140,0|10,0:0|0:0,0:0:0:0:
272,60,58227,6,0,P|237:50|204:60,1,70,2|0,1:0|0:0,0:0:0:0:
144,116,58500,2,0,P|132:148|144:180,1,70,10|0,0:0|1:0,0:0:0:0:
196,244,58773,2,0,L|268:228,1,70,2|0,0:0|1:0,0:0:0:0:
344,260,59046,2,0,L|356:328,1,70,10|0,0:0|0:0,0:0:0:0:
284,372,59319,6,0,B|224:380|232:308|160:320,1,140,2|10,1:0|0:0,0:0:0:0:
84,352,59727,1,0,0:0:0:0:
40,280,59864,2,0,B|80:188|80:188|44:164,1,140,2|10,0:0|0:0,0:0:0:0:
164,8,60410,6,0,P|224:29|297:53,1,140,2|8,1:0|0:0,0:0:0:0:
384,96,60819,1,0,1:0:0:0:
383,95,60955,2,0,P|396:124|384:160,1,70,2|0,0:0|1:0,0:0:0:0:
336,244,61228,1,10,0:0:0:0:
152,304,61500,6,0,B|216:288|212:360|288:344,1,140,4|10,1:0|0:0,0:0:0:0:
348,296,61909,1,2,0:0:0:0:
416,348,62046,2,0,P|444:292|404:228,1,140,2|10,0:0|0:0,0:0:0:0:
324,220,62455,2,0,P|296:164|336:100,1,140,2|2,0:0|0:0,0:0:0:0:
484,32,63000,5,2,1:0:0:0:
484,32,63136,2,0,L|416:56,1,70,2|0,0:0|1:0,0:0:0:0:
340,24,63409,1,10,0:0:0:0:
172,32,63682,6,0,B|135:86|135:86|179:146,1,140,0|10,1:0|0:0,0:0:0:0:
228,216,64090,1,2,0:0:0:0:
276,148,64227,2,0,B|356:147|328:207|396:207,1,140,2|10,0:0|0:0,0:0:0:0:
448,140,64637,2,0,B|408:164|408:164|448:256,1,140,2|2,0:0|0:0,0:0:0:0:
312,352,65181,5,2,1:0:0:0:
312,352,65318,2,0,L|244:332,1,70,2|2,0:0|1:0,0:0:0:0:
196,264,65591,2,0,L|128:284,1,70,10|2,0:0|0:0,0:0:0:0:
72,348,65864,6,0,P|36:300|64:228,1,140,0|10,1:0|0:0,0:0:0:0:
116,168,66272,1,2,0:0:0:0:
200,152,66409,2,0,P|256:176|332:204,1,140,2|8,0:0|0:0,0:0:0:0:
368,280,66818,2,0,P|432:253|498:228,1,140,2|2,0:0|0:0,0:0:0:0:
504,60,67363,5,2,1:0:0:0:
504,60,67500,2,0,L|484:132,1,70,2|0,0:0|1:0,0:0:0:0:
412,164,67772,1,10,0:0:0:0:
312,28,68046,6,0,P|252:28|208:88,1,140,0|10,1:0|0:0,0:0:0:0:
204,172,68454,1,2,0:0:0:0:
256,240,68591,2,0,B|300:268|300:268|380:232,1,140,2|10,0:0|0:0,0:0:0:0:
420,156,69000,2,0,P|456:172|456:264,1,140,2|2,0:0|0:0,0:0:0:0:
312,348,69545,5,2,1:0:0:0:
312,348,69682,2,0,L|244:328,1,70,2|2,0:0|1:0,0:0:0:0:
188,264,69954,2,0,L|120:284,1,70,10|2,0:0|0:0,0:0:0:0:
13,326,70228,6,0,P|27:234|33:184,1,140,4|10,1:0|0:0,0:0:0:0:
107,148,70636,1,2,0:0:0:0:
190,134,70773,2,0,B|262:134|242:206|302:206,1,140,2|8,0:0|0:0,0:0:0:0:
376,167,71182,2,0,B|416:107|416:107|372:51,1,140,2|2,0:0|0:0,0:0:0:0:
210,14,71727,5,2,1:0:0:0:
210,14,71863,2,0,P|178:14|150:38,1,70,2|0,0:0|1:0,0:0:0:0:
106,110,72136,1,10,0:0:0:0:
196,264,72409,6,0,B|132:264|144:328|76:328,1,140,0|10,1:0|0:0,0:0:0:0:
24,264,72818,1,2,0:0:0:0:
16,180,72955,2,0,P|29:111|39:42,1,140,2|10,0:0|0:0,0:0:0:0:
116,8,73364,2,0,P|126:77|139:145,1,140,2|2,0:0|0:0,0:0:0:0:
256,268,73909,5,2,1:0:0:0:
256,268,74045,2,0,L|324:248,1,70,2|2,0:0|1:0,0:0:0:0:
372,180,74319,2,0,L|304:160,1,70,10|2,0:0|0:0,0:0:0:0:
220,172,74591,6,0,P|220:112|288:76,1,140,0|10,1:0|0:0,0:0:0:0:
368,84,75000,1,2,0:0:0:0:
448,104,75137,2,0,B|488:128|488:128|456:224,1,140,2|8,0:0|0:0,0:0:0:0:
412,284,75546,2,0,B|344:284|372:348|292:348,1,140,2|2,0:0|0:0,0:0:0:0:
172,232,76090,5,2,1:0:0:0:
172,232,76227,2,0,L|244:208,1,70,2|0,0:0|1:0,0:0:0:0:
292,144,76500,1,10,0:0:0:0:
164,32,76773,6,0,P|88:32|56:80,1,140,0|10,1:0|0:0,0:0:0:0:
44,164,77181,1,2,0:0:0:0:
88,236,77319,2,0,B|120:260|120:260|216:228,1,140,2|10,0:0|0:0,0:0:0:0:
268,164,77727,2,0,P|304:200|284:280,1,140,2|2,0:0|0:0,0:0:0:0:
128,344,78273,5,2,0:0:0:0:
128,344,78410,2,0,L|88:328,3,41.9999987182618,2|2|2|2,0:0|0:0|0:0|0:0,0:0:0:0:
16,252,78955,6,0,P|0:188|36:140,1,125.999996154785,6|10,1:0|0:0,0:0:0:0:
100,108,79364,1,10,0:0:0:0:
100,108,79500,2,0,L|224:144,1,125.999996154785,2|10,0:0|0:0,0:0:0:0:
324,256,80046,6,0,B|384:236|384:296|448:280,1,125.999996154785,2|0,0:0|0:0,0:0:0:0:
496,228,80455,1,10,0:0:0:0:
496,228,80591,2,0,P|496:160|452:128,1,125.999996154785,2|8,0:0|0:0,0:0:0:0:
324,44,81137,6,0,B|300:72|300:72|212:44,1,125.999996154785,2|0,0:0|0:0,0:0:0:0:
140,32,81546,1,10,0:0:0:0:
140,32,81682,2,0,P|112:88|144:140,1,125.999996154785,2|0,0:0|0:0,0:0:0:0:
244,248,82228,6,0,B|288:240|288:240|320:256|320:256|364:248,1,125.999996154785,2|0,0:0|0:0,0:0:0:0:
440,275,82637,1,10,0:0:0:0:
440,275,82773,2,0,P|456:235|400:183,1,125.999996154785,2|8,0:0|0:0,0:0:0:0:
247,163,83319,6,0,L|187:188,1,62.9999980773926,2|2,0:0|0:0,0:0:0:0:
119,217,83591,2,0,L|62:189,1,62.9999980773926,10|10,0:0|0:0,0:0:0:0:
42,116,83864,1,2,0:0:0:0:
160,21,84137,1,10,0:0:0:0:
260,136,84410,6,0,P|308:136|348:72,1,125.999996154785,2|10,0:0|0:0,0:0:0:0:
420,48,84819,1,8,0:0:0:0:
420,48,84955,2,0,L|444:176,1,125.999996154785,2|8,0:0|0:0,0:0:0:0:
420,320,85500,6,0,P|360:320|316:272,1,125.999996154785,2|10,0:0|0:0,0:0:0:0:
300,200,85910,1,8,0:0:0:0:
300,200,86046,2,0,L|424:164,1,125.999996154785,2|8,0:0|0:0,0:0:0:0:
500,36,86591,6,0,P|480:16|444:16,1,62.9999980773926,2|2,0:0|0:0,0:0:0:0:
384,56,86864,2,0,P|364:76|328:76,1,62.9999980773926,10|10,0:0|0:0,0:0:0:0:
260,48,87137,1,2,0:0:0:0:
83,52,87410,2,0,L|40:67,2,41.9999987182618,12|12|12,2:3|0:3|0:3,0:0:0:0:
40,92,87682,6,0,B|72:112|72:112|48:200,1,125.999996154785,2|8,1:0|0:0,0:0:0:0:
36,272,88091,1,2,0:0:0:0:
36,272,88228,2,0,P|68:292|92:292,1,62.9999980773926,2|2,1:0|0:0,0:0:0:0:
156,252,88500,1,10,0:0:0:0:
156,252,88637,2,0,B|212:240|212:304|268:292,1,125.999996154785,2|2,0:0|0:0,0:0:0:0:
336,256,89046,6,0,L|320:196,1,62.9999980773926,10|10,0:0|0:0,0:0:0:0:
340,120,89319,2,0,P|388:92|444:136,1,125.999996154785,2|10,1:0|0:0,0:0:0:0:
472,276,89864,6,0,B|424:312|424:312|360:284,1,125.999996154785,2|10,1:0|0:0,0:0:0:0:
292,260,90273,1,10,0:0:0:0:
292,260,90410,2,0,L|232:284,1,62.9999980773926,2|2,1:0|0:0,0:0:0:0:
180,336,90682,2,0,L|120:320,1,62.9999980773926,10|2,0:0|0:0,0:0:0:0:
64,268,90955,1,2,1:0:0:0:
96,120,91228,6,0,P|120:100|152:100,1,62.9999980773926,10|0,0:0|0:0,0:0:0:0:
220,128,91500,2,0,B|276:108|276:180|336:156,1,125.999996154785,2|10,1:0|0:0,0:0:0:0:
460,40,92046,6,0,P|404:40|380:100,1,125.999996154785,2|8,1:0|0:0,0:0:0:0:
428,162,92455,1,0,0:0:0:0:
428,162,92591,2,0,L|488:178,1,62.9999980773926,2|0,1:0|0:0,0:0:0:0:
492,254,92864,2,0,B|428:258|452:310|380:314,1,125.999996154785,10|0,0:0|0:0,0:0:0:0:
236,280,93410,6,0,L|256:156,2,125.999996154785,10|2|8,0:0|1:0|0:0,0:0:0:0:
180,332,94091,1,2,0:0:0:0:
180,332,94228,2,0,P|156:324|120:316,1,62.9999980773926,2|2,1:0|0:0,0:0:0:0:
84,248,94500,2,0,P|114:241|144:231,1,62.9999980773926,10|10,0:0|0:0,0:0:0:0:
180,164,94773,1,2,1:0:0:0:
48,88,95046,1,10,0:0:0:0:
188,32,95319,6,0,L|180:64,4,31.4999990386963,2|0|0|0|10,1:0|0:0|0:0|0:0|0:0,0:0:0:0:
292,140,95864,2,0,L|284:109,4,31.4999990386963,2|0|0|0|0,1:0|0:0|0:0|0:0|3:0,0:0:0:0:
376,36,96410,1,6,0:0:0:0:
256,192,102955,12,2,104864,0:0:0:0:
376,36,105137,6,0,B|416:60|416:60|380:152,1,140,6|8,1:0|0:0,0:0:0:0:
336,220,105546,1,0,0:0:0:0:
276,160,105682,2,0,P|212:144|172:196,1,140,2|10,0:0|0:0,0:0:0:0:
52,316,106228,6,0,L|36:248,1,70,2|0,1:0|0:0,0:0:0:0:
88,184,106500,2,0,L|104:116,1,70,10|0,0:0|1:0,0:0:0:0:
44,60,106773,2,0,P|72:36|104:36,1,70,2|0,0:0|1:0,0:0:0:0:
176,80,107046,2,0,P|204:104|236:104,1,70,10|0,0:0|0:0,0:0:0:0:
292,44,107319,6,0,B|356:36|340:108|412:100,1,140,2|8,1:0|0:0,0:0:0:0:
472,256,107864,2,0,L|340:300,1,140,2|10,0:0|0:0,0:0:0:0:
268,344,108273,1,0,0:0:0:0:
188,312,108410,6,0,P|176:284|192:248,1,70,2|0,1:0|0:0,0:0:0:0:
268,216,108682,2,0,P|280:188|264:152,1,70,10|0,0:0|1:0,0:0:0:0:
204,96,108955,2,0,L|136:116,1,70,2|0,0:0|1:0,0:0:0:0:
88,184,109228,2,0,L|20:164,1,70,10|0,0:0|0:0,0:0:0:0:
8,80,109500,6,0,P|40:32|120:32,1,140,2|8,1:0|0:0,0:0:0:0:
172,92,109910,1,0,0:0:0:0:
224,160,110046,2,0,P|272:160|312:84,1,140,0|10,0:0|0:0,0:0:0:0:
472,36,110591,6,0,L|456:104,1,70,2|0,1:0|0:0,0:0:0:0:
396,164,110864,2,0,L|416:232,1,70,10|0,0:0|1:0,0:0:0:0:
428,316,111137,2,0,P|392:316|364:296,1,70,2|0,0:0|1:0,0:0:0:0:
324,224,111410,2,0,P|288:224|260:244,1,70,10|0,0:0|0:0,0:0:0:0:
240,324,111682,6,0,B|192:311|192:311|170:276|170:276|118:264,1,140,2|10,1:0|0:0,0:0:0:0:
40,308,112091,1,0,0:0:0:0:
12,228,112228,2,0,L|44:88,1,140,2|10,0:0|0:0,0:0:0:0:
212,136,112773,6,0,B|284:144|260:204|324:212,1,140,2|8,1:0|0:0,0:0:0:0:
396,172,113182,1,0,1:0:0:0:
416,92,113319,2,0,L|348:72,1,70,0|0,0:0|1:0,0:0:0:0:
276,28,113591,2,0,L|208:52,1,70,10|8,0:0|2:3,0:0:0:0:
112,120,113864,6,0,P|112:176|180:212,1,140,6|8,1:0|0:0,0:0:0:0:
264,220,114273,1,0,0:0:0:0:
308,148,114410,2,0,L|448:180,1,140,2|10,0:0|0:0,0:0:0:0:
476,344,114955,6,0,P|436:344|412:320,1,70,2|0,1:0|0:0,0:0:0:0:
352,268,115228,2,0,P|312:268|288:292,1,70,10|0,0:0|1:0,0:0:0:0:
232,348,115500,2,0,L|164:328,1,70,2|0,0:0|1:0,0:0:0:0:
116,260,115773,2,0,L|184:240,1,70,10|0,0:0|0:0,0:0:0:0:
264,212,116046,6,0,B|300:240|300:240|388:200,1,140,2|10,1:0|0:0,0:0:0:0:
440,136,116455,1,0,0:0:0:0:
412,56,116591,2,0,P|345:50|312:107,1,140,0|10,0:0|0:0,0:0:0:0:
176,204,117137,6,0,L|108:184,1,70,2|0,1:0|0:0,0:0:0:0:
64,112,117410,2,0,L|132:92,1,70,10|0,0:0|1:0,0:0:0:0:
200,44,117682,2,0,P|212:80|220:112,1,70,2|0,0:0|1:0,0:0:0:0:
288,164,117955,2,0,P|296:130|307:96,1,70,10|0,0:0|0:0,0:0:0:0:
356,28,118228,6,0,B|420:16|404:88|480:76,1,140,2|8,1:0|0:0,0:0:0:0:
500,160,118637,1,0,0:0:0:0:
476,240,118773,2,0,P|424:240|380:168,1,140,0|10,0:0|0:0,0:0:0:0:
268,44,119318,6,0,P|224:44|204:60,1,70,2|0,1:0|0:0,0:0:0:0:
164,132,119591,2,0,P|120:132|100:116,1,70,10|0,0:0|1:0,0:0:0:0:
36,64,119864,2,0,L|24:132,1,70,2|0,0:0|1:0,0:0:0:0:
16,216,120137,2,0,L|36:284,1,70,10|0,0:0|0:0,0:0:0:0:
88,348,120410,6,0,B|148:356|140:284|212:296,1,140,2|10,1:0|0:0,0:0:0:0:
292,316,120818,1,0,0:0:0:0:
372,344,120955,2,0,P|388:288|332:236,1,140,2|10,0:0|0:0,0:0:0:0:
176,176,121500,6,0,B|224:160|224:160|260:176|260:176|308:164,1,140,2|10,1:0|0:0,0:0:0:0:
392,148,121910,1,0,1:0:0:0:
404,64,122046,2,0,P|384:32|352:24,1,70,2|0,0:0|1:0,0:0:0:0:
272,24,122319,1,10,0:0:0:0:
104,40,122591,6,0,P|68:96|104:152,1,140,4|10,1:0|0:0,0:0:0:0:
172,200,123000,1,2,0:0:0:0:
252,176,123137,2,0,B|320:180|292:244|360:252,1,140,2|10,0:0|0:0,0:0:0:0:
432,208,123546,2,0,P|464:256|428:324,1,140,2|2,0:0|0:0,0:0:0:0:
264,352,124091,5,2,1:0:0:0:
264,352,124227,2,0,L|196:336,1,70,2|0,0:0|1:0,0:0:0:0:
148,264,124500,1,10,0:0:0:0:
312,224,124773,6,0,B|356:164|356:164|319:110,1,140,0|10,1:0|0:0,0:0:0:0:
268,44,125181,1,2,0:0:0:0:
184,36,125319,2,0,L|52:88,1,140,2|10,0:0|0:0,0:0:0:0:
16,164,125728,2,0,L|152:204,1,140,2|2,0:0|0:0,0:0:0:0:
312,156,126272,5,2,1:0:0:0:
312,156,126409,2,0,L|328:224,1,70,2|2,0:0|1:0,0:0:0:0:
392,276,126682,2,0,L|404:204,1,70,10|2,0:0|0:0,0:0:0:0:
496,136,126955,6,0,P|468:92|384:92,1,140,0|10,1:0|0:0,0:0:0:0:
316,48,127363,1,2,0:0:0:0:
268,120,127500,2,0,B|196:112|224:56|152:48,1,140,2|8,0:0|0:0,0:0:0:0:
72,72,127910,2,0,P|40:112|76:188,1,140,2|2,0:0|0:0,0:0:0:0:
184,312,128454,5,2,1:0:0:0:
184,312,128591,2,0,L|256:296,1,70,2|0,0:0|1:0,0:0:0:0:
320,248,128863,1,10,0:0:0:0:
456,348,129137,6,0,B|500:296|500:296|460:236,1,140,0|10,1:0|0:0,0:0:0:0:
396,180,129545,1,2,0:0:0:0:
316,152,129682,2,0,P|348:100|420:100,1,140,2|10,0:0|0:0,0:0:0:0:
496,60,130091,2,0,L|356:28,1,140,2|2,0:0|0:0,0:0:0:0:
220,120,130636,5,2,1:0:0:0:
220,120,130773,2,0,L|208:188,1,70,2|2,0:0|1:0,0:0:0:0:
140,240,131046,2,0,L|124:172,1,70,10|2,0:0|0:0,0:0:0:0:
50,84,131319,6,0,P|84:43|164:58,1,140,4|10,1:0|0:0,0:0:0:0:
220,120,131728,1,2,0:0:0:0:
284,174,131864,2,0,B|342:174|322:102|394:102,1,140,2|8,0:0|0:0,0:0:0:0:
460,154,132273,2,0,B|500:94|500:94|456:38,1,140,2|2,0:0|0:0,0:0:0:0:
291,21,132818,5,2,1:0:0:0:
291,21,132954,2,0,P|259:21|231:45,1,70,2|0,0:0|1:0,0:0:0:0:
184,115,133227,1,10,0:0:0:0:
220,279,133500,6,0,L|355:316,1,140,0|10,1:0|0:0,0:0:0:0:
412,253,133910,1,2,0:0:0:0:
428,170,134046,2,0,P|368:134|308:162,1,140,2|10,0:0|0:0,0:0:0:0:
254,225,134455,2,0,P|198:257|138:217,1,140,2|2,0:0|0:0,0:0:0:0:
72,66,135000,5,2,1:0:0:0:
72,66,135136,2,0,L|88:134,1,70,2|2,0:0|1:0,0:0:0:0:
152,190,135410,2,0,L|168:122,1,70,10|2,0:0|0:0,0:0:0:0:
194,42,135682,6,0,B|238:34|238:34|278:62|278:62|326:54,1,140,0|10,1:0|0:0,0:0:0:0:
395,98,136091,1,2,0:0:0:0:
465,52,136228,2,0,P|505:84|481:168,1,140,2|8,0:0|0:0,0:0:0:0:
428,221,136637,2,0,B|351:221|379:157|311:157,1,140,2|2,0:0|0:0,0:0:0:0:
164,228,137181,5,2,1:0:0:0:
164,228,137318,2,0,L|180:296,1,70,2|0,0:0|1:0,0:0:0:0:
248,344,137591,1,10,0:0:0:0:
416,344,137864,6,0,P|444:288|408:224,1,140,0|10,1:0|0:0,0:0:0:0:
364,156,138272,1,2,0:0:0:0:
300,100,138410,2,0,L|164:148,1,140,2|10,0:0|0:0,0:0:0:0:
116,212,138819,2,0,L|256:252,1,140,2|2,0:0|0:0,0:0:0:0:
392,344,139364,5,2,0:0:0:0:
392,344,139501,2,0,L|432:328,3,41.9999987182618,2|2|2|2,0:0|0:0|0:0|0:0,0:0:0:0:
430,328,148773,6,0,L|376:308,3,56,2|0|2|0,3:0|0:0|3:0|0:0,0:0:0:0:
336,244,149864,6,0,L|390:224,3,56,0|0|2|0,3:0|0:0|3:0|0:0,0:0:0:0:
428,160,150955,6,0,L|374:140,3,56,2|0|2|2,3:0|0:0|3:0|0:0,0:0:0:0:
324,84,152046,6,0,L|272:108,1,56,2|2,3:0|0:0,0:0:0:0:
220,164,152591,2,0,L|164:144,1,56,2|0,3:0|0:0,0:0:0:0:
72,120,153137,6,0,L|88:176,3,56,2|0|2|0,3:0|0:0|3:0|0:0,0:0:0:0:
152,216,154228,6,0,L|136:272,3,56,2|0|2|0,3:0|0:0|3:0|0:0,0:0:0:0:
68,300,155319,6,0,L|88:356,3,56,2|2|0|0,3:0|0:0|3:0|0:0,0:0:0:0:
164,364,156410,6,0,P|196:364|220:348,1,56,0|0,3:0|0:0,0:0:0:0:
248,284,156955,2,0,P|280:284|304:300,1,56,2|2,3:0|0:0,0:0:0:0:
388,352,157500,5,4,1:1:0:0:
256,192,159682,12,2,161319,0:0:0:0:
388,352,161864,6,0,P|452:352|484:288,1,140,6|8,1:0|0:0,0:0:0:0:
484,208,162273,1,0,0:0:0:0:
440,136,162410,2,0,L|372:116,1,70,2|0,0:0|1:0,0:0:0:0:
304,68,162682,6,0,B|240:68|264:132|188:132,1,140,10|0,0:0|1:0,0:0:0:0:
124,188,163091,1,0,0:0:0:0:
64,128,163228,2,0,P|52:92|64:64,1,70,10|0,0:0|0:0,0:0:0:0:
132,16,163500,2,0,P|164:4|200:16,1,70,2|0,0:0|1:0,0:0:0:0:
312,16,163773,6,0,L|448:56,1,140,10|0,0:0|1:0,0:0:0:0:
508,112,164182,1,0,0:0:0:0:
441,164,164319,2,0,B|405:188|405:188|449:284,1,140,10|0,0:0|0:0,0:0:0:0:
473,355,164728,1,0,1:0:0:0:
388,360,164864,6,0,L|320:340,1,70,10|0,0:0|0:0,0:0:0:0:
264,276,165137,2,0,L|196:296,1,70,2|0,1:0|0:0,0:0:0:0:
144,364,165410,2,0,L|76:344,1,70,10|0,0:0|0:0,0:0:0:0:
20,280,165682,2,0,P|8:244|20:212,1,70,2|0,0:0|1:0,0:0:0:0:
96,180,165955,2,0,P|108:144|96:112,1,70,10|0,0:0|0:0,0:0:0:0:
4,48,166228,6,0,B|44:72|44:72|132:32,1,140,2|8,1:0|0:0,0:0:0:0:
212,32,166637,1,0,0:0:0:0:
284,76,166773,2,0,L|268:144,1,70,0|0,0:0|1:0,0:0:0:0:
200,192,167046,2,0,P|192:228|208:260,1,70,10|0,0:0|0:0,0:0:0:0:
264,316,167319,6,0,B|328:292|328:368|392:344,1,140,2|10,1:0|0:0,0:0:0:0:
476,324,167728,1,0,0:0:0:0:
480,240,167864,2,0,L|408:220,1,70,2|0,0:0|1:0,0:0:0:0:
360,156,168137,2,0,L|432:136,1,70,10|0,0:0|0:0,0:0:0:0:
496,44,168410,6,0,B|432:68|432:-4|364:16,1,140,2|8,1:0|0:0,0:0:0:0:
284,36,168819,2,0,L|264:176,1,140,2|0,0:0|1:0,0:0:0:0:
192,216,169228,2,0,L|212:288,1,70,10|0,0:0|0:0,0:0:0:0:
160,348,169500,6,0,P|128:332|92:324,1,70,2|0,1:0|0:0,0:0:0:0:
44,256,169773,1,10,0:0:0:0:
44,256,169910,2,0,P|80:248|112:236,1,70,2|0,0:0|0:0,0:0:0:0:
176,184,170182,1,2,1:0:0:0:
116,124,170319,1,10,0:0:0:0:
116,124,170455,1,2,0:0:0:0:
184,32,170591,6,0,P|208:12|248:12,1,70,2|2,1:0|0:0,0:0:0:0:
284,88,170864,2,0,P|311:109|345:108,1,70,10|2,0:0|1:0,0:0:0:0:
384,32,171137,2,0,L|452:48,1,70,2|2,0:0|1:0,0:0:0:0:
500,116,171410,1,10,0:0:0:0:
500,116,171546,1,2,0:0:0:0:
492,200,171682,6,0,L|356:236,1,140,2|8,1:0|0:0,0:0:0:0:
329,315,172091,2,0,L|193:279,1,140,2|2,0:0|1:0,0:0:0:0:
114,249,172500,2,0,P|99:224|99:181,1,70,10|2,0:0|0:0,0:0:0:0:
193,119,172773,5,2,1:0:0:0:
263,166,172910,2,0,B|311:190|311:190|387:146,1,140,2|2,0:0|0:0,0:0:0:0:
432,76,173319,1,2,0:0:0:0:
360,32,173455,2,0,P|288:16|248:64,1,140,2|2,1:0|0:0,0:0:0:0:
196,128,173864,5,2,1:0:0:0:
196,128,174000,1,2,0:0:0:0:
204,212,174137,1,10,0:0:0:0:
284,244,174273,2,0,B|349:247|337:183|405:187,1,140,2|0,0:0|1:0,0:0:0:0:
476,232,174682,2,0,P|490:262|478:294,1,70,10|0,0:0|0:0,0:0:0:0:
384,360,174955,6,0,L|244:328,1,140,2|8,1:0|0:0,0:0:0:0:
164,316,175364,1,0,0:0:0:0:
92,272,175500,2,0,P|80:240|92:208,1,70,2|0,0:0|1:0,0:0:0:0:
168,176,175773,2,0,P|180:144|168:112,1,70,10|0,0:0|0:0,0:0:0:0:
112,48,176046,6,0,L|44:64,1,70,2|0,1:0|0:0,0:0:0:0:
4,140,176319,2,0,L|20:208,1,70,10|0,0:0|0:0,0:0:0:0:
64,280,176591,2,0,B|132:260|132:332|196:308,1,140,2|10,0:0|0:0,0:0:0:0:
272,276,177000,1,0,0:0:0:0:
360,348,177137,6,0,P|392:308|372:228,1,140,2|8,1:0|0:0,0:0:0:0:
312,168,177546,1,0,0:0:0:0:
232,148,177682,2,0,L|160:132,1,70,0|0,0:0|1:0,0:0:0:0:
136,52,177955,2,0,L|208:36,1,70,10|0,0:0|0:0,0:0:0:0:
316,12,178228,6,0,L|352:24,4,35,10|8|8|8|8,0:0|0:0|0:0|0:0|0:0,0:0:0:0:
448,116,178773,6,0,L|412:128,3,35,6|4|4|4,0:3|0:3|0:3|0:3,0:0:0:0:
388,160,179046,2,0,L|354:148,3,35,10|8|8|8,0:0|0:3|0:3|0:3,0:0:0:0:
316,136,179319,6,0,B|256:136|276:204|200:204,1,140,6|8,1:0|0:0,0:0:0:0:
132,156,179728,1,0,0:0:0:0:
60,200,179865,2,0,P|52:236|64:268,1,70,2|0,0:0|1:0,0:0:0:0:
148,344,180137,6,0,B|196:332|196:332|236:356|236:356|280:344,1,140,10|0,0:0|1:0,0:0:0:0:
340,284,180546,1,0,0:0:0:0:
280,224,180683,2,0,P|268:188|280:160,1,70,10|0,0:0|0:0,0:0:0:0:
332,96,180955,2,0,P|368:84|396:96,1,70,2|0,0:0|1:0,0:0:0:0:
496,152,181228,6,0,B|472:296,1,140,10|0,0:0|1:0,0:0:0:0:
424,359,181637,1,2,0:0:0:0:
356,309,181773,2,0,B|292:297|308:377|232:361,1,140,10|0,0:0|0:0,0:0:0:0:
156,331,182183,1,0,1:0:0:0:
46,295,182319,6,0,L|30:227,1,70,10|0,0:0|0:0,0:0:0:0:
60,148,182591,2,0,L|72:76,1,70,2|0,1:0|0:0,0:0:0:0:
137,26,182864,2,0,L|205:42,1,70,10|0,0:0|0:0,0:0:0:0:
264,104,183137,2,0,P|300:104|328:84,1,70,2|0,0:0|1:0,0:0:0:0:
384,24,183410,2,0,P|420:24|448:44,1,70,10|0,0:0|0:0,0:0:0:0:
476,156,183682,6,0,P|496:216|452:272,1,140,2|8,1:0|0:0,0:0:0:0:
376,312,184092,1,0,0:0:0:0:
300,348,184228,2,0,L|232:328,1,70,0|0,0:0|1:0,0:0:0:0:
168,276,184500,2,0,P|156:244|168:208,1,70,10|0,0:0|0:0,0:0:0:0:
268,160,184773,6,0,B|300:76|300:76|256:44,1,140,2|10,1:0|0:0,0:0:0:0:
180,16,185183,1,0,0:0:0:0:
96,32,185319,2,0,P|72:60|72:92,1,70,2|0,0:0|1:0,0:0:0:0:
96,172,185591,2,0,P|124:196|156:196,1,70,10|0,0:0|0:0,0:0:0:0:
268,160,185865,6,0,B|333:140|333:212|397:188,1,140,2|8,1:0|0:0,0:0:0:0:
470,147,186273,1,0,0:0:0:0:
504,228,186410,2,0,L|492:296,1,70,2|0,0:0|1:0,0:0:0:0:
428,352,186682,2,0,L|360:336,1,70,10|0,0:0|0:0,0:0:0:0:
285,249,186955,6,0,P|225:249|197:317,1,140,2|10,1:0|0:0,0:0:0:0:
121,352,187364,1,0,0:0:0:0:
49,308,187500,2,0,P|37:272|49:244,1,70,2|0,0:0|1:0,0:0:0:0:
131,225,187773,2,0,P|143:189|131:161,1,70,10|0,0:0|0:0,0:0:0:0:
68,64,188046,6,0,L|204:108,1,140,4|10,1:0|0:0,0:0:0:0:
272,151,188455,1,0,0:0:0:0:
354,137,188591,2,0,P|370:105|358:73,1,70,2|0,0:0|1:0,0:0:0:0:
297,16,188864,2,0,P|264:5|233:19,1,70,10|0,0:0|0:0,0:0:0:0:
121,36,189137,6,0,B|61:44|89:108|13:116,1,140,2|10,1:0|0:0,0:0:0:0:
6,199,189546,1,0,0:0:0:0:
20,281,189682,2,0,L|36:357,1,70,2|0,0:0|1:0,0:0:0:0:
148,358,189955,6,0,B|194:345|194:345|218:310|218:310|268:296,1,140,10|0,0:0|1:0,0:0:0:0:
331,350,190364,1,0,0:0:0:0:
404,312,190500,2,0,P|416:276|404:244,1,70,10|0,0:0|0:0,0:0:0:0:
360,176,190773,2,0,L|288:156,1,70,2|0,0:0|1:0,0:0:0:0:
260,80,191046,2,0,L|332:60,1,70,10|0,0:0|0:0,0:0:0:0:
444,56,191319,6,0,P|480:80|460:168,1,140,2|10,1:0|0:0,0:0:0:0:
416,236,191728,1,0,0:0:0:0:
364,300,191864,2,0,L|296:280,1,70,2|0,0:0|1:0,0:0:0:0:
236,220,192137,2,0,L|168:240,1,70,10|0,0:0|0:0,0:0:0:0:
136,352,192410,6,0,B|72:340|100:280|32:268,1,140,2|8,1:0|0:0,0:0:0:0:
4,188,192819,1,0,0:0:0:0:
45,115,192955,2,0,P|83:115|106:136,1,70,0|0,0:0|1:0,0:0:0:0:
152,205,193228,2,0,P|183:221|216:211,1,70,10|0,0:0|0:0,0:0:0:0:
252,100,193500,6,0,L|264:28,1,70,2|0,1:0|0:0,0:0:0:0:
348,20,193773,2,0,L|359:89,1,70,10|0,0:0|0:0,0:0:0:0:
388,168,194046,2,0,P|420:192|448:192,1,70,2|0,0:0|1:0,0:0:0:0:
500,124,194319,2,0,P|512:92|500:60,1,70,10|0,0:0|0:0,0:0:0:0:
392,16,194591,6,0,B|332:-4|332:72|264:48,1,140,2|8,1:0|0:0,0:0:0:0:
184,24,195000,1,0,0:0:0:0:
120,80,195137,2,0,P|108:112|120:144,1,70,2|0,3:0|3:0,0:0:0:0:
192,184,195410,2,0,P|204:216|192:248,1,70,8|0,0:0|0:0,0:0:0:0:
120,292,195682,6,0,L|268:256,1,140,2|10,1:0|0:0,0:0:0:0:
332,296,196091,1,0,0:0:0:0:
400,348,196228,2,0,P|436:348|464:328,1,70,2|0,0:0|1:0,0:0:0:0:
500,252,196500,2,0,P|500:212|480:192,1,70,10|0,0:0|0:0,0:0:0:0:
400,160,196773,1,2,0:0:0:0:
