osu file format v14

[General]
AudioFilename: audio.mp3
AudioLeadIn: 0
PreviewTime: 161250
Countdown: 0
SampleSet: Soft
StackLeniency: 0.4
Mode: 0
LetterboxInBreaks: 0
WidescreenStoryboard: 1

[Editor]
Bookmarks: 17864,35319,44046,61500,78955,87682,96410,105137,122591,140046,148773,157500,161864,179319,196773
DistanceSpacing: 0.7
BeatDivisor: 4
GridSize: 32
TimelineZoom: 1.499999

[Metadata]
Title:STIGMA
TitleUnicode:STIGMA
Artist:DUSTCELL
ArtistUnicode:DUSTCELL
Creator:SMOKELIND
Version:AGATSU'S INSANE
Source:
Tags:EMA EM A Misumi Kamitsubaki Studio 神椿スタジオ rei sirose 白瀬玲 Kudou Chitose 久遠千歳 Kudo vtuber youtube virtual youtuber Mechari Kazato Asa Shikibe Mayu Shizuku- Agatsu [_Eli_] Eli Elinor Basensorex Japanese Pop
BeatmapID:2818046
BeatmapSetID:1323916

[Difficulty]
HPDrainRate:5
CircleSize:4
OverallDifficulty:7.7
ApproachRate:9
SliderMultiplier:1.5
SliderTickRate:1

[Events]
//Background and Video events
0,0,"87002337_p0.jpg",0,0
//Break Periods
2,35518,41264
2,96610,102355
2,140246,156900
//Storyboard Layer 0 (Background)
//Storyboard Layer 1 (Fail)
//Storyboard Layer 2 (Pass)
//Storyboard Layer 3 (Foreground)
//Storyboard Layer 4 (Overlay)
//Storyboard Sound Samples

[TimingPoints]
410,272.727272727273,4,2,77,77,1,0
16910,-100,4,2,77,57,0,0
17319,-125,4,2,77,57,0,0
35318,-125,4,2,77,47,0,0
44046,-100,4,2,77,77,0,0
78000,-100,4,2,77,57,0,0
78410,-125,4,2,77,57,0,0
87682,-111.111111111111,4,2,77,57,0,0
96410,-111.111111111111,4,2,77,47,0,0
105137,-100,4,2,77,77,0,0
139091,-100,4,2,77,57,0,0
139500,-125,4,2,77,57,0,0
140046,-125,4,2,77,47,0,0
157500,-125,4,2,7,77,0,0
159682,-125,4,2,77,57,0,0
161318,-125,4,2,77,47,0,0
161864,-100,4,2,77,87,0,1
196773,-100,4,2,77,27,0,0

[Colours]
Combo1 : 106,106,106
Combo2 : 255,193,64

[HitObjects]
354,53,410,6,0,B|441:28|427:72|519:44,1,150,4|10,1:0|2:0,2:0:0:0:
358,128,819,1,2,2:0:0:0:
471,172,955,2,0,P|437:182|374:203,1,75,2|0,2:0|1:0,2:0:0:0:
224,347,1228,5,10,2:0:0:0:
296,384,1364,2,0,P|303:304|329:233,2,150,2|2|2,2:0|2:0|1:0,2:0:0:0:
421,370,2046,2,0,P|421:331|397:288,1,75,2|0,2:0|1:0,2:0:0:0:
244,207,2319,2,0,P|202:221|159:231,1,75,10|0,2:0|2:0,2:0:0:0:
126,300,2591,6,0,P|129:233|49:188,1,150,0|10,1:0|2:0,2:0:0:0:
21,249,3000,1,2,2:0:0:0:
21,81,3137,2,0,P|71:93|112:101,1,75,2|0,2:0|1:0,2:0:0:0:
227,228,3410,5,10,2:0:0:0:
291,187,3546,2,0,B|209:167|219:203|129:177,2,150,2|2|2,2:0|2:0|1:0,2:0:0:0:
439,269,4228,1,2,2:0:0:0:
488,204,4364,1,2,1:0:0:0:
421,157,4500,1,10,2:0:0:0:
375,221,4637,1,2,2:0:0:0:
506,218,4773,6,0,P|509:151|477:49,1,150,0|10,1:0|2:0,2:0:0:0:
319,15,5182,1,2,2:0:0:0:
270,112,5319,2,0,P|312:98|359:86,1,75,2|0,2:0|1:0,2:0:0:0:
249,252,5591,5,8,2:0:0:0:
211,181,5728,2,0,P|214:124|244:28,2,150,2|2|2,2:0|2:0|1:0,2:0:0:0:
44,272,6410,2,0,P|79:257|124:241,1,75,2|0,2:0|1:0,2:0:0:0:
203,84,6682,2,0,P|196:120|191:158,1,75,10|0,2:0|2:0,2:0:0:0:
0,39,6955,6,0,P|48:58|67:158,1,150,0|10,1:0|2:0,2:0:0:0:
168,343,7364,1,2,2:0:0:0:
142,267,7500,2,0,P|94:286|75:386,1,150,2|10,2:0|2:0,2:0:0:0:
251,350,7910,6,0,P|295:362|344:379,1,75,2|0,2:0|1:0,2:0:0:0:
488,274,8182,2,0,B|402:293|425:252|325:277,1,150,2|2,2:0|1:0,2:0:0:0:
195,173,8591,1,2,2:0:0:0:
119,204,8728,1,2,1:0:0:0:
174,99,8864,1,10,2:0:0:0:
275,151,9000,1,2,2:0:0:0:
372,56,9137,6,0,P|432:61|473:147,1,150,4|10,1:0|2:0,2:0:0:0:
351,260,9546,1,2,2:0:0:0:
446,343,9682,2,0,P|441:299|413:246,1,75,2|0,2:0|1:0,2:0:0:0:
291,312,9955,5,8,2:0:0:0:
291,312,10091,2,0,P|296:356|324:409,1,75,2|0,2:0|1:0,2:0:0:0:
509,200,10364,2,0,P|452:191|346:172,1,150,2|2,2:0|1:0,2:0:0:0:
232,33,10773,2,0,B|266:115|226:100|263:199,1,150,2|10,2:0|2:0,2:0:0:0:
26,369,11319,6,0,B|13:295|13:295|42:214,1,150,0|10,1:0|2:0,2:0:0:0:
75,155,11728,1,2,2:0:0:0:
184,278,11864,2,0,P|142:288|105:299,1,75,2|0,2:0|1:0,2:0:0:0:
143,205,12137,5,10,2:0:0:0:
268,276,12273,2,0,B|352:252|343:289|421:265,2,150,2|2|2,2:0|2:0|1:0,2:0:0:0:
65,344,12955,1,2,2:0:0:0:
103,272,13091,1,2,1:0:0:0:
176,301,13228,1,10,2:0:0:0:
143,205,13364,1,2,2:0:0:0:
246,266,13500,6,0,P|252:200|240:94,1,150,0|10,1:0|2:0,2:0:0:0:
211,48,13910,1,2,2:0:0:0:
71,127,14046,2,0,P|65:193|77:299,1,150,2|8,2:0|2:0,2:0:0:0:
140,363,14455,6,0,P|103:373|58:388,1,75,2|0,2:0|1:0,2:0:0:0:
204,248,14728,2,0,P|248:269|271:372,1,150,2|2,2:0|1:0,2:0:0:0:
400,299,15137,2,0,P|445:311|490:327,1,75,2|0,2:0|1:0,2:0:0:0:
312,209,15410,2,0,P|267:221|222:237,1,75,10|0,2:0|2:0,2:0:0:0:
504,248,15682,6,0,P|493:175|432:135,1,150,0|10,1:0|2:0,2:0:0:0:
393,202,16091,1,2,2:0:0:0:
512,79,16228,2,0,P|508:42|475:-17,1,75,2|0,2:0|1:0,2:0:0:0:
346,82,16500,5,10,2:0:0:0:
414,123,16637,1,2,2:0:0:0:
414,123,16910,1,2,2:0:0:0:
414,123,17182,1,2,2:0:0:0:
393,202,17319,2,0,P|406:242|414:288,2,60,2|2|10,3:0|2:0|2:3,2:0:0:0:
301,260,17728,5,0,2:0:0:0:
301,260,17796,1,0,2:0:0:0:
301,260,17864,2,0,B|235:243|243:273|156:250,2,120,6|8|0,1:0|2:0|2:0,2:0:0:0:
401,363,18546,1,0,1:0:0:0:
457,305,18682,2,0,P|487:318|529:333,1,60,10|0,2:0|2:0,2:0:0:0:
406,222,18955,6,0,P|409:158|382:91,1,120,2|10,1:0|2:0,2:0:0:0:
188,166,19500,2,0,P|185:230|212:297,1,120,2|10,2:0|2:0,2:0:0:0:
273,317,19910,1,0,2:0:0:0:
321,253,20046,6,0,P|326:218|339:169,1,60,2|0,1:0|2:0,2:0:0:0:
170,246,20319,2,0,B|109:263|114:237|45:256,1,120,10|0,2:0|2:0,2:0:0:0:
8,189,20728,1,0,1:0:0:0:
81,92,20864,2,0,P|48:84|9:72,1,60,8|0,2:0|2:0,2:0:0:0:
126,293,21137,6,0,P|138:222|156:156,2,120,0|8|0,1:0|2:0|2:0,2:0:0:0:
159,365,21819,1,0,1:0:0:0:
265,317,21955,2,0,P|296:328|336:339,1,60,10|0,2:0|2:0,2:0:0:0:
424,384,22228,6,0,P|465:358|483:280,1,120,2|10,1:0|2:0,2:0:0:0:
373,150,22773,2,0,P|332:176|314:254,1,120,2|10,2:0|2:0,2:0:0:0:
375,289,23182,1,0,2:0:0:0:
446,252,23319,6,0,P|480:265|511:275,1,60,2|0,1:0|2:0,2:0:0:0:
295,355,23591,2,0,P|300:298|280:217,1,120,10|0,2:0|2:0,2:0:0:0:
237,177,24000,1,0,1:0:0:0:
166,261,24137,2,0,P|169:305|182:343,1,60,10|0,2:0|2:0,2:0:0:0:
311,213,24410,6,0,B|381:190|369:214|440:188,1,120,2|10,1:0|2:0,2:0:0:0:
259,310,24955,2,0,P|294:317|336:330,1,60,2|0,2:0|1:0,2:0:0:0:
218,164,25228,2,0,P|211:199|198:241,1,60,10|0,2:0|2:0,2:0:0:0:
78,346,25500,6,0,B|58:278|82:290|58:223,2,120,2|10|2,1:0|2:0|2:0,2:0:0:0:
147,373,26182,1,0,1:0:0:0:
219,288,26319,2,0,P|228:329|235:361,1,60,10|0,2:0|2:0,2:0:0:0:
31,265,26591,6,0,P|83:235|97:170,1,120,6|10,1:0|2:0,2:0:0:0:
268,0,27137,1,2,2:0:0:0:
237,73,27273,1,0,1:0:0:0:
310,105,27410,2,0,P|348:88|384:75,1,60,10|0,2:0|2:0,2:0:0:0:
452,153,27682,6,0,P|439:190|430:228,1,60,2|0,1:0|2:0,2:0:0:0:
330,330,27955,2,0,P|332:263|312:194,1,120,10|2,2:0|2:0,2:0:0:0:
252,327,28364,1,0,1:0:0:0:
395,380,28500,2,0,P|430:365|460:355,1,60,10|0,2:0|2:0,2:0:0:0:
239,307,28773,6,0,B|173:292|182:313|114:292,2,120,2|10|2,1:0|2:0|2:0,2:0:0:0:
296,253,29455,1,0,1:0:0:0:
412,306,29591,2,0,P|419:267|428:229,1,60,8|0,2:0|2:0,2:0:0:0:
500,128,29864,6,0,L|377:151,1,120,2|8,1:0|2:0,2:0:0:0:
228,77,30273,1,0,2:0:0:0:
292,26,30410,2,0,P|328:37|370:48,1,60,0|0,2:0|1:0,2:0:0:0:
479,163,30682,2,0,B|483:132|483:132|470:91,1,60,10|2,2:0|2:0,2:0:0:0:
364,256,30955,6,0,B|381:190|356:205|381:134,1,120,2|10,1:0|2:0,2:0:0:0:
180,369,31500,2,0,B|163:303|188:318|163:247,1,120,0|10,2:0|2:0,2:0:0:0:
115,189,31910,1,0,2:0:0:0:
23,286,32046,6,0,P|29:249|34:209,1,60,2|0,1:0|2:0,2:0:0:0:
0,27,32319,2,0,P|18:94|75:126,1,120,10|2,2:0|2:0,2:0:0:0:
129,91,32728,1,0,1:0:0:0:
251,171,32864,2,0,P|212:180|166:194,1,60,10|0,2:0|2:0,2:0:0:0:
76,371,33137,6,0,P|75:311|60:253,2,120,2|10|2,1:0|2:0|2:0,2:0:0:0:
182,296,33819,1,0,1:0:0:0:
269,350,33955,2,0,P|235:359|187:373,1,60,10|0,2:0|2:0,2:0:0:0:
351,243,34228,6,0,P|403:268|431:341,1,120,2|8,1:0|2:0,2:0:0:0:
246,370,34637,1,0,3:0:0:0:
197,308,34773,1,0,2:0:0:0:
230,234,34910,1,0,1:0:0:0:
186,168,35046,2,0,P|192:108|214:30,1,120,10|6,2:0|2:0,2:0:0:0:
256,192,41864,12,2,43773,2:0:0:0:
476,14,44046,6,0,P|492:90|486:180,1,150,6|8,1:0|2:0,2:0:0:0:
305,211,44455,1,0,2:0:0:0:
279,135,44591,2,0,P|297:80|319:50,1,75,2|0,2:0|1:0,2:0:0:0:
417,149,44864,2,0,P|399:204|377:234,1,75,10|0,2:0|2:0,2:0:0:0:
234,372,45137,6,0,B|215:288|254:306|209:201,1,150,2|10,1:0|2:0,2:0:0:0:
41,146,45546,1,0,1:0:0:0:
100,206,45682,1,2,2:0:0:0:
152,144,45819,1,0,1:0:0:0:
97,84,45955,2,0,P|109:41|137:3,1,75,10|0,2:0|2:0,2:0:0:0:
319,106,46228,6,0,B|405:125|392:93|486:118,1,150,2|8,1:0|2:0,2:0:0:0:
354,188,46637,1,0,2:0:0:0:
434,253,46773,2,0,P|388:267|336:289,1,75,2|0,2:0|1:0,2:0:0:0:
464,75,47046,2,0,P|478:121|500:173,1,75,10|0,2:0|2:0,2:0:0:0:
289,131,47319,6,0,B|206:112|219:144|125:119,1,150,2|10,1:0|2:0,2:0:0:0:
12,278,47728,1,0,1:0:0:0:
75,226,47864,1,2,2:0:0:0:
0,199,48000,1,0,1:0:0:0:
90,308,48137,2,0,P|128:296|179:285,1,75,10|0,2:0|2:0,2:0:0:0:
334,115,48410,6,0,P|277:147|260:237,1,150,2|8,1:0|2:0,2:0:0:0:
390,368,48819,1,0,2:0:0:0:
453,315,48955,2,0,P|449:271|423:219,1,75,0|0,2:0|1:0,2:0:0:0:
313,142,49228,2,0,P|266:156|216:167,1,75,10|0,2:0|2:0,2:0:0:0:
216,251,49500,6,0,P|188:163|124:139,1,150,2|10,1:0|2:0,2:0:0:0:
18,288,49910,1,0,1:0:0:0:
90,255,50046,1,2,2:0:0:0:
135,322,50182,1,0,1:0:0:0:
61,357,50319,2,0,P|21:366|-22:381,1,75,10|0,2:0|2:0,2:0:0:0:
32,194,50591,6,0,L|190:237,1,150,2|10,1:0|2:0,2:0:0:0:
246,265,51000,1,0,2:0:0:0:
90,255,51137,2,0,P|98:295|104:357,1,75,2|0,2:0|1:0,2:0:0:0:
12,302,51410,2,0,P|7:339|0:375,1,75,10|0,2:0|2:0,2:0:0:0:
231,296,51682,6,0,B|320:280|306:311|394:291,1,150,2|8,1:0|2:0,2:0:0:0:
448,95,52091,1,0,1:0:0:0:
374,139,52228,1,0,2:0:0:0:
375,58,52364,1,0,1:0:0:0:
441,180,52500,2,0,P|488:163|524:153,1,75,10|8,2:0|2:3,2:0:0:0:
300,96,52773,6,0,P|241:135|232:227,1,150,6|8,1:0|2:0,2:0:0:0:
321,374,53182,1,0,2:0:0:0:
387,333,53319,2,0,P|430:347|479:362,1,75,2|0,2:0|1:0,2:0:0:0:
313,194,53591,2,0,B|297:231|297:231|299:273,1,75,10|0,2:0|2:0,2:0:0:0:
471,147,53864,6,0,B|450:63|488:77|453:-16,2,150,2|10|2,1:0|2:0|2:0,2:0:0:0:
501,222,54546,1,0,1:0:0:0:
369,140,54682,2,0,P|361:183|346:237,1,75,10|0,2:0|2:0,2:0:0:0:
462,380,54955,6,0,P|429:361|395:345,1,75,2|0,1:0|2:0,2:0:0:0:
165,317,55228,2,0,B|247:290|238:327|318:297,1,150,10|0,2:0|2:0,2:0:0:0:
235,383,55637,1,0,1:0:0:0:
75,334,55773,2,0,P|81:288|104:241,1,75,10|0,2:0|2:0,2:0:0:0:
2,251,56046,6,0,P|64:227|96:135,1,150,2|10,1:0|2:0,2:0:0:0:
155,108,56455,1,0,1:0:0:0:
9,2,56591,2,0,P|45:16|89:31,1,75,2|0,2:0|1:0,2:0:0:0:
235,149,56864,2,0,B|239:110|239:110|222:65,1,75,10|0,2:0|2:0,2:0:0:0:
133,128,57137,6,0,P|97:142|53:157,1,75,2|0,1:0|2:0,2:0:0:0:
193,326,57410,1,8,2:0:0:0:
139,384,57546,2,0,P|144:332|126:214,1,150,0|0,2:0|1:0,2:0:0:0:
302,285,57955,2,0,P|311:241|329:191,1,75,10|0,2:0|2:0,2:0:0:0:
405,228,58228,6,0,P|350:183|342:95,2,150,2|10|2,1:0|2:0|2:0,2:0:0:0:
474,194,58910,1,0,1:0:0:0:
390,314,59046,2,0,P|447:336|490:359,1,75,10|0,2:0|2:0,2:0:0:0:
243,189,59319,6,0,B|328:213|316:178|405:200,1,150,2|10,1:0|2:0,2:0:0:0:
293,330,59728,1,0,2:0:0:0:
225,283,59864,1,2,2:0:0:0:
151,304,60000,1,0,1:0:0:0:
88,254,60137,2,0,P|92:205|115:154,1,75,10|0,2:0|2:0,2:0:0:0:
227,0,60410,6,0,P|244:77|243:162,1,150,2|8,1:0|2:0,2:0:0:0:
199,211,60819,1,0,1:0:0:0:
337,343,60955,2,0,P|335:307|306:243,1,75,2|0,2:0|1:0,2:0:0:0:
395,203,61228,2,0,P|429:215|483:230,1,75,10|0,2:0|2:0,2:0:0:0:
302,71,61500,6,0,P|241:94|208:181,1,150,4|10,1:0|2:0,2:0:0:0:
272,326,61910,1,2,2:0:0:0:
327,272,62046,2,0,P|326:233|301:177,1,75,2|0,2:0|1:0,2:0:0:0:
190,307,62319,5,10,2:0:0:0:
135,363,62455,2,0,P|148:305|153:197,2,150,2|2|2,2:0|2:0|1:0,2:0:0:0:
13,306,63137,2,0,P|25:344|35:391,1,75,2|0,2:0|1:0,2:0:0:0:
205,203,63410,2,0,P|196:239|185:275,1,75,10|0,2:0|2:0,2:0:0:0:
115,328,63682,6,0,B|198:299|189:335|276:304,1,150,0|10,1:0|2:0,2:0:0:0:
448,317,64091,1,2,2:0:0:0:
400,379,64228,2,0,P|404:309|383:216,1,150,2|10,2:0|2:0,2:0:0:0:
464,7,64637,6,0,P|426:21|379:36,1,75,2|0,2:0|1:0,2:0:0:0:
499,133,64910,2,0,B|422:111|431:153|334:121,1,150,2|2,2:0|1:0,2:0:0:0:
172,28,65319,1,2,2:0:0:0:
241,76,65455,1,2,1:0:0:0:
142,98,65591,1,10,2:0:0:0:
80,148,65728,1,2,2:0:0:0:
203,146,65864,6,0,L|361:186,1,150,0|10,1:0|2:0,2:0:0:0:
408,231,66273,1,2,2:0:0:0:
267,206,66410,2,0,P|275:247|282:303,1,75,2|0,2:0|1:0,2:0:0:0:
111,383,66682,5,8,2:0:0:0:
43,347,66819,2,0,B|129:324|109:357|203:329,2,150,2|2|2,2:0|2:0|1:0,2:0:0:0:
169,210,67500,2,0,P|133:199|75:179,1,75,2|0,2:0|1:0,2:0:0:0:
194,384,67773,2,0,P|205:348|225:290,1,75,10|0,2:0|2:0,2:0:0:0:
50,124,68046,6,0,P|63:190|56:284,1,150,0|10,1:0|2:0,2:0:0:0:
21,342,68455,1,2,2:0:0:0:
167,252,68591,2,0,P|201:264|261:281,1,75,2|0,2:0|1:0,2:0:0:0:
396,384,68864,5,10,2:0:0:0:
449,325,69000,2,0,P|450:285|430:231,1,75,2|0,2:0|1:0,2:0:0:0:
359,245,69273,2,0,P|416:210|426:119,1,150,2|2,2:0|1:0,2:0:0:0:
268,5,69682,1,2,2:0:0:0:
321,65,69819,1,2,1:0:0:0:
260,117,69955,1,10,2:0:0:0:
206,58,70091,1,2,2:0:0:0:
197,180,70228,6,0,B|276:143|272:178|346:138,1,150,4|10,1:0|2:0,2:0:0:0:
407,181,70637,1,2,2:0:0:0:
487,104,70773,2,0,P|503:161|511:204,1,75,2|0,2:0|1:0,2:0:0:0:
378,263,71046,5,8,2:0:0:0:
301,285,71182,2,0,P|314:214|341:139,2,150,2|2|2,2:0|2:0|1:0,2:0:0:0:
129,375,71864,2,0,P|177:354|225:339,1,75,2|0,2:0|1:0,2:0:0:0:
295,191,72137,2,0,P|284:227|277:263,1,75,10|0,2:0|2:0,2:0:0:0:
70,240,72410,6,0,P|124:212|151:130,1,150,0|10,1:0|2:0,2:0:0:0:
94,78,72819,1,2,2:0:0:0:
241,7,72955,2,0,P|279:20|326:35,1,75,2|0,2:0|1:0,2:0:0:0:
265,96,73228,5,10,2:0:0:0:
430,160,73364,2,0,B|434:122|434:122|413:71,1,75,2|0,2:0|1:0,2:0:0:0:
226,167,73637,2,0,B|144:145|160:183|53:146,1,150,2|2,2:0|1:0,2:0:0:0:
163,331,74046,1,2,2:0:0:0:
200,262,74182,1,2,1:0:0:0:
123,265,74319,1,10,2:0:0:0:
241,330,74455,1,2,2:0:0:0:
377,231,74591,6,0,P|371:159|342:62,1,150,0|10,1:0|2:0,2:0:0:0:
286,131,75000,1,2,2:0:0:0:
485,127,75137,2,0,P|452:134|403:152,1,75,2|0,2:0|1:0,2:0:0:0:
447,214,75410,5,8,2:0:0:0:
220,232,75546,2,0,P|253:239|302:257,1,75,2|0,2:0|1:0,2:0:0:0:
427,383,75819,2,0,P|412:310|418:222,1,150,2|2,2:0|1:0,2:0:0:0:
165,174,76228,2,0,P|180:247|174:335,2,150,2|10|0,2:0|2:0|1:0,2:0:0:0:
11,365,77046,5,10,2:0:0:0:
75,320,77182,1,2,2:0:0:0:
18,219,77319,2,0,P|62:233|105:246,1,75,2|0,2:0|1:0,2:0:0:0:
260,366,77591,5,10,2:0:0:0:
324,316,77728,1,2,2:0:0:0:
324,316,78000,1,2,2:0:0:0:
324,316,78273,1,2,2:0:0:0:
399,337,78410,2,0,P|405:292|418:251,2,60,2|2|2,2:0|2:0|2:0,2:0:0:0:
479,321,78819,1,2,2:0:0:0:
330,217,78955,6,0,P|385:182|400:118,1,120,6|10,1:0|2:0,2:0:0:0:
447,67,79364,1,10,2:0:0:0:
298,0,79500,2,0,P|243:35|228:99,1,120,2|10,2:0|2:0,2:0:0:0:
258,157,79910,1,2,2:0:0:0:
123,223,80046,2,0,P|175:235|231:255,2,90,2|2|10,2:0|2:0|2:0,2:0:0:0:
0,268,80591,2,0,B|27:202|-2:214|31:144,1,120,2|8,2:0|2:0,2:0:0:0:
81,98,81000,1,2,2:0:0:0:
226,143,81137,6,0,P|225:106|211:64,1,60,2|0,2:0|2:0,2:0:0:0:
205,69,81341,2,0,P|252:56|310:37,1,90,2|10,2:0|2:0,2:0:0:0:
463,0,81682,2,0,P|444:49|443:82,1,60,2|0,2:0|2:0,2:0:0:0:
460,75,81887,2,0,B|437:120|458:115|433:168,1,90,2|2,2:0|2:0,2:0:0:0:
488,218,82228,5,2,2:0:0:0:
393,337,82364,1,0,2:0:0:0:
393,337,82432,2,0,P|445:321|494:311,1,90,2|10,2:0|2:0,2:0:0:0:
263,236,82773,2,0,B|334:216|322:245|398:215,1,120,2|8,2:0|2:0,2:0:0:0:
90,384,83319,6,0,P|97:347|105:321,2,60,2|2|10,2:0|2:0|2:0,2:0:0:0:
167,374,83728,1,10,2:0:0:0:
232,287,83864,2,0,B|213:225|239:237|216:151,1,120,2|10,2:0|2:0,2:0:0:0:
111,68,84273,1,0,2:0:0:0:
61,129,84410,1,2,2:0:0:0:
188,96,84546,2,0,P|228:71|244:-5,1,120,0|8,2:0|2:0,2:0:0:0:
383,81,84955,2,0,L|522:106,1,120,2|8,2:0|2:0,2:0:0:0:
308,309,85500,6,0,P|322:253|323:175,1,120,2|10,2:0|2:0,2:0:0:0:
252,217,85910,1,8,2:0:0:0:
182,154,86046,2,0,P|162:209|160:233,2,60,2|2|8,2:0|2:0|2:0,2:0:0:0:
72,202,86455,1,2,2:0:0:0:
0,144,86591,2,0,P|35:134|80:119,1,60,2|2,2:0|2:0,2:0:0:0:
181,16,86864,2,0,P|231:34|254:104,1,120,10|2,2:0|2:0,2:0:0:0:
479,251,87410,5,12,2:3:0:0:
485,203,87500,1,12,2:3:0:0:
456,162,87591,1,12,2:3:0:0:
409,150,87682,6,0,P|401:186|388:233,1,67.4999979400635,2|0,1:0|2:0,2:0:0:0:
277,324,87955,1,8,2:0:0:0:
340,284,88091,1,2,2:0:0:0:
252,231,88228,2,0,P|201:242|157:248,1,67.4999979400635,2|2,1:0|2:0,2:0:0:0:
26,352,88500,5,10,2:0:0:0:
27,278,88637,2,0,P|104:298|127:366,1,134.999995880127,2|2,2:0|2:0,2:0:0:0:
274,231,89046,1,10,2:0:0:0:
212,275,89182,1,10,2:0:0:0:
370,314,89319,2,0,P|293:334|270:402,1,134.999995880127,2|10,1:0|2:0,2:0:0:0:
392,155,89864,5,2,1:0:0:0:
457,195,90000,1,2,2:0:0:0:
305,196,90137,2,0,P|317:128|349:54,1,134.999995880127,10|2,2:0|1:0,2:0:0:0:
156,9,90546,2,0,P|187:24|236:43,1,67.4999979400635,2|10,2:0|2:0,2:0:0:0:
110,140,90819,5,2,2:0:0:0:
45,95,90955,2,0,B|43:62|43:62|64:14,1,67.4999979400635,2|2,1:0|2:0,2:0:0:0:
192,135,91228,2,0,B|218:205|183:199|214:284,2,134.999995880127,10|2|10,2:0|1:0|2:0,2:0:0:0:
23,362,92046,6,0,L|167:333,1,134.999995880127,2|8,1:0|2:0,2:0:0:0:
220,369,92455,1,0,2:0:0:0:
313,288,92591,2,0,P|331:326|332:368,1,67.4999979400635,2|0,1:0|2:0,2:0:0:0:
186,238,92864,2,0,P|223:220|265:219,1,67.4999979400635,10|2,2:0|2:0,2:0:0:0:
88,384,93137,6,0,P|66:322|91:244,2,134.999995880127,0|10|2,2:0|2:0|1:0,2:0:0:0:
154,346,93819,1,0,2:0:0:0:
74,226,93955,2,0,P|114:241|154:253,1,67.4999979400635,8|2,2:0|2:0,2:0:0:0:
292,351,94228,5,2,1:0:0:0:
350,299,94364,1,2,2:0:0:0:
273,210,94500,2,0,P|262:242|261:282,1,67.4999979400635,10|10,2:0|2:0,2:0:0:0:
437,352,94773,2,0,P|448:320|449:280,1,67.4999979400635,2|2,1:0|2:0,2:0:0:0:
352,149,95046,5,10,2:0:0:0:
423,186,95182,1,2,2:0:0:0:
512,57,95319,2,0,B|430:78|453:50|359:75,2,134.999995880127,2|10|2,1:0|2:0|1:0,2:0:0:0:
377,169,96000,1,0,2:0:0:0:
443,211,96137,2,0,P|483:196|534:183,1,67.4999979400635,0|0,3:0|3:0,2:0:0:0:
361,337,96410,5,6,2:0:0:0:
256,192,102955,12,2,104864,2:0:0:0:
23,106,105137,6,0,B|114:75|83:106|187:70,1,150,6|8,1:0|2:0,2:0:0:0:
230,120,105546,1,0,2:0:0:0:
133,217,105682,2,0,P|93:205|34:192,1,75,2|0,2:0|1:0,2:0:0:0:
187,384,105955,2,0,P|185:341|205:292,1,75,10|0,2:0|2:0,2:0:0:0:
359,202,106228,6,0,P|368:282|335:376,2,150,2|10|2,1:0|2:0|2:0,2:0:0:0:
290,233,106910,1,0,1:0:0:0:
488,255,107046,2,0,P|431:267|387:280,1,75,10|0,2:0|2:0,2:0:0:0:
187,384,107319,6,0,B|215:297|171:319|217:222,1,150,2|8,1:0|2:0,2:0:0:0:
152,188,107728,1,0,2:0:0:0:
52,315,107864,2,0,P|37:279|39:223,1,75,2|0,2:0|1:0,2:0:0:0:
230,356,108137,2,0,P|194:371|138:369,1,75,10|0,2:0|2:0,2:0:0:0:
276,197,108410,6,0,P|312:206|367:222,1,75,2|0,1:0|2:0,2:0:0:0:
423,316,108682,2,0,P|444:238|509:210,1,150,10|2,2:0|2:0,2:0:0:0:
331,298,109091,1,0,1:0:0:0:
232,196,109228,2,0,P|243:246|249:291,1,75,10|0,2:0|2:0,2:0:0:0:
452,67,109500,6,0,B|376:100|387:64|307:95,1,150,2|8,1:0|2:0,2:0:0:0:
159,213,109910,1,0,2:0:0:0:
234,238,110046,1,0,2:0:0:0:
167,137,110182,1,0,1:0:0:0:
54,193,110319,2,0,B|39:231|39:231|40:275,1,75,10|0,2:0|2:0,2:0:0:0:
168,331,110591,6,0,P|204:315|252:301,1,75,2|0,1:0|2:0,2:0:0:0:
361,173,110864,2,0,P|347:207|337:244,1,75,10|0,2:0|1:0,2:0:0:0:
453,384,111137,2,0,P|423:357|382:329,1,75,2|0,2:0|1:0,2:0:0:0:
245,209,111410,1,10,2:0:0:0:
306,261,111546,1,0,2:0:0:0:
122,333,111682,6,0,P|125:249|163:159,2,150,2|10|2,1:0|2:0|2:0,2:0:0:0:
198,307,112364,1,0,1:0:0:0:
8,263,112500,2,0,P|56:247|96:241,1,75,10|0,2:0|2:0,2:0:0:0:
240,44,112773,6,0,P|178:79|167:159,1,150,2|8,1:0|2:0,2:0:0:0:
367,226,113182,1,0,1:0:0:0:
306,177,113319,1,0,2:0:0:0:
385,149,113455,1,0,1:0:0:0:
452,79,113591,2,0,P|503:93|538:102,1,75,10|8,2:0|2:3,2:0:0:0:
321,298,113864,6,0,B|406:258|397:296|481:253,1,150,6|8,1:0|2:0,2:0:0:0:
362,366,114273,1,0,2:0:0:0:
235,286,114410,2,0,P|228:333|218:382,1,75,2|0,2:0|1:0,2:0:0:0:
434,237,114682,2,0,P|441:284|451:333,1,75,10|0,2:0|2:0,2:0:0:0:
318,195,114955,6,0,P|321:115|297:30,1,150,2|10,1:0|2:0,2:0:0:0:
145,137,115364,1,0,1:0:0:0:
217,165,115500,1,2,2:0:0:0:
210,87,115637,1,0,1:0:0:0:
149,218,115773,2,0,P|94:204|50:198,1,75,10|0,2:0|2:0,2:0:0:0:
12,118,116046,6,0,P|15:67|40:24,1,75,2|0,1:0|2:0,2:0:0:0:
249,0,116319,2,0,P|252:89|218:171,1,150,10|0,2:0|2:0,2:0:0:0:
177,200,116728,1,0,1:0:0:0:
338,299,116864,2,0,P|328:248|305:208,1,75,10|0,2:0|2:0,2:0:0:0:
125,299,117137,6,0,P|82:313|35:331,1,75,2|0,1:0|2:0,2:0:0:0:
161,368,117410,1,10,2:0:0:0:
210,305,117546,1,0,1:0:0:0:
135,178,117682,2,0,P|109:230|108:276,1,75,2|0,2:0|1:0,2:0:0:0:
276,360,117955,2,0,P|304:352|360:340,1,75,10|0,2:0|2:0,2:0:0:0:
420,376,118228,6,0,P|442:309|433:215,1,150,2|8,1:0|2:0,2:0:0:0:
407,11,118637,2,0,P|394:51|381:103,1,75,0|0,2:0|2:0,2:0:0:0:
396,156,118910,1,0,1:0:0:0:
227,193,119046,2,0,P|261:177|296:164,1,75,10|0,2:0|2:0,2:0:0:0:
36,113,119319,6,0,P|87:133|100:233,1,150,2|10,1:0|2:0,2:0:0:0:
159,283,119728,1,0,1:0:0:0:
247,155,119864,2,0,P|270:209|262:255,1,75,2|0,2:0|1:0,2:0:0:0:
372,302,120137,2,0,P|418:318|471:340,1,75,10|0,2:0|2:0,2:0:0:0:
222,338,120410,6,0,B|133:314|148:348|51:316,2,150,2|10|2,1:0|2:0|2:0,2:0:0:0:
284,380,121091,1,0,1:0:0:0:
455,236,121228,2,0,P|407:247|369:259,1,75,10|0,2:0|2:0,2:0:0:0:
351,326,121500,6,0,P|338:257|253:230,1,150,2|10,1:0|2:0,2:0:0:0:
115,346,121910,1,0,1:0:0:0:
172,293,122046,1,2,2:0:0:0:
129,227,122182,1,0,1:0:0:0:
75,276,122319,2,0,P|35:265|-16:257,1,75,10|0,2:0|2:0,2:0:0:0:
165,123,122591,6,0,B|265:94|235:135|331:97,1,150,4|10,1:0|2:0,2:0:0:0:
377,135,123000,1,2,2:0:0:0:
229,209,123137,2,0,P|277:223|320:242,1,75,2|0,2:0|1:0,2:0:0:0:
463,362,123410,1,10,2:0:0:0:
510,297,123546,2,0,P|508:229|525:133,2,150,2|2|2,2:0|2:0|1:0,2:0:0:0:
269,384,124228,2,0,P|312:365|367:350,1,75,2|0,2:0|1:0,2:0:0:0:
394,130,124500,2,0,P|413:169|418:223,1,75,10|0,2:0|2:0,2:0:0:0:
510,297,124773,6,0,B|428:268|442:312|336:268,1,150,0|10,1:0|2:0,2:0:0:0:
184,356,125182,1,2,2:0:0:0:
115,309,125319,2,0,P|76:322|34:334,1,75,2|0,2:0|1:0,2:0:0:0:
145,167,125591,5,10,2:0:0:0:
82,99,125728,2,0,B|66:137|66:137|66:182,1,75,2|0,2:0|1:0,2:0:0:0:
244,276,126000,2,0,L|406:241,1,150,2|2,2:0|1:0,2:0:0:0:
488,71,126410,1,2,2:0:0:0:
417,109,126546,1,2,1:0:0:0:
485,149,126682,1,10,2:0:0:0:
415,31,126819,1,2,2:0:0:0:
262,91,126955,6,0,P|238:160|229:257,1,150,0|10,1:0|2:0,2:0:0:0:
266,304,127364,1,2,2:0:0:0:
57,376,127500,2,0,P|70:327|100:282,1,75,2|0,2:0|1:0,2:0:0:0:
3,162,127773,5,8,2:0:0:0:
62,109,127910,2,0,B|162:73|135:103|213:72,2,150,2|2|2,2:0|2:0|1:0,2:0:0:0:
184,249,128591,2,0,P|142:237|89:225,1,75,2|0,2:0|1:0,2:0:0:0:
300,125,128864,2,0,P|288:166|276:219,1,75,10|0,2:0|2:0,2:0:0:0:
97,28,129137,6,0,P|161:60|173:150,1,150,0|10,1:0|2:0,2:0:0:0:
126,191,129546,1,2,2:0:0:0:
294,300,129682,2,0,P|289:263|258:209,1,75,2|0,2:0|1:0,2:0:0:0:
215,281,129955,5,10,2:0:0:0:
114,277,130091,2,0,P|119:314|150:368,1,75,2|0,2:0|1:0,2:0:0:0:
338,369,130364,2,0,P|345:285|371:212,1,150,2|2,2:0|1:0,2:0:0:0:
198,35,130773,1,2,2:0:0:0:
258,88,130910,1,2,1:0:0:0:
161,100,131046,1,10,2:0:0:0:
126,169,131182,1,2,2:0:0:0:
237,124,131319,6,0,B|326:101|312:138|406:112,1,150,4|10,1:0|2:0,2:0:0:0:
267,254,131728,1,2,2:0:0:0:
198,221,131864,2,0,P|178:268|176:308,1,75,2|0,2:0|1:0,2:0:0:0:
310,376,132137,5,8,2:0:0:0:
351,310,132273,2,0,P|388:299|432:288,1,75,2|0,2:0|1:0,2:0:0:0:
171,384,132546,2,0,P|154:318|63:283,1,150,2|2,2:0|1:0,2:0:0:0:
203,117,132955,2,0,P|159:133|117:147,1,75,2|0,2:0|1:0,2:0:0:0:
333,233,133228,2,0,P|317:189|303:147,1,75,10|0,2:0|2:0,2:0:0:0:
170,371,133500,6,0,P|177:286|205:209,1,150,0|10,1:0|2:0,2:0:0:0:
118,233,133910,1,2,2:0:0:0:
24,123,134046,2,0,P|12:171|-9:217,1,75,2|0,2:0|1:0,2:0:0:0:
206,57,134319,5,10,2:0:0:0:
154,117,134455,2,0,B|239:85|222:115|310:82,2,150,2|2|2,2:0|2:0|1:0,2:0:0:0:
302,261,135137,1,2,2:0:0:0:
346,192,135273,1,2,1:0:0:0:
241,217,135410,1,10,2:0:0:0:
243,137,135546,1,2,2:0:0:0:
110,227,135682,6,0,P|107:153|79:64,1,150,0|10,1:0|2:0,2:0:0:0:
35,206,136091,1,2,2:0:0:0:
94,298,136228,2,0,P|60:308|20:325,1,75,2|0,2:0|1:0,2:0:0:0:
227,378,136500,5,8,2:0:0:0:
281,319,136637,2,0,B|283:284|283:284|264:229,1,75,2|0,2:0|1:0,2:0:0:0:
202,77,136910,2,0,B|167:157|199:139|167:227,1,150,2|2,2:0|1:0,2:0:0:0:
52,153,137319,2,0,P|65:207|73:253,1,75,2|0,2:0|1:0,2:0:0:0:
305,137,137591,2,0,P|292:191|284:237,1,75,10|0,2:0|2:0,2:0:0:0:
134,377,137864,6,0,P|143:317|219:279,1,150,0|10,1:0|2:0,2:0:0:0:
277,321,138273,1,2,2:0:0:0:
410,230,138410,2,0,P|454:246|506:262,1,75,2|0,2:0|1:0,2:0:0:0:
284,102,138682,5,10,2:0:0:0:
316,173,138819,1,2,2:0:0:0:
316,173,139091,1,2,2:0:0:0:
316,173,139364,1,2,2:0:0:0:
252,218,139500,2,0,P|233:260|222:301,2,60,2|2|2,2:0|2:0|2:0,2:0:0:0:
184,177,139910,1,2,2:0:0:0:
202,102,140046,1,0,3:0:0:0:
512,384,157500,5,4,1:0:0:0:
0,20,159682,6,0,B|19:10|19:10|28:11|28:11|33:5|33:5|61:10|109:-8,1,90,8|0,3:2|2:0,2:0:0:0:
92,11,159955,1,8,2:3:0:0:
60,17,160091,1,8,2:0:0:0:
127,39,160228,1,4,2:3:0:0:
127,39,160500,1,4,2:3:0:0:
380,102,160773,6,0,B|383:86|392:75|392:75|388:53|406:27,1,60,0|0,3:0|3:0,2:0:0:0:
318,47,161046,1,0,3:0:0:0:
261,165,161182,2,0,B|258:149|249:138|249:138|253:116|235:90,1,60,0|2,3:0|2:0,2:0:0:0:
512,384,161864,6,0,B|431:350|457:396|348:355,1,150,6|8,1:0|2:0,2:0:0:0:
177,279,162273,1,0,2:0:0:0:
244,244,162410,2,0,P|287:264|332:280,1,75,2|0,2:0|1:0,2:0:0:0:
81,380,162682,2,0,P|81:340|98:294,1,75,10|0,2:0|2:0,2:0:0:0:
280,182,162955,6,0,P|275:265|241:344,1,150,0|10,1:0|2:0,2:0:0:0:
201,190,163364,1,0,2:0:0:0:
313,80,163500,2,0,P|355:97|409:118,1,75,2|0,2:0|1:0,2:0:0:0:
178,29,163773,1,10,2:0:0:0:
227,91,163910,1,0,2:0:0:0:
37,119,164046,6,0,P|61:20|124:8,1,150,0|10,1:0|2:0,2:0:0:0:
186,168,164455,1,0,2:0:0:0:
123,213,164591,2,0,P|76:226|33:242,1,75,0|0,2:0|1:0,2:0:0:0:
200,377,164864,2,0,P|199:330|222:281,1,75,10|0,2:0|2:0,2:0:0:0:
337,199,165137,6,0,B|351:294|374:256|380:347,2,150,2|10|2,1:0|2:0|2:0,2:0:0:0:
494,255,165819,1,0,1:0:0:0:
494,255,165887,1,0,2:0:0:0:
494,255,165955,2,0,P|502:218|511:182,1,75,10|0,2:0|2:0,2:0:0:0:
259,308,166228,6,0,B|350:277|331:308|412:279,1,150,2|8,1:0|2:0,2:0:0:0:
230,379,166637,1,0,2:0:0:0:
130,299,166773,1,0,2:0:0:0:
100,368,166910,1,0,1:0:0:0:
253,289,167046,2,0,P|298:308|344:325,1,75,10|0,2:0|2:0,2:0:0:0:
407,384,167319,6,0,P|426:326|425:280,1,75,2|0,1:0|2:0,2:0:0:0:
316,117,167591,2,0,P|297:175|298:221,1,75,10|0,2:0|2:0,2:0:0:0:
144,298,167864,1,2,2:0:0:0:
199,244,168000,1,0,1:0:0:0:
117,181,168137,2,0,P|73:195|27:208,1,75,10|0,2:0|2:0,2:0:0:0:
179,371,168410,6,0,P|188:318|273:276,1,150,2|8,1:0|2:0,2:0:0:0:
425,149,168819,1,2,2:0:0:0:
425,149,168887,1,0,2:0:0:0:
425,149,168955,2,0,P|438:186|437:249,1,75,0|0,2:0|1:0,2:0:0:0:
278,129,169228,1,10,2:0:0:0:
343,86,169364,1,0,2:0:0:0:
165,210,169500,6,0,P|163:144|199:49,1,150,2|10,1:0|2:0,2:0:0:0:
0,166,169910,2,0,P|41:152|90:144,1,75,2|0,2:0|2:0,2:0:0:0:
66,224,170182,1,2,1:0:0:0:
271,202,170319,2,0,P|230:188|181:180,1,75,10|2,2:0|2:0,2:0:0:0:
88,369,170591,5,2,1:0:0:0:
155,328,170728,1,2,2:0:0:0:
228,353,170864,2,0,B|321:325|306:353|395:321,1,150,10|2,2:0|2:0,2:0:0:0:
471,183,171273,1,2,1:0:0:0:
506,251,171410,1,10,2:0:0:0:
398,193,171546,1,2,2:0:0:0:
494,90,171682,6,0,P|494:47|470:-8,1,75,2|2,1:0|2:0,2:0:0:0:
310,112,171955,1,8,2:0:0:0:
377,77,172091,2,0,L|221:52,1,150,2|2,2:0|1:0,2:0:0:0:
72,184,172500,5,10,2:0:0:0:
124,125,172637,1,2,2:0:0:0:
153,199,172773,1,2,1:0:0:0:
47,111,172910,2,0,P|100:89|134:-2,1,150,2|2,2:0|2:0,2:0:0:0:
287,133,173319,2,0,P|286:93|257:36,1,75,2|2,2:0|1:0,2:0:0:0:
114,169,173591,2,0,P|115:209|144:266,1,75,10|2,2:0|2:0,2:0:0:0:
190,335,173864,6,0,P|141:353|96:375,1,75,2|2,1:0|2:0,2:0:0:0:
49,322,174137,1,10,2:0:0:0:
223,249,174273,2,0,B|309:274|296:237|382:260,1,150,2|0,2:0|1:0,2:0:0:0:
501,365,174682,2,0,P|454:376|408:394,1,75,10|0,2:0|2:0,2:0:0:0:
296,330,174955,6,0,P|300:247|329:158,2,150,2|8|2,1:0|2:0|2:0,2:0:0:0:
120,362,175637,1,0,1:0:0:0:
59,313,175773,2,0,P|41:358|39:395,1,75,10|0,2:0|2:0,2:0:0:0:
246,313,176046,6,0,P|292:297|343:282,1,75,2|0,1:0|2:0,2:0:0:0:
449,149,176319,2,0,P|435:183|422:219,1,75,10|0,2:0|2:0,2:0:0:0:
512,384,176591,2,0,P|476:350|435:316,1,75,2|0,2:0|1:0,2:0:0:0:
243,373,176864,1,10,2:0:0:0:
296,310,177000,1,0,2:0:0:0:
173,167,177137,6,0,P|148:242|145:328,1,150,2|8,1:0|2:0,2:0:0:0:
224,249,177546,1,0,2:0:0:0:
90,145,177682,2,0,P|43:164|5:176,1,75,0|0,2:0|1:0,2:0:0:0:
110,218,177955,1,10,2:0:0:0:
190,127,178091,1,0,2:0:0:0:
101,9,178228,6,0,P|81:53|78:77,3,37.5,10|8|8|8,2:0|2:0|2:0|2:0,2:0:0:0:
186,92,178500,1,8,2:0:0:0:
186,92,178569,1,8,2:0:0:0:
186,92,178637,2,0,P|223:79|245:73,1,37.5,8|8,2:3|2:3,2:0:0:0:
423,101,178773,6,0,P|443:145|446:169,3,37.5,6|4|4|4,2:3|2:3|2:3|2:3,2:0:0:0:
338,184,179045,1,10,2:0:0:0:
338,184,179114,1,8,2:3:0:0:
338,184,179182,2,0,P|301:171|279:165,1,37.5,8|8,2:3|2:3,2:0:0:0:
185,264,179319,6,0,P|189:176|154:93,1,150,6|8,1:0|2:0,2:0:0:0:
108,264,179728,1,0,2:0:0:0:
192,340,179864,2,0,P|141:361|101:382,1,75,2|0,2:0|1:0,2:0:0:0:
310,193,180137,6,0,P|369:216|389:315,1,150,10|0,2:0|1:0,2:0:0:0:
283,384,180546,1,0,2:0:0:0:
283,384,180614,1,0,2:0:0:0:
283,384,180682,2,0,P|285:336|309:282,1,75,10|0,2:0|2:0,2:0:0:0:
496,276,180955,2,0,P|494:324|470:378,1,75,2|0,2:0|1:0,2:0:0:0:
245,244,181228,6,0,B|224:145|261:174|220:69,1,150,10|0,2:0|1:0,2:0:0:0:
315,164,181637,1,2,2:0:0:0:
419,50,181773,1,10,2:0:0:0:
343,74,181910,1,0,2:0:0:0:
475,154,182046,2,0,P|434:138|371:126,1,75,0|0,2:0|1:0,2:0:0:0:
173,91,182319,2,0,P|214:75|277:63,1,75,10|0,2:0|2:0,2:0:0:0:
105,232,182591,6,0,P|110:151|68:65,1,150,2|10,1:0|2:0,2:0:0:0:
195,258,183000,1,0,2:0:0:0:
253,210,183137,2,0,P|244:165|237:119,1,75,2|0,2:0|1:0,2:0:0:0:
3,244,183410,2,0,P|12:199|19:153,1,75,10|0,2:0|2:0,2:0:0:0:
261,351,183682,6,0,B|181:321|196:358|98:325,1,150,2|8,1:0|2:0,2:0:0:0:
290,258,184091,1,0,2:0:0:0:
290,258,184160,1,0,2:0:0:0:
290,258,184228,2,0,P|329:271|380:286,1,75,0|0,2:0|1:0,2:0:0:0:
490,378,184500,2,0,B|494:342|494:342|474:291,1,75,10|0,2:0|2:0,2:0:0:0:
327,148,184773,6,0,P|317:199|303:248,1,75,2|0,1:0|2:0,2:0:0:0:
482,161,185046,2,0,P|442:126|407:90,1,75,10|0,2:0|2:0,2:0:0:0:
393,288,185319,2,0,P|442:271|491:258,1,75,2|0,2:0|1:0,2:0:0:0:
243,144,185591,1,10,2:0:0:0:
308,188,185728,1,0,2:0:0:0:
144,245,185864,6,0,P|146:178|179:88,1,150,2|8,1:0|2:0,2:0:0:0:
38,26,186273,1,0,2:0:0:0:
38,26,186341,1,0,2:0:0:0:
38,26,186410,2,0,P|75:14|129:-8,1,75,2|0,2:0|1:0,2:0:0:0:
25,214,186682,2,0,P|13:177|-9:123,1,75,10|0,2:0|2:0,2:0:0:0:
268,137,186955,6,0,B|186:111|206:147|97:108,1,150,2|10,1:0|2:0,2:0:0:0:
255,213,187364,1,0,2:0:0:0:
143,295,187500,1,2,2:0:0:0:
124,223,187637,1,0,1:0:0:0:
277,285,187773,2,0,P|265:330|258:376,1,75,10|0,2:0|2:0,2:0:0:0:
11,364,188046,6,0,P|76:323|85:233,2,150,4|10|2,1:0|2:0|2:0,2:0:0:0:
166,308,188728,1,0,1:0:0:0:
30,189,188864,2,0,P|70:176|128:153,1,75,10|0,2:0|2:0,2:0:0:0:
239,15,189137,6,0,P|226:61|232:113,1,75,2|0,1:0|2:0,2:0:0:0:
410,139,189410,2,0,P|423:93|417:41,1,75,10|0,2:0|2:0,2:0:0:0:
333,140,189682,1,2,2:0:0:0:
397,217,189819,1,0,1:0:0:0:
271,35,189955,6,0,P|230:126|230:193,1,150,10|0,2:0|1:0,2:0:0:0:
167,222,190364,1,0,2:0:0:0:
350,341,190500,2,0,P|341:295|316:250,1,75,10|0,2:0|2:0,2:0:0:0:
158,337,190773,1,2,2:0:0:0:
226,373,190910,1,0,1:0:0:0:
176,309,191046,1,10,2:0:0:0:
79,337,191182,1,0,2:0:0:0:
185,233,191319,6,0,B|277:200|257:235|348:201,2,150,2|10|2,1:0|2:0|2:0,2:0:0:0:
129,186,192000,1,0,1:0:0:0:
3,229,192137,2,0,P|8:180|34:131,1,75,10|0,2:0|2:0,2:0:0:0:
177,7,192410,6,0,P|199:66|203:158,1,150,2|8,1:0|2:0,2:0:0:0:
345,244,192819,1,0,2:0:0:0:
388,181,192955,1,0,2:0:0:0:
326,137,193091,1,0,1:0:0:0:
280,201,193228,2,0,P|265:259|265:308,1,75,10|0,2:0|2:0,2:0:0:0:
487,372,193500,6,0,B|458:278|495:303|451:202,1,150,2|10,1:0|2:0,2:0:0:0:
246,285,193910,1,0,2:0:0:0:
246,285,193978,1,0,2:0:0:0:
246,285,194046,2,0,P|248:236|277:188,1,75,2|0,2:0|1:0,2:0:0:0:
382,384,194319,2,0,P|333:382|285:353,1,75,10|0,2:0|2:0,2:0:0:0:
464,186,194591,6,0,P|503:250|475:331,1,150,2|8,1:0|2:0,2:0:0:0:
288,233,195000,1,0,2:0:0:0:
288,233,195069,1,0,2:0:0:0:
288,233,195137,2,0,B|246:222|233:211|233:211|219:213|219:213|205:208|205:208|171:211,1,112.5,2|0,3:0|3:0,2:0:0:0:
174,227,195410,1,8,2:0:0:0:
217,180,195546,1,0,2:0:0:0:
113,93,195682,6,0,B|95:128|95:128|93:178,1,75,2|0,1:0|2:0,2:0:0:0:
279,243,195955,2,0,B|297:208|297:208|299:158,1,75,10|0,2:0|2:0,2:0:0:0:
96,354,196228,1,2,2:0:0:0:
158,305,196364,1,0,1:0:0:0:
86,274,196500,1,10,2:0:0:0:
173,382,196637,2,0,P|220:369|273:361,1,75,0|0,2:0|2:0,2:0:0:0:
