osu file format v14

[General]
AudioFilename: audio.mp3
AudioLeadIn: 0
PreviewTime:26676
Countdown: 0
SampleSet: Soft
StackLeniency: 0.2
Mode: 0
LetterboxInBreaks: 0
WidescreenStoryboard: 1

[Editor]
Bookmarks:33222,47267,90085
DistanceSpacing: 0.3
BeatDivisor: 8
GridSize: 32
TimelineZoom: 2.799999

[Metadata]
Title:Narazumono
TitleUnicode:不成者
Artist:DUSTCELL
ArtistUnicode:DUSTCELL
Creator:achyoo
Version:Rtyzen's Another (feat. megumic)
Source:
Tags:kudou chitose mrrrk ayucchi azyeu mocaotic asagi rtyzen megumic _gt japanese pop jpop hip-hop hiphop j-pop hypnotize KAMITSUBAKI STUDIO 神椿スタジオ thinkr ema misumi gst:live2022 great singapore tournament live 2022 gstlive custom map tourney AEF asia esports festival online kallang wave mall EXP experience center gstlive2022a3
BeatmapID:4120004
BeatmapSetID:1893881

[Difficulty]
HPDrainRate:4.2
CircleSize:4
OverallDifficulty:8
ApproachRate:9
SliderMultiplier:3.59999990463257
SliderTickRate:1

[Events]
//Background and Video events
0,0,"us.jpg",0,0
//Break Periods
//Storyboard Layer 0 (Background)
//Storyboard Layer 1 (Fail)
//Storyboard Layer 2 (Pass)
//Storyboard Layer 3 (Foreground)
//Storyboard Layer 4 (Overlay)
//Storyboard Sound Samples

[TimingPoints]
-186,545.454545454546,4,2,1,40,1,0
904,545.454545454546,4,2,1,50,1,0
17540,-166.666666666667,4,2,1,50,0,0
17676,-142.857142857143,4,2,1,50,0,0
17813,-125,4,2,1,50,0,0
17949,-111.111111111111,4,2,1,50,0,0
18085,-100,4,2,1,50,0,0
18222,-90.9090909090909,4,2,1,50,0,0
18358,-90.9090909090909,4,2,1,45,0,0
18904,-166.666666666667,4,2,1,45,0,0
22176,-125,4,2,1,45,0,0
22722,-125,4,2,1,65,0,0
24904,-1000,4,2,1,35,0,0
27085,-1000,4,2,1,75,0,0
27358,-100,4,2,1,75,0,0
35540,-76.9230769230769,4,2,1,75,0,0
35813,-100,4,2,1,75,0,0
44540,-500,4,2,1,40,0,0
46176,-83.3333333333333,4,2,1,40,0,0
46722,545.454545454546,4,2,1,50,1,0
46994,-125,4,2,1,50,0,0
52722,-100,4,2,1,50,0,0
53267,-125,4,2,1,50,0,0
63085,-100,4,2,1,50,0,0
63358,-166.666666666667,4,2,1,50,0,0
63494,-142.857142857143,4,2,1,50,0,0
63631,-125,4,2,1,50,0,0
63767,-111.111111111111,4,2,1,50,0,0
63903,-100,4,2,1,50,0,0
64040,-90.9090909090909,4,2,1,50,0,0
64176,-90.9090909090909,4,2,1,45,0,0
64722,-100,4,2,1,45,0,0
65812,-166.666666666667,4,2,1,45,0,0
67994,-125,4,2,1,45,0,0
68267,-100,4,2,1,45,0,0
68540,-100,4,2,1,65,0,0
70722,-1000,4,2,1,35,0,0
72903,-1000,4,2,1,75,0,0
73176,-100,4,2,1,75,0,0
76994,-76.9230769230769,4,2,1,75,0,0
77267,-100,4,2,1,75,0,0
77812,-76.9230769230769,4,2,1,75,0,0
78085,-100,4,2,1,75,0,0
81358,-76.9230769230769,4,2,1,75,0,0
81631,-100,4,2,1,75,0,0
89267,-66.6666666666667,4,2,1,85,0,0
89812,-100,4,2,1,85,0,0
90358,-100,4,2,1,70,0,0
99085,-76.9230769230769,4,2,1,70,0,0
99494,-100,4,2,1,70,0,0
107812,-100,4,2,1,40,0,0

[Colours]
Combo1 : 255,228,138
Combo2 : 140,172,255
Combo3 : 255,108,108
Combo4 : 170,170,170

[HitObjects]
42,232,904,6,0,B|92:216|108:245|103:245|102:245|127:274|182:251,1,134.99999642372137,0|0,3:2|2:0,2:0:0:0:
167,255,1176,2,0,L|173:193,1,44.999998807907126,0|0,2:0|2:0,2:0:0:0:
248,238,1313,2,0,L|254:176,1,44.999998807907126,2|0,2:0|2:0,2:0:0:0:
328,257,1449,1,0,1:2:0:0:
400,233,1585,1,0,2:0:0:0:
479,250,1722,1,0,2:0:0:0:
486,253,1858,1,0,2:0:0:0:
388,330,1994,6,0,L|400:236,1,89.99999761581425,2|0,2:0|2:0,2:0:0:0:
265,104,2267,2,0,L|246:249,1,134.99999642372137,2|0,3:2|2:0,2:0:0:0:
247,243,2540,1,0,1:2:0:0:
98,306,2676,2,0,L|110:212,1,89.99999761581425,0|0,2:0|2:0,2:0:0:0:
49,79,2949,2,0,L|39:151,1,44.999998807907126,2|0,2:0|2:0,2:0:0:0:
6,187,3085,5,2,3:2:0:0:
107,210,3222,1,0,2:0:0:0:
161,155,3358,1,0,2:0:0:0:
242,178,3494,1,0,2:0:0:0:
317,144,3631,1,2,1:2:0:0:
325,150,3767,1,0,2:0:0:0:
395,190,3904,1,2,2:0:0:0:
488,155,4040,1,0,2:0:0:0:
487,243,4176,6,0,P|440:263|431:322,1,89.99999761581425,2|2,2:0|2:0,2:0:0:0:
331,146,4449,1,2,3:2:0:0:
325,150,4585,2,0,P|278:130|269:71,1,89.99999761581425,2|0,2:0|1:2,2:0:0:0:
189,281,4858,2,0,P|175:313|200:346,1,44.999998807907126,0|0,3:2|2:0,2:0:0:0:
142,210,4994,1,0,2:0:0:0:
64,225,5131,1,0,2:0:0:0:
17,158,5267,6,0,L|165:182,1,134.99999642372137,2|0,3:2|2:0,2:0:0:0:
150,179,5540,2,0,B|173:140|173:140|151:88,1,89.99999761581425,2|0,2:0|2:0,2:0:0:0:
267,108,5813,1,0,1:2:0:0:
301,225,5949,5,0,2:0:0:0:
371,179,6085,1,0,2:0:0:0:
417,249,6222,1,0,2:0:0:0:
506,194,6358,5,2,2:0:0:0:
496,189,6494,1,0,2:0:0:0:
412,253,6631,2,0,B|389:292|389:292|411:344,1,89.99999761581425,2|0,3:2|2:0,2:0:0:0:
355,117,6904,1,0,1:2:0:0:
252,147,7040,2,0,B|229:108|229:108|251:56,1,89.99999761581425,0|0,2:0|2:0,2:0:0:0:
207,224,7313,1,0,2:0:0:0:
22,191,7449,5,2,3:2:0:0:
31,184,7585,1,0,2:0:0:0:
96,234,7722,1,2,2:0:0:0:
143,175,7858,1,0,2:0:0:0:
215,232,7994,6,0,L|206:288,1,44.999998807907126,2|0,1:2|2:0,2:0:0:0:
283,261,8131,2,0,L|274:317,1,44.999998807907126,0|0,2:0|2:0,2:0:0:0:
341,204,8267,6,0,L|332:148,1,44.999998807907126,2|0,2:0|2:0,2:0:0:0:
409,175,8404,2,0,L|400:119,1,44.999998807907126,2|0,2:0|2:0,2:0:0:0:
482,213,8540,5,2,2:0:0:0:
490,217,8676,1,0,2:0:0:0:
362,287,8813,5,2,3:2:0:0:
341,204,8949,1,0,2:0:0:0:
371,291,9085,2,0,L|359:382,1,89.99999761581425,2|0,1:2|3:2,2:0:0:0:
234,256,9358,2,0,L|254:99,1,134.99999642372137,2|0,2:0|2:0,2:0:0:0:
184,84,9631,6,0,L|78:94,1,89.99999761581425,2|0,3:2|2:0,2:0:0:0:
24,300,9904,2,0,L|191:282,1,134.99999642372137,0|0,2:0|2:0,2:0:0:0:
234,256,10176,2,0,L|249:141,1,89.99999761581425,2|0,1:2|2:0,2:0:0:0:
324,110,10449,1,2,2:0:0:0:
331,114,10585,1,0,2:0:0:0:
393,176,10722,5,2,2:0:0:0:
454,54,10858,2,0,L|469:168,1,89.99999761581425,2|0,2:0|3:2,2:0:0:0:
338,236,11131,2,0,L|353:350,1,89.99999761581425,2|0,2:0|1:2,2:0:0:0:
347,333,11404,1,0,2:0:0:0:
269,167,11540,2,0,P|197:188|180:258,1,134.99999642372137,0|0,2:0|2:0,2:0:0:0:
116,281,11813,5,2,3:2:0:0:
28,266,11949,1,0,2:0:0:0:
120,287,12085,1,0,2:0:0:0:
180,154,12222,5,0,2:0:0:0:
272,174,12358,1,2,1:2:0:0:
252,266,12494,1,0,2:0:0:0:
320,329,12631,5,2,2:0:0:0:
409,299,12767,1,0,2:0:0:0:
447,202,12904,2,0,L|499:213,1,44.999998807907126,2|0,2:0|2:0,2:0:0:0:
491,211,13040,6,0,L|394:219,1,89.99999761581425,2|0,2:0|3:2,2:0:0:0:
316,133,13313,2,0,L|219:141,1,89.99999761581425,2|0,2:0|1:2,2:0:0:0:
136,176,13585,1,0,3:2:0:0:
24,230,13722,5,2,2:0:0:0:
50,149,13858,1,0,2:0:0:0:
16,238,13994,5,2,3:2:0:0:
116,254,14131,1,0,2:0:0:0:
162,326,14267,1,0,2:0:0:0:
244,301,14404,1,0,2:0:0:0:
321,367,14540,1,2,1:2:0:0:
225,159,14813,1,2,2:0:0:0:
326,372,15085,6,0,L|359:213,1,134.99999642372137,2|0,2:0|2:0,2:0:0:0:
353,239,15358,2,0,L|346:180,1,44.999998807907126,0|0,3:2|2:0,2:0:0:0:
420,164,15494,2,0,L|427:223,1,44.999998807907126,0|0,2:0|2:0,2:0:0:0:
502,198,15631,5,2,1:2:0:0:
511,202,15767,1,0,2:0:0:0:
413,157,15904,1,2,2:0:0:0:
328,195,16040,1,0,2:0:0:0:
316,87,16176,5,2,3:2:0:0:
239,153,16313,1,0,2:0:0:0:
157,128,16449,1,0,2:0:0:0:
111,200,16585,1,0,2:0:0:0:
11,216,16722,1,2,1:2:0:0:
85,372,16994,1,2,2:0:0:0:
14,210,17267,6,0,L|174:188,1,134.99999642372137,0|0,3:2|2:0,2:0:0:0:
204,148,17540,6,0,L|198:114,1,26.999999284744217,0|0,3:2|2:0,2:0:0:0:
273,125,17676,2,0,L|267:91,1,31.499999165534952,0|0,3:2|2:0,2:0:0:0:
310,190,17813,6,0,L|303:228,1,35.9999990463257,0|0,1:2|2:0,2:0:0:0:
381,207,17949,2,0,L|373:247,1,40.49999892711645,2|0,3:2|2:0,2:0:0:0:
415,142,18085,6,0,L|406:96,1,44.999998807907126,2|0,3:2|2:0,2:0:0:0:
483,122,18222,2,0,L|473:68,1,49.499998688697836,2|0,3:2|2:0,2:0:0:0:
469,203,18358,5,6,2:0:0:0:
327,92,18904,2,0,L|52:134,1,269.9999928474422,2|0,1:2|2:0,2:0:0:0:
60,132,19722,2,0,L|49:195,1,53.99999856948843,2|0,3:2|2:0,2:0:0:0:
143,94,19994,1,0,1:2:0:0:
125,223,20131,2,0,L|134:169,2,53.99999856948843,0|0|0,2:0|2:0|2:0,2:0:0:0:
208,202,20540,5,0,3:2:0:0:
271,149,20676,1,0,2:0:0:0:
342,182,20813,1,2,2:0:0:0:
348,185,20949,1,0,2:0:0:0:
405,128,21085,5,2,1:2:0:0:
476,180,21222,1,0,2:0:0:0:
424,251,21358,1,2,2:0:0:0:
424,251,21631,6,0,L|436:313,1,53.99999856948843,2|0,3:2|2:0,2:0:0:0:
334,292,21904,2,0,L|346:354,1,53.99999856948843,0|0,3:2|2:0,2:0:0:0:
223,198,22176,6,0,L|237:123,1,71.9999980926514,0|2,1:2|3:2,2:0:0:0:
128,152,22449,2,0,L|142:76,1,71.9999980926514,2|2,1:2|2:0,2:0:0:0:
0,190,22722,5,0,3:2:0:0:
52,245,22858,1,0,1:2:0:0:
125,224,22994,1,0,3:2:0:0:
132,226,23131,1,0,1:2:0:0:
144,148,23267,5,2,1:2:0:0:
196,93,23404,1,0,1:2:0:0:
269,114,23540,1,0,3:2:0:0:
276,112,23676,1,0,1:2:0:0:
353,98,23813,5,2,3:2:0:0:
336,194,23949,1,0,1:2:0:0:
424,143,24085,5,2,3:2:0:0:
407,239,24222,1,0,1:2:0:0:
486,214,24358,5,2,3:2:0:0:
402,242,24494,1,2,1:2:0:0:
430,326,24631,1,2,3:2:0:0:
512,298,24767,1,2,1:2:0:0:
455,269,24904,6,0,L|452:258,3,8.999999761581424,2|0|0|0,3:2|2:0|2:0|2:0,2:0:0:0:
371,294,25449,6,0,L|373:302,3,8.999999761581424,0|0|0|0,2:0|2:0|2:0|2:0,2:0:0:0:
291,335,25994,6,0,L|289:327,3,8.999999761581424,0|0|0|0,2:0|2:0|2:0|2:0,2:0:0:0:
291,335,26676,6,0,L|289:327,2,8.999999761581424,2|2|2,2:0|2:0|2:0,2:0:0:0:
26,216,27085,5,6,3:2:0:0:
124,148,27222,1,0,2:0:0:0:
221,217,27358,2,0,L|231:274,1,44.999998807907126,2|0,3:2|2:0,2:0:0:0:
296,179,27494,2,0,L|306:236,1,44.999998807907126,0|0,3:2|2:0,2:0:0:0:
376,291,27631,6,0,L|386:234,1,44.999998807907126,2|0,1:2|2:0,2:0:0:0:
453,158,27767,1,2,2:0:0:0:
498,251,27904,2,0,P|467:262|452:284,3,44.999998807907126,2|0|0|0,2:0|2:0|3:2|2:0,2:0:0:0:
375,173,28176,5,2,2:0:0:0:
372,168,28313,1,0,3:2:0:0:
291,309,28449,1,2,2:0:0:0:
221,217,28585,1,2,3:2:0:0:
131,258,28722,2,0,L|119:304,1,44.999998807907126,0|0,1:2|2:0,2:0:0:0:
62,220,28858,1,0,2:0:0:0:
191,339,28994,2,0,L|202:295,2,44.999998807907126,2|0|0,2:3|2:0|2:0,2:0:0:0:
51,215,29267,6,0,L|215:187,1,134.99999642372137,2|0,3:2|2:0,2:0:0:0:
256,158,29540,2,0,B|274:117|274:117|251:73,1,89.99999761581425,2|0,2:0|3:2,2:0:0:0:
329,237,29813,1,2,1:2:0:0:
335,244,29949,1,2,2:0:0:0:
411,131,30085,2,0,L|396:191,3,44.999998807907126,0|0|0|0,2:0|2:0|3:2|2:0,2:0:0:0:
461,223,30358,5,2,2:0:0:0:
324,162,30494,1,2,2:0:0:0:
257,223,30631,1,2,2:0:0:0:
120,162,30767,1,2,3:2:0:0:
162,307,30904,2,0,L|178:217,1,89.99999761581425,0|0,1:2|2:0,2:0:0:0:
58,53,31176,2,0,L|31:203,1,134.99999642372137,4|0,2:0|2:0,2:0:0:0:
11,260,31449,5,2,3:2:0:0:
120,162,31585,1,0,2:0:0:0:
184,224,31722,2,0,L|171:295,1,44.999998807907126,2|0,3:2|2:0,2:0:0:0:
249,297,31858,1,0,3:2:0:0:
320,153,31994,2,0,B|387:134|387:134|418:202,1,134.99999642372137,0|0,1:2|2:0,2:0:0:0:
363,289,32267,2,0,B|346:270|346:270|352:243,3,44.999998807907126,0|0|2|0,2:0|2:0|3:2|2:0,2:0:0:0:
495,254,32540,5,2,2:0:0:0:
499,245,32676,1,0,3:2:0:0:
414,193,32813,1,0,2:0:0:0:
266,246,32949,1,2,3:2:0:0:
306,131,33085,2,0,L|297:190,1,44.999998807907126,0|0,1:2|2:0,2:0:0:0:
190,278,33222,2,0,L|183:233,1,44.999998807907126,2|0,2:0|2:0,2:0:0:0:
115,113,33358,2,0,L|106:172,3,44.999998807907126,2|0|2|0,2:3|2:0|2:0|2:0,2:0:0:0:
33,188,33631,5,2,3:2:0:0:
187,147,33767,1,0,2:0:0:0:
161,223,33904,1,0,2:0:0:0:
276,260,34040,1,0,3:2:0:0:
272,159,34176,5,2,1:2:0:0:
426,118,34313,1,0,2:0:0:0:
349,204,34449,1,2,2:0:0:0:
464,241,34585,2,0,L|474:189,1,44.999998807907126,0|0,3:2|2:0,2:0:0:0:
361,36,34722,6,0,L|337:157,1,89.99999761581425,2|0,2:0|3:2,2:0:0:0:
232,337,34994,1,2,2:0:0:0:
225,334,35131,2,0,L|201:212,1,89.99999761581425,2|0,3:2|1:2,2:0:0:0:
69,92,35404,2,0,L|55:159,1,44.999998807907126,2|0,2:0|2:0,2:0:0:0:
8,189,35540,2,0,B|55:267|55:267|152:224,1,175.49999535083782,14|0,2:0|2:0,2:0:0:0:
7,182,35813,6,0,L|111:167,1,89.99999761581425,6|0,3:2|2:0,2:0:0:0:
254,27,36085,2,0,L|150:42,1,89.99999761581425,2|0,3:2|3:2,2:0:0:0:
132,232,36358,2,0,L|124:292,1,44.999998807907126,2|0,1:2|2:0,2:0:0:0:
254,189,36494,2,0,L|246:249,1,44.999998807907126,0|0,2:0|2:0,2:0:0:0:
339,222,36631,1,0,2:0:0:0:
337,232,36767,1,0,3:2:0:0:
474,189,36904,6,0,B|435:156|435:156|380:180,1,89.99999761581425,2|2,2:0|3:2,2:0:0:0:
302,305,37176,1,2,2:0:0:0:
248,233,37313,2,0,L|254:189,1,44.999998807907126,2|0,3:2|2:0,2:0:0:0:
148,133,37449,2,0,L|153:177,1,44.999998807907126,0|0,1:2|2:0,2:0:0:0:
74,150,37585,2,0,L|79:194,1,44.999998807907126,0|0,2:0|2:0,2:0:0:0:
45,268,37722,2,0,L|-12:255,3,44.999998807907126,2|0|0|0,2:3|2:0|2:0|2:0,2:0:0:0:
52,270,37994,5,2,3:2:0:0:
153,177,38131,1,0,2:0:0:0:
218,220,38267,1,2,2:0:0:0:
225,224,38404,1,2,3:2:0:0:
272,138,38540,6,0,L|330:130,1,44.999998807907126,2|0,1:2|2:0,2:0:0:0:
300,284,38676,2,0,L|358:292,1,44.999998807907126,0|0,2:0|2:0,2:0:0:0:
401,161,38813,2,0,L|459:153,3,44.999998807907126,0|0|2|0,2:0|2:0|3:2|2:0,2:0:0:0:
505,204,39085,5,2,2:0:0:0:
425,288,39222,1,0,3:2:0:0:
341,208,39358,1,2,2:0:0:0:
230,321,39494,2,0,B|214:275|214:275|247:224,1,89.99999761581425,2|0,3:2|1:2,2:0:0:0:
189,89,39767,2,0,L|196:138,1,44.999998807907126,0|0,2:0|2:0,2:0:0:0:
141,188,39904,2,0,L|-2:166,1,134.99999642372137,4|0,2:0|2:0,2:0:0:0:
26,195,40176,5,2,3:2:0:0:
125,169,40313,1,2,2:0:0:0:
151,268,40449,1,0,3:2:0:0:
219,205,40517,2,0,L|285:215,1,44.999998807907126,0|2,2:0|3:2,2:0:0:0:
340,155,40722,1,0,1:2:0:0:
348,158,40858,1,2,2:0:0:0:
420,209,40994,1,0,2:0:0:0:
473,134,41131,2,0,L|462:84,1,44.999998807907126,2|0,3:2|2:0,2:0:0:0:
509,209,41267,5,2,2:0:0:0:
384,280,41404,1,0,3:2:0:0:
421,202,41540,1,2,2:0:0:0:
264,137,41676,1,2,3:2:0:0:
328,212,41813,2,0,L|221:234,1,89.99999761581425,0|2,1:2|2:0,2:0:0:0:
147,116,42085,2,0,B|108:102|108:102|70:134,1,89.99999761581425,2|2,2:3|2:0,2:0:0:0:
5,226,42358,5,0,3:2:0:0:
139,276,42494,1,0,2:0:0:0:
167,206,42631,5,2,2:0:0:0:
240,185,42767,1,2,3:2:0:0:
285,254,42904,5,2,1:2:0:0:
294,257,43040,1,2,2:0:0:0:
397,125,43176,2,0,L|409:189,3,44.999998807907126,2|0|2|0,2:0|2:0|3:2|2:0,2:0:0:0:
479,212,43449,5,2,2:0:0:0:
386,258,43585,1,0,3:2:0:0:
324,175,43722,1,2,2:0:0:0:
256,224,43858,1,2,3:2:0:0:
188,175,43994,1,0,1:2:0:0:
126,258,44131,1,2,2:0:0:0:
33,212,44267,1,14,2:0:0:0:
33,212,44540,6,0,L|41:174,1,35.9999990463257,2|0,2:0|2:0,2:0:0:0:
33,212,45085,6,0,L|41:174,1,35.9999990463257,2|0,2:0|2:0,2:0:0:0:
33,212,45631,6,0,L|41:174,1,35.9999990463257,2|0,2:0|2:0,2:0:0:0:
33,212,46176,6,0,B|41:177|41:177|155:165|155:165|206:213|206:213|320:230|320:230|337:181,1,377.99998998642,0|0,2:0|2:0,2:0:0:0:
397,151,46722,1,0,3:2:0:0:
397,151,46994,6,0,L|470:161,1,71.9999980926514,0|0,2:0|2:0,2:0:0:0:
306,60,47267,2,0,L|452:80,1,143.9999961853028,2|0,1:2|2:0,2:0:0:0:
300,56,47676,1,0,2:0:0:0:
244,201,47812,2,0,L|317:211,1,71.9999980926514,0|0,2:0|2:0,2:0:0:0:
124,98,48085,2,0,L|197:108,1,71.9999980926514,2|0,3:2|2:0,2:0:0:0:
29,182,48358,1,0,1:2:0:0:
29,182,48631,6,0,L|39:260,1,71.9999980926514,0|0,2:0|2:0,2:0:0:0:
139,342,48903,2,0,P|165:285|96:226,1,143.9999961853028,2|0,3:2|2:0,2:0:0:0:
131,123,49312,1,0,2:0:0:0:
192,71,49449,2,0,P|217:108|204:149,1,71.9999980926514,2|0,1:2|3:2,2:0:0:0:
243,224,49722,2,0,P|273:206|286:173,1,71.9999980926514,0|0,2:0|2:0,2:0:0:0:
310,77,49994,6,0,P|354:91|391:91,1,71.9999980926514,0|0,2:0|2:0,2:0:0:0:
350,273,50267,2,0,P|394:259|431:259,1,71.9999980926514,2|0,3:2|2:0,2:0:0:0:
462,88,50540,1,2,1:2:0:0:
413,180,50676,1,0,3:2:0:0:
506,228,50812,1,0,2:0:0:0:
506,228,51085,6,0,L|346:209,1,143.9999961853028,2|0,3:2|2:0,2:0:0:0:
300,144,51494,1,0,2:0:0:0:
222,184,51631,1,2,1:2:0:0:
222,184,51903,2,0,L|235:265,1,71.9999980926514,0|0,2:0|2:0,2:0:0:0:
56,78,52176,6,0,L|80:231,1,143.9999961853028,2|0,2:0|3:2,2:0:0:0:
147,146,52585,1,0,2:0:0:0:
127,285,52722,2,0,B|69:322|69:322|18:268,1,134.99999642372137,0|0,1:2|2:0,2:0:0:0:
23,273,52994,2,0,B|41:224|41:224|84:219,1,89.99999761581425,0|0,2:0|2:0,2:0:0:0:
147,146,53267,6,0,L|276:163,1,107.9999971389771,2|0,3:2|2:0,2:0:0:0:
326,141,53540,1,0,2:0:0:0:
332,138,53676,1,0,2:0:0:0:
193,231,53812,2,0,L|283:243,1,71.9999980926514,2|0,1:2|2:0,2:0:0:0:
338,135,54085,2,0,L|428:147,1,71.9999980926514,0|0,2:0|2:0,2:0:0:0:
479,181,54358,5,2,2:0:0:0:
417,254,54494,1,0,2:0:0:0:
336,212,54631,1,0,3:2:0:0:
330,208,54767,1,0,2:0:0:0:
247,244,54903,5,2,1:2:0:0:
197,181,55040,1,2,3:2:0:0:
120,224,55176,1,0,2:0:0:0:
0,135,55449,6,0,L|171:115,1,143.9999961853028,0|2,3:2|2:0,2:0:0:0:
207,67,55858,1,0,2:0:0:0:
265,125,55994,1,2,1:2:0:0:
265,125,56267,2,0,L|246:202,1,71.9999980926514,0|0,2:0|2:0,2:0:0:0:
287,291,56540,6,0,L|416:271,1,107.9999971389771,2|0,2:0|2:0,2:0:0:0:
393,274,56812,2,0,L|410:204,1,71.9999980926514,2|0,3:2|2:0,2:0:0:0:
349,103,57085,1,2,1:2:0:0:
329,179,57222,1,0,2:0:0:0:
489,219,57358,1,0,2:0:0:0:
489,219,57631,6,0,P|486:167|451:147,1,71.9999980926514,2|0,2:3|2:0,2:0:0:0:
414,108,57903,2,0,P|363:94|333:121,1,71.9999980926514,2|0,2:0|2:0,2:0:0:0:
267,225,58176,2,0,P|238:266|138:258,1,143.9999961853028,2|0,1:2|2:0,2:0:0:0:
93,157,58585,1,0,2:0:0:0:
19,181,58722,6,0,L|95:167,1,71.9999980926514,2|0,2:0|2:0,2:0:0:0:
150,268,58994,2,0,L|226:254,1,71.9999980926514,2|0,3:2|2:0,2:0:0:0:
253,134,59267,1,2,1:2:0:0:
260,139,59403,1,0,3:2:0:0:
325,187,59540,1,0,2:0:0:0:
388,138,59676,1,0,2:0:0:0:
512,225,59812,6,0,B|463:212|445:248|450:247|451:247|429:283|373:265,1,143.9999961853028,0|0,3:2|2:0,2:0:0:0:
325,187,60222,2,0,L|337:100,1,71.9999980926514,0|0,2:0|1:2,2:0:0:0:
190,250,60494,2,0,L|202:163,1,71.9999980926514,2|0,2:0|2:0,2:0:0:0:
69,47,60767,2,0,L|52:163,1,107.9999971389771,2|0,2:0|2:0,2:0:0:0:
4,216,61040,6,0,P|47:233|93:211,1,71.9999980926514,0|0,2:0|3:2,2:0:0:0:
137,138,61312,1,0,2:0:0:0:
190,250,61449,1,2,1:2:0:0:
246,192,61585,1,0,2:0:0:0:
326,203,61722,1,2,2:0:0:0:
335,206,61858,1,0,2:0:0:0:
476,162,61994,5,0,3:2:0:0:
354,280,62267,1,0,2:0:0:0:
347,276,62403,2,0,L|333:196,1,71.9999980926514,2|2,2:0|1:2,2:0:0:0:
206,139,62676,1,0,2:0:0:0:
132,161,62812,1,2,2:0:0:0:
127,167,62949,1,2,2:0:0:0:
35,167,63085,6,0,L|195:189,1,134.99999642372137,0|0,2:0|2:0,2:0:0:0:
225,229,63358,6,0,L|219:263,1,26.999999284744217,0|0,3:2|2:0,2:0:0:0:
294,252,63494,2,0,L|288:286,1,31.499999165534952,0|0,3:2|2:0,2:0:0:0:
331,187,63631,6,0,L|324:149,1,35.9999990463257,0|0,1:2|2:0,2:0:0:0:
402,170,63767,2,0,L|394:130,1,40.49999892711645,0|0,3:2|2:0,2:0:0:0:
436,235,63903,6,0,L|427:281,1,44.999998807907126,0|0,3:2|2:0,2:0:0:0:
504,255,64040,2,0,L|494:309,1,49.499998688697836,2|0,3:2|2:0,2:0:0:0:
490,172,64176,5,6,2:0:0:0:
256,134,64722,2,0,P|235:86|260:48,1,89.99999761581425,2|0,1:2|2:0,2:0:0:0:
341,172,64994,2,0,B|300:247|300:247|202:210,1,179.9999952316285,0|2,2:0|2:0,2:0:0:0:
167,149,65403,1,0,2:0:0:0:
94,120,65540,1,2,3:2:0:0:
35,171,65676,1,0,2:0:0:0:
35,171,65812,2,0,L|43:239,1,53.99999856948843,0|0,1:2|2:0,2:0:0:0:
124,227,66085,2,0,L|116:295,1,53.99999856948843,0|0,2:0|2:0,2:0:0:0:
30,168,66358,6,0,L|38:236,1,53.99999856948843,0|0,3:2|2:0,2:0:0:0:
155,125,66631,1,2,2:0:0:0:
235,145,66767,1,0,2:0:0:0:
267,225,66903,5,2,1:2:0:0:
347,172,67040,1,0,2:0:0:0:
430,217,67176,1,2,2:0:0:0:
430,217,67449,6,0,L|424:284,1,53.99999856948843,2|0,3:2|2:0,2:0:0:0:
336,256,67722,2,0,L|330:323,1,53.99999856948843,0|0,3:2|2:0,2:0:0:0:
243,170,67994,6,0,L|234:80,1,71.9999980926514,0|2,1:2|3:2,2:0:0:0:
123,147,68267,2,0,L|114:57,1,89.99999761581425,2|2,1:2|2:0,2:0:0:0:
1,210,68540,5,0,3:2:0:0:
74,236,68676,1,0,1:2:0:0:
110,306,68812,1,0,3:2:0:0:
112,315,68949,1,0,1:2:0:0:
154,230,69085,5,2,1:2:0:0:
227,204,69222,1,0,1:2:0:0:
263,134,69358,1,0,3:2:0:0:
265,125,69494,1,0,1:2:0:0:
311,204,69631,5,2,3:2:0:0:
294,300,69767,1,0,1:2:0:0:
383,237,69903,5,2,3:2:0:0:
366,333,70040,1,0,1:2:0:0:
445,295,70176,5,2,3:2:0:0:
384,230,70312,1,2,1:2:0:0:
449,169,70449,1,2,3:2:0:0:
508,233,70585,1,2,1:2:0:0:
446,235,70722,6,0,L|443:224,4,8.999999761581424,2|0|0|0|0,3:2|2:0|2:0|2:0|2:0,2:0:0:0:
305,179,71540,6,0,L|302:168,5,8.999999761581424,0|0|0|0|0|0,2:0|2:0|2:0|2:0|2:0|2:0,2:0:0:0:
305,179,72494,6,0,L|302:168,2,8.999999761581424,2|2|2,2:0|2:0|2:0,2:0:0:0:
41,158,72903,5,6,3:2:0:0:
133,226,73040,1,0,2:0:0:0:
221,154,73176,2,0,L|210:97,1,44.999998807907126,2|0,3:2|2:0,2:0:0:0:
305,179,73312,2,0,L|294:122,1,44.999998807907126,0|0,3:2|2:0,2:0:0:0:
415,101,73449,2,0,L|398:154,1,44.999998807907126,2|0,1:2|2:0,2:0:0:0:
486,213,73585,1,2,2:0:0:0:
397,152,73722,2,0,L|405:196,3,44.999998807907126,2|0|0|0,2:0|2:0|3:2|2:0,2:0:0:0:
484,219,73994,5,2,2:0:0:0:
347,277,74131,1,0,3:2:0:0:
274,228,74267,1,2,2:0:0:0:
266,234,74403,1,2,3:2:0:0:
180,252,74540,2,0,L|190:196,1,44.999998807907126,0|0,1:2|2:0,2:0:0:0:
67,159,74676,2,0,L|77:103,1,44.999998807907126,0|0,2:0|2:0,2:0:0:0:
227,141,74812,2,0,P|191:127|178:113,2,44.999998807907126,2|0|0,2:3|2:0|2:0,2:0:0:0:
0,235,75085,6,0,P|59:240|150:292,1,134.99999642372137,2|0,3:2|2:0,2:0:0:0:
182,319,75358,2,0,P|199:290|196:266,1,44.999998807907126,2|0,2:0|2:0,2:0:0:0:
227,141,75494,2,0,P|244:170|241:194,1,44.999998807907126,0|0,3:2|2:0,2:0:0:0:
286,248,75631,1,2,1:2:0:0:
425,218,75767,1,2,2:0:0:0:
280,256,75903,2,0,B|338:252|320:278|380:271,1,89.99999761581425,0|0,2:0|3:2,2:0:0:0:
500,196,76176,5,2,2:0:0:0:
373,134,76312,1,2,2:0:0:0:
311,183,76449,1,2,2:0:0:0:
211,120,76585,2,0,L|196:177,1,44.999998807907126,2|0,3:2|2:0,2:0:0:0:
128,220,76722,2,0,L|31:205,1,89.99999761581425,0|0,1:2|2:0,2:0:0:0:
82,59,76994,2,0,B|132:40|132:40|90:166,1,175.49999535083782,4|0,2:0|2:0,2:0:0:0:
39,206,77267,6,0,L|50:249,1,44.999998807907126,2|0,3:2|2:0,2:0:0:0:
207,255,77403,2,0,L|218:298,1,44.999998807907126,0|0,2:0|2:0,2:0:0:0:
251,192,77540,1,2,3:2:0:0:
325,238,77676,2,0,L|380:243,1,44.999998807907126,0|0,3:2|2:0,2:0:0:0:
396,139,77812,2,0,B|404:120|404:120|476:143|476:143|439:221,1,175.49999535083782,0|0,1:2|2:0,2:0:0:0:
433,293,78085,2,0,L|447:352,3,44.999998807907126,0|0|2|0,2:0|2:0|3:2|2:0,2:0:0:0:
512,258,78358,5,2,2:0:0:0:
392,146,78494,1,0,3:2:0:0:
331,197,78631,1,0,2:0:0:0:
237,72,78767,2,0,L|256:180,1,89.99999761581425,2|0,3:2|1:2,2:0:0:0:
120,282,79040,2,0,L|135:193,1,89.99999761581425,2|2,2:0|2:3,2:0:0:0:
26,85,79312,2,0,L|35:139,1,44.999998807907126,2|0,2:0|2:0,2:0:0:0:
5,201,79449,5,2,3:2:0:0:
163,221,79585,1,0,2:0:0:0:
88,183,79722,5,0,2:0:0:0:
246,203,79858,1,0,3:2:0:0:
158,224,79994,5,2,1:2:0:0:
316,244,80131,1,0,2:0:0:0:
241,206,80267,5,2,2:0:0:0:
399,226,80403,2,0,L|457:233,1,44.999998807907126,0|0,3:2|2:0,2:0:0:0:
469,116,80540,6,0,B|425:99|425:99|386:136,1,89.99999761581425,2|0,2:0|3:2,2:0:0:0:
276,279,80812,1,2,2:0:0:0:
271,285,80949,2,0,B|227:302|227:302|188:265,1,89.99999761581425,2|0,3:2|1:2,2:0:0:0:
41,91,81222,2,0,L|51:149,1,44.999998807907126,2|0,2:0|2:0,2:0:0:0:
75,278,81358,2,0,B|82:299|82:299|142:213|142:213|87:193,1,175.49999535083782,14|0,2:0|2:0,2:0:0:0:
21,206,81631,6,0,B|63:225|63:225|103:190,1,89.99999761581425,6|0,3:2|2:0,2:0:0:0:
200,106,81903,2,0,L|210:164,1,44.999998807907126,2|0,3:2|2:0,2:0:0:0:
278,111,82040,2,0,L|288:169,1,44.999998807907126,0|0,3:2|2:0,2:0:0:0:
273,229,82176,1,2,1:2:0:0:
383,162,82312,1,0,2:0:0:0:
468,248,82449,2,0,L|458:306,3,44.999998807907126,0|0|0|0,2:0|2:0|3:2|2:0,2:0:0:0:
481,169,82722,5,2,2:0:0:0:
373,242,82858,1,2,3:2:0:0:
296,151,82994,1,2,2:0:0:0:
286,146,83131,1,2,3:2:0:0:
195,223,83267,2,0,P|181:245|178:273,1,44.999998807907126,0|0,1:2|2:0,2:0:0:0:
117,120,83403,2,0,P|103:98|100:70,1,44.999998807907126,0|0,2:0|2:0,2:0:0:0:
21,198,83540,2,0,P|26:207|24:192,3,44.999998807907126,2|0|0|0,2:3|2:0|2:0|2:0,2:0:0:0:
14,193,83812,5,2,3:2:0:0:
108,220,83949,1,0,2:0:0:0:
197,156,84085,1,2,2:0:0:0:
265,194,84222,1,2,3:2:0:0:
327,121,84358,5,2,1:2:0:0:
407,156,84494,1,0,2:0:0:0:
383,233,84631,1,0,2:0:0:0:
467,266,84767,2,0,L|481:217,1,44.999998807907126,2|0,3:2|2:0,2:0:0:0:
481,208,84903,5,2,2:0:0:0:
376,196,85040,1,0,3:2:0:0:
271,184,85176,1,2,2:0:0:0:
227,115,85312,2,0,P|168:136|118:147,1,89.99999761581425,2|0,3:2|1:2,2:0:0:0:
202,254,85585,2,0,P|199:227|194:204,1,44.999998807907126,0|0,2:0|2:0,2:0:0:0:
82,79,85722,2,0,P|56:118|96:203,1,134.99999642372137,4|0,2:0|2:0,2:0:0:0:
121,261,85994,5,2,3:2:0:0:
117,268,86131,1,2,2:0:0:0:
197,193,86267,1,0,3:2:0:0:
274,286,86403,2,0,B|300:250|300:250|281:199,1,89.99999761581425,2|0,3:2|1:2,2:0:0:0:
382,84,86676,2,0,L|375:134,1,44.999998807907126,2|0,2:0|2:0,2:0:0:0:
432,239,86812,2,0,L|490:251,3,44.999998807907126,0|0|2|0,2:0|2:0|3:2|2:0,2:0:0:0:
512,181,87085,5,2,2:0:0:0:
376,128,87222,1,0,3:2:0:0:
359,205,87358,1,2,2:0:0:0:
251,88,87494,2,0,L|269:182,1,89.99999761581425,2|0,3:2|1:2,2:0:0:0:
149,229,87767,1,2,2:0:0:0:
81,200,87903,1,2,2:3:0:0:
156,231,88040,1,2,2:0:0:0:
5,217,88176,5,0,3:2:0:0:
132,138,88312,1,0,2:0:0:0:
210,173,88449,1,2,2:0:0:0:
232,276,88585,5,2,3:2:0:0:
322,244,88722,1,2,1:2:0:0:
327,250,88858,1,2,2:0:0:0:
423,127,88994,6,0,L|416:178,3,44.999998807907126,2|0|2|0,2:0|2:0|3:2|2:0,2:0:0:0:
479,235,89267,6,0,P|434:265|429:297,3,67.49999821186066,2|0|0|0,1:2|1:2|1:2|2:0,2:0:0:0:
338,161,89540,2,0,P|293:131|288:99,3,67.49999821186066,2|0|2|0,1:2|2:0|3:2|2:0,2:0:0:0:
202,225,89812,6,0,L|190:281,1,44.999998807907126,0|0,1:2|2:0,2:0:0:0:
107,123,89949,1,2,1:2:0:0:
12,187,90085,1,2,3:2:0:0:
9,196,90222,1,0,2:0:0:0:
74,113,90358,6,0,B|134:183|83:210|137:289|144:282,1,179.9999952316285,4|0,3:2|3:2,2:0:0:0:
214,206,90767,1,0,3:2:0:0:
262,100,90903,1,2,1:2:0:0:
266,109,91040,1,0,2:0:0:0:
351,170,91176,2,0,L|358:116,1,44.999998807907126,0|0,2:0|2:0,2:0:0:0:
433,154,91312,2,0,L|440:100,1,44.999998807907126,2|0,3:2|2:0,2:0:0:0:
495,237,91449,5,2,2:0:0:0:
352,258,91585,1,0,3:2:0:0:
278,125,91722,1,0,2:0:0:0:
270,133,91858,1,0,3:2:0:0:
251,256,91994,2,0,B|255:264|255:264|249:299,1,44.999998807907126,2|0,1:2|2:0,2:0:0:0:
177,223,92131,2,0,B|171:258|171:258|175:266,1,44.999998807907126,0|0,2:0|2:0,2:0:0:0:
118,135,92267,2,0,P|132:117|131:142,3,44.999998807907126,0|0|0|0,2:0|2:0|1:2|2:0,2:0:0:0:
58,188,92540,5,2,3:2:0:0:
149,224,92676,1,0,2:0:0:0:
165,118,92812,5,2,2:0:0:0:
256,96,92949,1,0,3:2:0:0:
264,197,93085,5,0,1:2:0:0:
360,233,93222,1,2,2:0:0:0:
376,144,93358,6,0,B|471:118,1,89.99999761581425,2|0,2:0|3:2,2:0:0:0:
481,219,93631,6,0,L|140:146,1,314.99999165534985,2|0,2:0|2:0,2:0:0:0:
107,183,94176,1,0,1:2:0:0:
105,191,94312,1,2,2:0:0:0:
103,199,94449,1,2,2:3:0:0:
101,207,94585,1,0,2:0:0:0:
26,244,94722,6,0,P|72:289|135:277,1,89.99999761581425,2|0,3:2|2:0,2:0:0:0:
139,100,94994,1,2,3:2:0:0:
263,131,95131,1,0,3:2:0:0:
232,262,95267,2,0,L|226:307,1,44.999998807907126,2|0,1:2|2:0,2:0:0:0:
314,246,95403,2,0,L|308:291,1,44.999998807907126,0|0,2:0|2:0,2:0:0:0:
393,229,95540,2,0,L|399:184,2,44.999998807907126,2|0|0,2:0|2:0|3:2,2:0:0:0:
483,145,95812,5,2,2:0:0:0:
368,293,95949,2,0,L|342:157,1,134.99999642372137,2|0,3:2|2:0,2:0:0:0:
280,91,96222,1,2,3:2:0:0:
274,100,96358,1,0,1:2:0:0:
271,282,96494,6,0,B|236:299|236:299|217:241,1,89.99999761581425,2|2,2:0|2:0,2:0:0:0:
144,195,96767,1,0,2:0:0:0:
54,165,96903,6,0,L|47:209,1,44.999998807907126,2|0,3:2|2:0,2:0:0:0:
151,196,97040,2,0,L|163:95,1,89.99999761581425,2|0,2:0|2:0,2:0:0:0:
253,137,97312,2,0,L|241:226,1,89.99999761581425,2|0,2:0|1:2,2:0:0:0:
329,261,97585,1,0,2:0:0:0:
413,291,97722,2,0,P|440:293|431:315,3,44.999998807907126,2|0|0|0,2:0|2:0|3:2|2:0,2:0:0:0:
398,203,97994,6,0,B|405:178|405:178|322:154,1,89.99999761581425,2|0,2:0|3:2,2:0:0:0:
232,151,98267,2,0,B|224:126|224:126|308:102,1,89.99999761581425,2|2,2:0|3:2,2:0:0:0:
405,210,98540,1,0,1:2:0:0:
303,238,98676,1,2,2:0:0:0:
202,267,98812,1,2,2:3:0:0:
101,295,98949,1,2,2:0:0:0:
26,237,99085,6,0,B|117:144|170:284|267:188,1,233.99999380111709,4|0,3:2|3:2,2:0:0:0:
200,83,99494,2,0,L|193:127,1,44.999998807907126,0|0,3:2|2:0,2:0:0:0:
328,259,99631,1,2,1:2:0:0:
339,161,99767,1,0,2:0:0:0:
417,219,99903,2,0,L|424:263,3,44.999998807907126,0|0|2|0,2:0|2:0|3:2|2:0,2:0:0:0:
357,154,100176,5,2,2:0:0:0:
338,232,100312,1,0,3:2:0:0:
273,167,100449,1,0,2:0:0:0:
257,240,100585,1,0,3:2:0:0:
183,186,100722,2,0,L|176:230,1,44.999998807907126,2|0,1:2|2:0,2:0:0:0:
86,242,100858,2,0,L|93:198,1,44.999998807907126,0|0,2:0|2:0,2:0:0:0:
129,107,100994,2,0,P|141:89|146:108,3,44.999998807907126,0|0|2|0,2:0|2:0|2:0|2:0,2:0:0:0:
80,248,101267,5,0,3:2:0:0:
75,333,101403,1,0,2:0:0:0:
169,226,101540,5,2,2:0:0:0:
177,132,101676,1,0,3:2:0:0:
267,206,101812,5,2,1:2:0:0:
261,298,101949,1,0,2:0:0:0:
361,179,102085,6,0,B|456:153,1,89.99999761581425,2|0,2:0|3:2,2:0:0:0:
448,243,102358,6,0,P|305:269|192:213,1,269.99999284744274,2|0,2:0|3:2,2:0:0:0:
110,186,102903,1,0,1:2:0:0:
100,187,103040,1,2,2:0:0:0:
92,189,103176,1,2,2:3:0:0:
84,191,103312,1,0,2:0:0:0:
88,273,103449,6,0,P|141:267|169:241,1,89.99999761581425,2|0,3:2|2:0,2:0:0:0:
160,112,103722,2,0,B|183:76|191:74|238:97,1,89.99999761581425,2|0,3:2|3:2,2:0:0:0:
277,213,103994,2,0,B|341:240|341:240|355:172,1,134.99999642372137,2|0,1:2|2:0,2:0:0:0:
430,138,104267,2,0,L|419:78,1,44.999998807907126,2|0,2:0|2:0,2:0:0:0:
506,106,104403,2,0,L|495:46,1,44.999998807907126,2|0,3:2|2:0,2:0:0:0:
465,249,104540,5,2,2:0:0:0:
345,175,104676,2,0,B|330:218|330:218|370:257,1,89.99999761581425,0|0,3:2|2:0,2:0:0:0:
241,285,104949,2,0,L|240:232,1,44.999998807907126,2|0,3:2|2:0,2:0:0:0:
208,140,105085,2,0,P|154:104|108:139,1,89.99999761581425,0|2,1:2|2:0,2:0:0:0:
43,228,105358,2,0,P|76:222|88:200,3,44.999998807907126,0|0|2|0,2:0|2:0|2:0|2:0,2:0:0:0:
41,141,105631,5,2,3:2:0:0:
144,154,105767,1,0,2:0:0:0:
155,252,105903,1,2,2:0:0:0:
252,123,106040,2,0,L|266:219,1,89.99999761581425,2|0,3:2|1:2,2:0:0:0:
357,236,106312,2,0,L|349:187,1,44.999998807907126,2|0,2:0|2:0,2:0:0:0:
343,100,106449,2,0,L|403:112,3,44.999998807907126,2|0|0|0,2:0|2:0|3:2|2:0,2:0:0:0:
444,183,106722,5,2,2:0:0:0:
369,244,106858,1,2,3:2:0:0:
300,185,106994,1,2,2:0:0:0:
245,261,107131,1,0,3:2:0:0:
172,191,107267,1,2,1:2:0:0:
117,289,107403,1,0,2:0:0:0:
36,218,107540,1,2,2:3:0:0:
36,218,107812,5,2,2:0:0:0:
