osu file format v14

[General]
AudioFilename: audio.mp3
AudioLeadIn: 0
PreviewTime: 26676
Countdown: 0
SampleSet: Soft
StackLeniency: 0.3
Mode: 0
LetterboxInBreaks: 0
WidescreenStoryboard: 0

[Editor]
DistanceSpacing: 1
BeatDivisor: 16
GridSize: 32
TimelineZoom: 4.599998

[Metadata]
Title:Narazumono
TitleUnicode:不成者
Artist:DUSTCELL
ArtistUnicode:DUSTCELL
Creator:achyoo
Version:Outcast
Source:
Tags:kudou chitose mrrrk ayucchi azyeu mocaotic asagi rtyzen megumic _gt japanese pop jpop hip-hop hiphop j-pop hypnotize KAMITSUBAKI STUDIO 神椿スタジオ thinkr ema misumi gst:live2022 great singapore tournament live 2022 gstlive custom map tourney AEF asia esports festival online kallang wave mall EXP experience center gstlive2022a3
BeatmapID:3902737
BeatmapSetID:1893881

[Difficulty]
HPDrainRate:6
CircleSize:4.2
OverallDifficulty:9.5
ApproachRate:9.3
SliderMultiplier:2
SliderTickRate:1

[Events]
//Background and Video events
0,0,"us.jpg",0,0
//Break Periods
//Storyboard Layer 0 (Background)
//Storyboard Layer 1 (Fail)
//Storyboard Layer 2 (Pass)
//Storyboard Layer 3 (Foreground)
//Storyboard Layer 4 (Overlay)
//Storyboard Sound Samples

[TimingPoints]
-186,545.454545454546,4,2,1,40,1,0
495,-125,4,2,1,40,0,0
904,545.454545454546,4,2,1,50,1,0
904,-50,4,2,1,50,0,0
1722,-71.4285714285714,4,2,1,50,0,0
5540,-50,4,2,1,50,0,0
6358,-71.4285714285714,4,2,1,50,0,0
18358,-71.4285714285714,4,2,1,45,0,0
22722,-71.4285714285714,4,2,1,65,0,0
24904,-71.4285714285714,4,2,1,35,0,0
26676,-250,4,2,1,35,0,0
27085,-250,4,2,1,75,0,0
31176,-50,4,2,1,75,0,0
44540,-50,4,2,1,40,0,0
46722,545.454545454546,4,2,1,50,1,0
46994,-71.4285714285714,4,2,1,50,0,0
64176,-71.4285714285714,4,2,1,45,0,0
68540,-71.4285714285714,4,2,1,65,0,0
70722,-71.4285714285714,4,2,1,35,0,0
72358,-250,4,2,1,35,0,0
72903,-250,4,2,1,75,0,0
76994,-50,4,2,1,75,0,0
89267,-50,4,2,1,85,0,0
90358,-50,4,2,1,70,0,0
107812,-50,4,2,1,40,0,0

[Colours]
Combo1 : 255,228,138
Combo2 : 140,172,255
Combo3 : 255,108,108
Combo4 : 170,170,170

[HitObjects]
150,204,495,6,0,L|160:121,1,80,0|0,2:0|2:0,2:0:0:0:
159,124,904,6,0,L|182:344,1,200,0|0,3:2|2:0,2:0:0:0:
293,358,1313,1,2,2:0:0:0:
327,268,1449,1,0,1:2:0:0:
253,234,1585,1,0,2:0:0:0:
370,334,1722,2,0,P|405:326|466:318,1,70,0|0,2:0|2:0,2:0:0:0:
251,227,1994,6,0,P|216:221|182:213,1,70,2|0,2:0|2:0,2:0:0:0:
49,116,2267,2,0,P|95:62|163:67,1,140,2|0,3:2|1:2,2:0:0:0:
286,160,2676,1,0,2:0:0:0:
286,160,2813,1,0,2:0:0:0:
344,98,2949,1,2,2:0:0:0:
219,13,3085,5,2,3:2:0:0:
291,39,3222,1,0,2:0:0:0:
344,105,3358,5,0,2:0:0:0:
416,79,3494,1,0,2:0:0:0:
468,225,3631,5,2,1:2:0:0:
358,186,3767,1,0,2:0:0:0:
336,335,3904,1,2,2:0:0:0:
400,294,4040,1,0,2:0:0:0:
295,239,4176,5,2,2:0:0:0:
295,239,4313,1,2,2:0:0:0:
196,353,4449,1,2,3:2:0:0:
128,308,4585,2,0,P|138:257|143:220,1,70,2|0,2:0|1:2,2:0:0:0:
200,99,4858,5,0,3:2:0:0:
278,143,4994,1,0,2:0:0:0:
199,187,5131,1,0,2:0:0:0:
308,30,5267,6,0,P|344:38|382:44,1,70,2|0,3:2|2:0,2:0:0:0:
470,191,5540,2,0,P|375:171|260:147,1,200,2|0,2:0|1:2,2:0:0:0:
442,89,5949,5,0,2:0:0:0:
384,145,6085,1,0,2:0:0:0:
449,266,6222,1,0,2:0:0:0:
373,315,6358,6,0,P|359:260|349:227,1,70,2|0,2:0|2:0,2:0:0:0:
200,174,6631,2,0,P|172:232|75:232,1,140,2|0,3:2|1:2,2:0:0:0:
305,356,7040,2,0,P|252:349|209:344,1,70,0|0,2:0|2:0,2:0:0:0:
146,364,7313,1,0,2:0:0:0:
26,198,7449,5,2,3:2:0:0:
107,237,7585,1,0,2:0:0:0:
197,112,7722,2,0,P|191:67|183:29,1,70,2|0,2:0|2:0,2:0:0:0:
46,114,7994,5,2,1:2:0:0:
46,114,8131,1,0,2:0:0:0:
173,189,8267,1,2,2:0:0:0:
115,70,8404,1,2,2:0:0:0:
24,272,8540,5,2,2:0:0:0:
111,244,8676,1,0,2:0:0:0:
275,139,8813,5,2,3:2:0:0:
194,111,8949,1,0,2:0:0:0:
175,303,9085,5,2,1:2:0:0:
175,303,9222,1,0,3:2:0:0:
261,216,9358,2,0,P|251:260|244:312,1,70,2|0,2:0|2:0,2:0:0:0:
349,121,9631,6,0,P|339:77|332:25,1,70,2|0,3:2|2:0,2:0:0:0:
470,139,9904,1,0,2:0:0:0:
470,139,10040,1,0,2:0:0:0:
335,219,10176,2,0,P|291:209|239:202,1,70,2|0,1:2|2:0,2:0:0:0:
295,362,10449,1,2,2:0:0:0:
370,326,10585,1,0,2:0:0:0:
498,357,10722,5,2,2:0:0:0:
411,196,10858,2,0,P|421:240|428:292,1,70,2|0,2:0|3:2,2:0:0:0:
240,337,11131,1,2,2:0:0:0:
240,337,11267,2,0,P|230:293|223:241,1,70,0|0,1:2|2:0,2:0:0:0:
92,164,11540,2,0,P|49:203|66:255,1,105,0|0,2:0|2:0,2:0:0:0:
64,253,11813,5,2,3:2:0:0:
150,230,11949,1,0,2:0:0:0:
167,366,12085,1,0,2:0:0:0:
167,366,12222,1,0,2:0:0:0:
226,268,12358,5,2,1:2:0:0:
319,195,12494,1,0,2:0:0:0:
175,158,12631,1,2,2:0:0:0:
175,158,12767,1,0,2:0:0:0:
301,110,12904,5,2,2:0:0:0:
126,85,13040,2,0,P|76:91|33:95,1,70,2|0,2:0|3:2,2:0:0:0:
245,198,13313,1,2,2:0:0:0:
245,198,13449,2,0,P|295:192|338:188,1,70,0|0,1:2|3:2,2:0:0:0:
301,110,13722,1,2,2:0:0:0:
301,110,13858,1,0,2:0:0:0:
393,242,13994,5,2,3:2:0:0:
466,207,14131,1,0,2:0:0:0:
373,81,14267,1,0,2:0:0:0:
301,110,14404,1,0,2:0:0:0:
449,124,14540,2,0,P|456:77|465:42,1,70,2|0,1:2|2:0,2:0:0:0:
314,190,14813,2,0,P|307:237|298:272,1,70,2|0,2:0|2:0,2:0:0:0:
343,328,15017,1,0,2:0:0:0:
348,333,15085,6,0,P|395:326|430:317,1,70,2|0,2:0|2:0,2:0:0:0:
385,164,15358,1,0,3:2:0:0:
218,234,15494,1,0,2:0:0:0:
143,187,15631,5,2,1:2:0:0:
143,187,15767,1,0,2:0:0:0:
200,118,15904,1,2,2:0:0:0:
67,84,16040,1,0,2:0:0:0:
30,208,16176,5,2,3:2:0:0:
95,249,16313,1,0,2:0:0:0:
101,379,16449,1,0,2:0:0:0:
165,329,16585,1,0,2:0:0:0:
300,325,16722,2,0,P|310:285|323:236,1,70,2|0,1:2|2:0,2:0:0:0:
258,184,16994,1,2,2:0:0:0:
258,184,17131,1,0,2:0:0:0:
406,20,17267,5,0,3:2:0:0:
176,6,17404,1,0,3:2:0:0:
188,227,17540,1,0,3:2:0:0:
312,122,17676,1,0,3:2:0:0:
109,53,17813,1,0,1:2:0:0:
258,184,17949,5,2,3:2:0:0:
160,302,18085,1,2,3:2:0:0:
22,231,18222,1,2,3:2:0:0:
109,53,18358,5,6,2:0:0:0:
109,53,18494,1,0,2:0:0:0:
189,87,18631,1,0,2:0:0:0:
189,87,18767,1,0,2:0:0:0:
251,40,18904,5,2,1:2:0:0:
325,22,19040,1,0,2:0:0:0:
400,40,19176,1,0,2:0:0:0:
458,92,19313,1,0,2:0:0:0:
397,154,19449,5,2,2:0:0:0:
469,219,19585,1,0,2:0:0:0:
395,284,19722,1,2,3:2:0:0:
447,357,19858,2,0,P|483:343|530:328,1,70,0|0,2:0|1:2,2:0:0:0:
329,344,20131,5,0,2:0:0:0:
329,344,20267,1,0,2:0:0:0:
329,344,20404,1,0,2:0:0:0:
270,283,20540,5,0,3:2:0:0:
200,255,20676,1,0,2:0:0:0:
124,263,20813,1,2,2:0:0:0:
68,315,20949,1,0,2:0:0:0:
120,373,21085,5,2,1:2:0:0:
11,266,21222,1,0,2:0:0:0:
111,162,21358,2,0,P|154:171|198:177,1,70,2|0,2:0|2:0,2:0:0:0:
28,58,21631,6,0,P|102:41|180:17,2,140,2|0|0,3:2|3:2|1:2,2:0:0:0:
216,90,22313,1,2,3:2:0:0:
262,155,22449,1,2,1:2:0:0:
262,155,22585,1,2,2:0:0:0:
361,90,22722,6,0,P|349:42|342:14,1,70,0|0,3:2|1:2,2:0:0:0:
180,162,22994,2,0,P|192:210|199:238,1,70,0|0,3:2|1:2,2:0:0:0:
373,95,23267,6,0,P|361:47|354:19,1,70,2|0,1:2|1:2,2:0:0:0:
168,157,23540,2,0,P|180:205|187:233,1,70,0|0,3:2|1:2,2:0:0:0:
430,157,23813,5,2,3:2:0:0:
506,136,23949,1,0,1:2:0:0:
283,322,24085,5,2,3:2:0:0:
208,299,24222,1,0,1:2:0:0:
382,97,24358,5,2,3:2:0:0:
347,274,24494,1,2,1:2:0:0:
154,356,24631,1,2,3:2:0:0:
89,107,24767,1,2,1:2:0:0:
258,183,24904,5,2,3:2:0:0:
254,189,25040,1,0,2:0:0:0:
248,186,25176,1,0,2:0:0:0:
251,179,25313,1,0,2:0:0:0:
254,189,25449,1,0,2:0:0:0:
258,183,25585,1,0,2:0:0:0:
248,186,25722,1,0,2:0:0:0:
251,179,25858,1,0,2:0:0:0:
248,186,25994,1,0,2:0:0:0:
254,189,26131,1,0,2:0:0:0:
258,183,26267,1,0,2:0:0:0:
251,179,26404,1,0,2:0:0:0:
251,179,26676,2,0,L|256:153,2,20,2|2|2,2:0|2:0|2:0,2:0:0:0:
133,320,27085,5,6,3:2:0:0:
286,248,27222,1,0,2:0:0:0:
169,127,27358,1,2,3:2:0:0:
240,353,27494,1,0,3:2:0:0:
146,233,27631,5,2,1:2:0:0:
325,321,27767,1,2,2:0:0:0:
406,204,27904,1,2,2:0:0:0:
402,184,27972,1,0,2:0:0:0:
397,164,28040,1,0,3:2:0:0:
393,143,28108,1,0,2:0:0:0:
390,124,28176,5,2,2:0:0:0:
510,173,28313,1,0,3:2:0:0:
461,293,28449,1,2,2:0:0:0:
341,244,28585,1,2,3:2:0:0:
424,194,28722,5,0,1:2:0:0:
465,99,28858,1,0,2:0:0:0:
420,18,28994,1,2,2:3:0:0:
411,20,29063,1,0,2:0:0:0:
402,22,29131,1,0,2:0:0:0:
308,144,29267,5,2,3:2:0:0:
308,144,29404,1,0,2:0:0:0:
215,62,29540,1,2,2:0:0:0:
215,62,29676,1,0,3:2:0:0:
333,42,29813,5,2,1:2:0:0:
213,152,29949,1,2,2:0:0:0:
62,40,30085,1,0,2:0:0:0:
81,36,30154,1,0,2:0:0:0:
100,32,30222,1,0,3:2:0:0:
119,29,30290,1,0,2:0:0:0:
138,26,30358,5,2,2:0:0:0:
99,156,30494,1,2,2:0:0:0:
227,231,30631,1,2,2:0:0:0:
169,362,30767,1,2,3:2:0:0:
91,324,30904,5,0,1:2:0:0:
259,308,31040,1,0,2:0:0:0:
149,220,31176,2,0,P|131:149|105:47,1,150,4|0,2:0|2:0,2:0:0:0:
116,69,31449,5,2,3:2:0:0:
207,78,31585,1,0,2:0:0:0:
175,0,31722,1,2,3:2:0:0:
99,156,31858,6,0,P|40:143|-13:134,1,100,0|0,3:2|1:2,2:0:0:0:
256,13,32131,2,0,P|315:26|368:35,1,100,2|0,2:0|2:0,2:0:0:0:
336,106,32335,1,0,2:0:0:0:
318,115,32404,1,2,3:2:0:0:
300,124,32472,1,0,2:0:0:0:
282,133,32540,5,2,2:0:0:0:
305,210,32676,1,0,3:2:0:0:
328,287,32813,1,0,2:0:0:0:
494,181,32949,6,0,P|444:172|396:161,1,100,2|0,3:2|1:2,2:0:0:0:
213,345,33222,2,0,P|262:353|310:364,1,100,2|2,2:0|2:3,2:0:0:0:
387,371,33426,1,0,2:0:0:0:
384,380,33494,1,2,2:0:0:0:
482,263,33631,5,2,3:2:0:0:
482,263,33767,1,0,2:0:0:0:
410,89,33904,1,0,2:0:0:0:
410,89,34040,1,0,3:2:0:0:
252,269,34176,5,2,1:2:0:0:
182,156,34313,1,0,2:0:0:0:
266,42,34449,1,2,2:0:0:0:
273,49,34517,1,0,2:0:0:0:
280,54,34585,2,0,P|311:48|351:42,1,50,0|0,3:2|2:0,2:0:0:0:
263,186,34722,5,2,2:0:0:0:
263,186,34858,1,0,3:2:0:0:
190,68,34994,1,2,2:0:0:0:
24,174,35131,5,2,3:2:0:0:
177,237,35267,1,0,1:2:0:0:
67,93,35404,1,2,2:0:0:0:
152,313,35540,2,0,P|138:236|122:157,1,150,14|0,2:0|2:0,2:0:0:0:
124,157,35813,6,0,P|73:171|15:185,1,100,6|0,3:2|2:0,2:0:0:0:
269,359,36085,2,0,P|220:370|172:384,1,100,2|0,3:2|3:2,2:0:0:0:
69,293,36358,5,2,1:2:0:0:
69,293,36494,1,0,2:0:0:0:
225,224,36631,1,0,2:0:0:0:
244,228,36699,1,0,2:0:0:0:
263,232,36767,1,0,3:2:0:0:
282,236,36835,1,0,2:0:0:0:
301,240,36904,5,2,2:0:0:0:
261,103,37040,1,2,3:2:0:0:
398,63,37176,1,2,2:0:0:0:
438,200,37313,1,2,3:2:0:0:
358,178,37449,5,0,1:2:0:0:
327,315,37585,1,0,2:0:0:0:
473,354,37722,1,2,2:3:0:0:
469,344,37790,1,0,2:0:0:0:
465,334,37858,1,0,2:0:0:0:
301,240,37994,5,2,3:2:0:0:
204,259,38131,1,0,2:0:0:0:
113,356,38267,1,2,2:0:0:0:
210,375,38404,1,2,3:2:0:0:
302,233,38540,5,2,1:2:0:0:
182,161,38676,1,0,2:0:0:0:
37,236,38813,1,0,2:0:0:0:
41,255,38881,1,0,2:0:0:0:
45,274,38949,1,2,3:2:0:0:
49,293,39017,1,0,2:0:0:0:
53,312,39085,5,2,2:0:0:0:
101,175,39222,1,0,3:2:0:0:
258,163,39358,1,2,2:0:0:0:
306,26,39494,1,2,3:2:0:0:
373,68,39631,5,0,1:2:0:0:
214,92,39767,1,0,2:0:0:0:
65,21,39904,2,0,P|80:91|96:198,1,150,4|0,2:0|2:0,2:0:0:0:
101,175,40176,5,2,3:2:0:0:
182,161,40313,1,2,2:0:0:0:
154,236,40449,1,0,3:2:0:0:
257,333,40585,6,0,P|246:285|237:234,1,100,2|0,3:2|1:2,2:0:0:0:
371,55,40858,2,0,P|382:103|391:154,1,100,2|0,2:0|2:0,2:0:0:0:
363,314,41131,1,2,3:2:0:0:
354,312,41199,1,0,2:0:0:0:
345,310,41267,5,2,2:0:0:0:
309,176,41404,1,0,3:2:0:0:
454,95,41540,1,2,2:0:0:0:
297,21,41676,6,0,P|249:32|198:41,1,100,2|0,3:2|1:2,2:0:0:0:
172,275,41949,2,0,P|220:264|271:255,1,100,2|2,2:0|2:3,2:0:0:0:
309,176,42222,1,2,2:0:0:0:
485,369,42358,5,0,3:2:0:0:
345,310,42494,1,0,2:0:0:0:
486,190,42631,1,2,2:0:0:0:
337,95,42767,1,2,3:2:0:0:
421,73,42904,5,2,1:2:0:0:
376,231,43040,1,2,2:0:0:0:
232,104,43176,1,2,2:0:0:0:
212,108,43244,1,0,2:0:0:0:
192,112,43313,1,2,3:2:0:0:
172,116,43381,1,0,2:0:0:0:
152,120,43449,5,2,2:0:0:0:
309,176,43585,1,0,3:2:0:0:
269,34,43722,5,2,2:0:0:0:
26,247,43858,1,2,3:2:0:0:
93,300,43994,1,0,1:2:0:0:
45,20,44131,5,2,2:0:0:0:
243,267,44267,1,14,2:0:0:0:
243,267,44404,1,0,2:0:0:0:
54,370,44540,5,2,2:0:0:0:
46,373,45085,1,2,2:0:0:0:
38,376,45631,1,2,2:0:0:0:
30,379,46176,2,0,L|21:341,16,25.0458333333333,0|0|0|0|0|0|0|0|0|0|0|0|0|0|0|0|0,2:0|2:0|2:0|2:0|2:0|2:0|2:0|2:0|2:0|2:0|2:0|2:0|2:0|2:0|2:0|2:0|3:2,2:0:0:0:
134,153,46994,6,0,P|99:150|46:143,1,70,0|0,2:0|2:0,2:0:0:0:
235,269,47267,2,0,P|270:272|323:279,1,70,2|0,1:2|2:0,2:0:0:0:
210,193,47540,1,0,2:0:0:0:
283,118,47676,1,0,2:0:0:0:
286,125,47744,1,0,2:0:0:0:
288,132,47812,5,0,2:0:0:0:
361,154,47949,1,0,2:0:0:0:
433,132,48085,1,2,3:2:0:0:
456,58,48222,1,0,2:0:0:0:
381,19,48358,2,0,P|320:31|251:45,1,105,0|0,1:2|2:0,2:0:0:0:
270,32,48631,1,0,2:0:0:0:
493,185,48903,6,0,P|497:232|499:273,1,70,2|0,3:2|2:0,2:0:0:0:
424,343,49176,1,0,2:0:0:0:
424,343,49312,1,0,2:0:0:0:
340,245,49449,2,0,P|387:249|428:251,1,70,2|0,1:2|3:2,2:0:0:0:
344,383,49722,2,0,P|297:379|256:377,1,70,0|0,2:0|2:0,2:0:0:0:
180,231,49994,5,0,2:0:0:0:
180,231,50131,1,0,2:0:0:0:
258,288,50267,1,2,3:2:0:0:
258,288,50403,1,0,2:0:0:0:
320,167,50540,2,0,P|313:127|309:83,1,70,2|0,1:2|3:2,2:0:0:0:
180,40,50812,2,0,P|150:82|94:83,1,105,0|0,2:0|2:0,2:0:0:0:
96,79,51085,6,0,P|149:89|247:105,1,140,2|0,3:2|2:0,2:0:0:0:
233,103,51494,1,0,2:0:0:0:
103,174,51631,2,0,P|113:227|129:325,1,140,2|0,1:2|2:0,2:0:0:0:
259,358,52040,1,0,2:0:0:0:
265,354,52108,1,0,2:0:0:0:
271,350,52176,6,0,P|262:311|253:265,1,70,2|0,2:0|2:0,2:0:0:0:
194,185,52449,1,0,3:2:0:0:
194,185,52585,1,0,2:0:0:0:
333,263,52722,2,0,P|394:263|414:186,1,140,0|0,1:2|2:0,2:0:0:0:
418,196,53131,1,0,2:0:0:0:
285,95,53267,6,0,P|277:143|271:184,1,70,2|0,3:2|2:0,2:0:0:0:
389,74,53540,1,0,2:0:0:0:
389,74,53676,1,0,2:0:0:0:
270,17,53812,2,0,P|235:11|200:5,1,70,2|0,1:2|2:0,2:0:0:0:
269,170,54085,2,0,P|303:175|338:181,1,70,0|0,2:0|2:0,2:0:0:0:
181,96,54358,5,2,2:0:0:0:
97,145,54494,1,0,2:0:0:0:
19,85,54631,1,0,3:2:0:0:
19,85,54767,1,0,2:0:0:0:
75,27,54903,5,2,1:2:0:0:
191,206,55040,1,2,3:2:0:0:
191,206,55176,2,0,P|115:226|25:252,1,140,0|0,2:0|3:2,2:0:0:0:
350,358,55722,5,2,2:0:0:0:
402,306,55858,1,0,2:0:0:0:
445,372,55994,2,0,P|455:288|468:209,1,140,2|0,1:2|2:0,2:0:0:0:
366,82,56403,5,0,2:0:0:0:
370,87,56472,1,0,2:0:0:0:
374,92,56540,2,0,P|413:85|465:77,1,70,2|0,2:0|2:0,2:0:0:0:
350,245,56812,2,0,P|311:252|259:260,1,70,2|0,3:2|2:0,2:0:0:0:
76,63,57085,5,2,1:2:0:0:
182,22,57222,1,0,2:0:0:0:
244,116,57358,1,0,2:0:0:0:
244,116,57631,6,0,P|253:73|268:20,1,70,2|0,2:3|2:0,2:0:0:0:
133,130,57903,1,2,2:0:0:0:
133,130,58040,1,0,2:0:0:0:
282,215,58176,2,0,P|215:231|187:296,1,140,2|0,1:2|2:0,2:0:0:0:
186,291,58585,1,0,2:0:0:0:
105,252,58722,5,2,2:0:0:0:
105,252,58858,1,0,2:0:0:0:
195,376,58994,1,2,3:2:0:0:
195,376,59131,1,0,2:0:0:0:
267,291,59267,5,2,1:2:0:0:
111,333,59403,1,0,3:2:0:0:
178,216,59540,1,0,2:0:0:0:
178,216,59812,6,0,P|82:208|12:204,1,140,0|0,3:2|2:0,2:0:0:0:
109,133,60222,1,0,2:0:0:0:
65,6,60358,5,0,1:2:0:0:
65,6,60494,1,2,2:0:0:0:
134,56,60631,1,0,2:0:0:0:
227,26,60767,1,2,2:0:0:0:
225,19,60835,1,0,2:0:0:0:
223,12,60903,6,0,P|210:62|202:108,1,70,0|0,2:0|2:0,2:0:0:0:
272,204,61176,2,0,P|283:135|300:67,1,140,0|2,3:2|1:2,2:0:0:0:
365,17,61585,1,0,2:0:0:0:
424,78,61722,1,2,2:0:0:0:
360,131,61858,1,0,2:0:0:0:
448,297,61994,6,0,P|455:251|462:207,1,70,0|0,3:2|2:0,2:0:0:0:
336,266,62267,1,0,2:0:0:0:
336,266,62403,1,2,2:0:0:0:
369,371,62540,5,2,1:2:0:0:
276,324,62676,1,0,2:0:0:0:
389,200,62812,1,2,2:0:0:0:
273,152,62949,1,2,2:0:0:0:
356,109,63085,5,0,2:0:0:0:
250,238,63222,1,0,3:2:0:0:
142,143,63358,1,0,3:2:0:0:
220,18,63494,1,0,3:2:0:0:
172,227,63631,5,0,1:2:0:0:
284,72,63767,1,0,3:2:0:0:
77,82,63903,1,0,3:2:0:0:
128,299,64040,1,2,3:2:0:0:
263,247,64176,5,6,2:0:0:0:
263,247,64312,1,0,2:0:0:0:
331,293,64449,1,0,2:0:0:0:
331,293,64585,1,0,2:0:0:0:
332,375,64722,5,2,1:2:0:0:
332,375,64994,1,0,2:0:0:0:
407,331,65131,1,0,2:0:0:0:
481,366,65267,5,2,2:0:0:0:
512,295,65403,1,0,2:0:0:0:
485,218,65540,1,2,3:2:0:0:
405,202,65676,1,0,2:0:0:0:
344,249,65812,1,0,1:2:0:0:
264,180,65949,5,0,2:0:0:0:
264,180,66085,1,0,2:0:0:0:
264,180,66222,1,0,2:0:0:0:
207,235,66358,5,0,3:2:0:0:
136,272,66494,1,0,2:0:0:0:
57,251,66631,1,2,2:0:0:0:
23,180,66767,1,0,2:0:0:0:
114,190,66903,5,2,1:2:0:0:
163,99,67040,1,0,2:0:0:0:
90,23,67176,2,0,P|41:36|-3:45,1,70,2|0,2:0|2:0,2:0:0:0:
232,150,67449,6,0,P|243:83|257:4,2,140,2|0|0,3:2|3:2|1:2,2:0:0:0:
289,206,68131,1,2,3:2:0:0:
350,126,68267,1,2,1:2:0:0:
350,126,68403,1,2,2:0:0:0:
404,263,68540,6,0,P|442:250|487:236,1,70,0|0,3:2|1:2,2:0:0:0:
232,150,68812,2,0,P|194:163|149:177,1,70,0|0,3:2|1:2,2:0:0:0:
413,268,69085,6,0,P|451:255|496:241,1,70,2|0,1:2|1:2,2:0:0:0:
223,145,69358,2,0,P|185:158|140:172,1,70,0|0,3:2|1:2,2:0:0:0:
411,191,69631,5,2,3:2:0:0:
435,116,69767,1,0,1:2:0:0:
207,231,69903,5,2,3:2:0:0:
183,306,70040,1,0,1:2:0:0:
372,62,70176,5,2,3:2:0:0:
168,85,70312,1,2,1:2:0:0:
111,338,70449,1,2,3:2:0:0:
379,371,70585,1,2,1:2:0:0:
258,184,70722,5,2,3:2:0:0:
254,190,70858,1,0,2:0:0:0:
248,187,70994,1,0,2:0:0:0:
251,180,71131,1,0,2:0:0:0:
254,190,71267,1,0,2:0:0:0:
254,190,71540,1,0,2:0:0:0:
258,184,71676,1,0,2:0:0:0:
248,187,71812,1,0,2:0:0:0:
251,180,71949,1,0,2:0:0:0:
248,187,72085,1,0,2:0:0:0:
254,190,72222,1,0,2:0:0:0:
251,180,72358,6,0,L|256:154,3,20,0|2|2|2,2:0|2:0|2:0|2:0,2:0:0:0:
93,182,72903,5,6,3:2:0:0:
274,262,73040,1,0,2:0:0:0:
179,126,73176,1,2,3:2:0:0:
103,338,73312,1,0,3:2:0:0:
193,364,73449,5,2,1:2:0:0:
19,244,73585,1,2,2:0:0:0:
185,119,73722,1,2,2:0:0:0:
183,138,73790,1,0,2:0:0:0:
181,157,73858,1,0,3:2:0:0:
179,176,73926,1,0,2:0:0:0:
177,195,73994,5,2,2:0:0:0:
274,110,74131,1,0,3:2:0:0:
358,208,74267,1,2,2:0:0:0:
260,292,74403,1,2,3:2:0:0:
274,207,74540,5,0,1:2:0:0:
370,309,74676,1,0,2:0:0:0:
478,250,74812,1,2,2:3:0:0:
481,241,74881,1,0,2:0:0:0:
484,232,74949,1,0,2:0:0:0:
411,55,75085,5,2,3:2:0:0:
411,55,75222,1,0,2:0:0:0:
299,127,75358,1,2,2:0:0:0:
299,127,75494,1,0,3:2:0:0:
234,1,75631,5,2,1:2:0:0:
390,137,75767,1,2,2:0:0:0:
192,181,75903,1,0,2:0:0:0:
197,162,75972,1,0,2:0:0:0:
202,143,76040,1,0,3:2:0:0:
208,124,76108,1,0,2:0:0:0:
214,105,76176,5,2,2:0:0:0:
93,179,76312,1,2,2:0:0:0:
220,292,76449,1,2,2:0:0:0:
99,366,76585,1,2,3:2:0:0:
34,313,76722,5,0,1:2:0:0:
181,371,76858,1,0,2:0:0:0:
185,214,76994,2,0,P|170:142|150:38,1,150,4|0,2:0|2:0,2:0:0:0:
158,57,77267,5,2,3:2:0:0:
243,88,77403,1,0,2:0:0:0:
224,6,77540,1,2,3:2:0:0:
267,199,77676,6,0,P|316:207|364:218,1,100,0|0,3:2|1:2,2:0:0:0:
509,48,77949,2,0,P|459:39|411:28,1,100,2|0,2:0|2:0,2:0:0:0:
336,13,78153,1,0,2:0:0:0:
337,33,78222,1,2,3:2:0:0:
339,53,78290,1,0,2:0:0:0:
341,73,78358,5,2,2:0:0:0:
265,99,78494,1,0,3:2:0:0:
189,126,78631,1,0,2:0:0:0:
78,0,78767,6,0,P|69:50|58:98,1,100,2|0,3:2|1:2,2:0:0:0:
226,279,79040,2,0,P|235:229|246:181,1,100,2|2,2:0|2:3,2:0:0:0:
198,123,79244,1,0,2:0:0:0:
189,126,79312,1,2,2:0:0:0:
48,212,79449,5,2,3:2:0:0:
48,212,79585,1,0,2:0:0:0:
190,350,79722,1,0,2:0:0:0:
190,350,79858,1,0,3:2:0:0:
334,202,79994,5,2,1:2:0:0:
168,201,80131,1,0,2:0:0:0:
140,56,80267,1,2,2:0:0:0:
147,49,80335,1,0,2:0:0:0:
154,44,80403,2,0,P|185:50|225:56,1,50,0|0,3:2|2:0,2:0:0:0:
325,16,80540,5,2,2:0:0:0:
325,16,80676,1,0,3:2:0:0:
236,123,80812,1,2,2:0:0:0:
442,212,80949,5,2,3:2:0:0:
271,206,81085,1,0,1:2:0:0:
404,49,81222,1,2,2:0:0:0:
367,251,81358,2,0,P|353:176|338:101,1,150,14|0,2:0|2:0,2:0:0:0:
333,98,81631,6,0,P|282:112|224:126,1,100,6|0,3:2|2:0,2:0:0:0:
457,312,81903,2,0,P|408:323|360:337,1,100,2|0,3:2|3:2,2:0:0:0:
148,183,82176,5,2,1:2:0:0:
148,183,82312,1,0,2:0:0:0:
219,323,82449,1,0,2:0:0:0:
223,304,82517,1,0,2:0:0:0:
227,285,82585,1,0,3:2:0:0:
231,266,82653,1,0,2:0:0:0:
235,247,82722,5,2,2:0:0:0:
98,287,82858,1,2,3:2:0:0:
58,150,82994,1,2,2:0:0:0:
195,110,83131,1,2,3:2:0:0:
148,183,83267,5,0,1:2:0:0:
272,84,83403,1,0,2:0:0:0:
407,149,83540,1,2,2:3:0:0:
403,159,83608,1,0,2:0:0:0:
399,169,83676,1,0,2:0:0:0:
409,346,83812,5,2,3:2:0:0:
312,365,83949,1,0,2:0:0:0:
227,203,84085,1,2,2:0:0:0:
324,222,84222,1,2,3:2:0:0:
317,15,84358,5,2,1:2:0:0:
195,110,84494,1,0,2:0:0:0:
64,21,84631,1,0,2:0:0:0:
83,17,84699,1,0,2:0:0:0:
102,13,84767,1,2,3:2:0:0:
121,9,84835,1,0,2:0:0:0:
140,5,84903,5,2,2:0:0:0:
289,113,85040,1,0,3:2:0:0:
143,202,85176,1,2,2:0:0:0:
292,310,85312,1,2,3:2:0:0:
352,247,85449,5,0,1:2:0:0:
200,304,85585,1,0,2:0:0:0:
53,220,85722,2,0,P|68:150|84:43,1,150,4|0,2:0|2:0,2:0:0:0:
89,66,85994,5,2,3:2:0:0:
170,80,86131,1,2,2:0:0:0:
140,5,86267,1,0,3:2:0:0:
143,202,86403,6,0,P|191:191|242:182,1,100,2|0,3:2|1:2,2:0:0:0:
368,0,86676,2,0,P|320:11|269:20,1,100,2|0,2:0|2:0,2:0:0:0:
311,224,86949,1,2,3:2:0:0:
313,215,87017,1,0,2:0:0:0:
315,206,87085,5,2,2:0:0:0:
381,83,87222,1,0,3:2:0:0:
512,122,87358,1,2,2:0:0:0:
377,302,87494,6,0,P|385:253|397:203,1,100,2|0,3:2|1:2,2:0:0:0:
196,38,87767,2,0,P|187:86|175:136,1,100,2|2,2:0|2:3,2:0:0:0:
240,182,88040,1,2,2:0:0:0:
88,21,88176,5,0,3:2:0:0:
277,100,88312,1,0,2:0:0:0:
177,320,88449,1,2,2:0:0:0:
69,212,88585,1,2,3:2:0:0:
266,264,88722,5,2,1:2:0:0:
97,117,88858,1,2,2:0:0:0:
87,324,88994,1,2,2:0:0:0:
106,320,89062,1,0,2:0:0:0:
125,316,89131,1,2,3:2:0:0:
144,312,89199,1,0,2:0:0:0:
163,308,89267,5,2,1:2:0:0:
170,314,89335,1,0,1:2:0:0:
177,320,89403,2,0,P|180:290|185:247,1,50,0|0,1:2|2:0,2:0:0:0:
269,183,89540,2,0,P|266:158|263:133,1,50,2|0,1:2|2:0,2:0:0:0:
168,62,89676,2,0,P|170:37|173:12,1,50,2|0,3:2|2:0,2:0:0:0:
364,48,89812,5,0,1:2:0:0:
344,128,89949,1,2,1:2:0:0:
424,148,90085,1,2,3:2:0:0:
444,68,90222,1,0,2:0:0:0:
190,144,90358,6,0,P|141:151|84:160,1,100,4|0,3:2|2:0,2:0:0:0:
345,233,90631,1,0,3:2:0:0:
345,233,90767,1,0,3:2:0:0:
201,348,90903,6,0,P|250:341|307:332,1,100,2|0,1:2|2:0,2:0:0:0:
33,272,91176,1,0,2:0:0:0:
29,252,91244,1,0,2:0:0:0:
25,232,91312,1,2,3:2:0:0:
21,212,91381,1,0,2:0:0:0:
17,192,91449,5,2,2:0:0:0:
91,158,91585,1,0,3:2:0:0:
243,90,91722,1,0,2:0:0:0:
169,56,91858,1,0,3:2:0:0:
156,214,91994,5,2,1:2:0:0:
59,66,92131,1,0,2:0:0:0:
230,9,92267,1,0,2:0:0:0:
239,8,92335,1,0,2:0:0:0:
248,7,92403,1,0,1:2:0:0:
400,72,92540,5,2,3:2:0:0:
400,72,92676,1,0,2:0:0:0:
265,164,92812,1,2,2:0:0:0:
265,164,92949,1,0,3:2:0:0:
331,22,93085,5,0,1:2:0:0:
438,148,93222,1,2,2:0:0:0:
303,241,93358,1,2,2:0:0:0:
322,244,93426,1,0,2:0:0:0:
340,248,93494,1,0,3:2:0:0:
359,252,93562,1,0,2:0:0:0:
379,256,93631,5,2,2:0:0:0:
361,336,93767,1,0,3:2:0:0:
494,208,93903,1,0,2:0:0:0:
512,288,94040,1,0,3:2:0:0:
353,118,94176,1,0,1:2:0:0:
468,81,94312,5,2,2:0:0:0:
468,81,94449,1,2,2:3:0:0:
468,81,94585,1,0,2:0:0:0:
287,58,94722,5,2,3:2:0:0:
287,58,94858,1,0,2:0:0:0:
225,234,94994,1,2,3:2:0:0:
55,129,95131,1,0,3:2:0:0:
187,37,95267,5,2,1:2:0:0:
187,37,95403,1,0,2:0:0:0:
109,193,95540,1,2,2:0:0:0:
115,211,95608,1,0,2:0:0:0:
121,229,95676,1,0,3:2:0:0:
127,247,95744,1,0,2:0:0:0:
133,265,95812,5,2,2:0:0:0:
344,186,95949,2,0,P|352:134|362:78,1,100,2|0,3:2|2:0,2:0:0:0:
433,55,96222,1,2,3:2:0:0:
264,197,96358,5,0,1:2:0:0:
315,269,96494,1,2,2:0:0:0:
259,342,96631,1,2,2:0:0:0:
249,339,96699,1,0,2:0:0:0:
239,336,96767,1,0,2:0:0:0:
467,201,96903,5,2,3:2:0:0:
345,346,97040,2,0,P|396:337|453:329,1,100,2|0,2:0|2:0,2:0:0:0:
496,271,97312,1,2,2:0:0:0:
388,166,97449,5,0,1:2:0:0:
449,102,97585,1,0,2:0:0:0:
388,39,97722,1,2,2:0:0:0:
368,42,97790,1,0,2:0:0:0:
348,45,97858,1,0,3:2:0:0:
328,49,97926,1,0,2:0:0:0:
308,53,97994,5,2,2:0:0:0:
283,125,98131,1,0,3:2:0:0:
61,53,98267,1,2,2:0:0:0:
86,125,98403,1,2,3:2:0:0:
230,55,98540,5,0,1:2:0:0:
281,206,98676,1,2,2:0:0:0:
117,312,98812,1,2,2:3:0:0:
53,209,98949,1,2,2:0:0:0:
368,118,99085,6,0,P|424:132|479:142,1,100,4|0,3:2|2:0,2:0:0:0:
294,283,99358,1,0,3:2:0:0:
294,283,99494,1,0,3:2:0:0:
461,311,99631,6,0,P|442:256|427:202,1,100,2|0,1:2|2:0,2:0:0:0:
215,286,99903,1,0,2:0:0:0:
209,305,99972,1,0,2:0:0:0:
203,324,100040,1,2,3:2:0:0:
197,343,100108,1,0,2:0:0:0:
191,362,100176,5,2,2:0:0:0:
113,342,100312,1,0,3:2:0:0:
17,213,100449,1,0,2:0:0:0:
95,193,100585,1,0,3:2:0:0:
16,86,100722,5,2,1:2:0:0:
173,219,100858,1,0,2:0:0:0:
289,63,100994,1,0,2:0:0:0:
285,53,101062,1,0,2:0:0:0:
281,43,101131,1,2,2:0:0:0:
96,110,101267,5,0,3:2:0:0:
96,110,101403,1,0,2:0:0:0:
262,227,101540,1,2,2:0:0:0:
262,227,101676,1,0,3:2:0:0:
95,193,101812,5,2,1:2:0:0:
205,76,101949,1,0,2:0:0:0:
357,198,102085,1,2,2:0:0:0:
352,217,102153,1,0,2:0:0:0:
347,236,102222,1,0,3:2:0:0:
342,255,102290,1,0,2:0:0:0:
337,274,102358,5,2,2:0:0:0:
387,367,102494,1,0,3:2:0:0:
481,317,102631,1,0,2:0:0:0:
430,223,102767,1,0,3:2:0:0:
237,304,102903,1,0,1:2:0:0:
134,196,103040,5,2,2:0:0:0:
134,196,103176,1,2,2:3:0:0:
134,196,103312,1,0,2:0:0:0:
18,285,103449,5,2,3:2:0:0:
18,285,103585,1,0,2:0:0:0:
163,367,103722,1,2,3:2:0:0:
238,220,103858,1,0,3:2:0:0:
160,271,103994,5,2,1:2:0:0:
57,160,104131,1,0,2:0:0:0:
157,30,104267,1,2,2:0:0:0:
176,34,104335,1,0,2:0:0:0:
195,38,104403,1,2,3:2:0:0:
214,42,104472,1,0,2:0:0:0:
233,46,104540,5,2,2:0:0:0:
333,197,104676,1,0,3:2:0:0:
480,67,104812,1,0,2:0:0:0:
326,115,104949,6,0,P|316:65|308:16,1,100,2|0,3:2|1:2,2:0:0:0:
385,7,105222,1,2,2:0:0:0:
487,151,105358,1,0,2:0:0:0:
477,154,105426,1,0,2:0:0:0:
467,157,105494,1,2,2:0:0:0:
319,280,105631,5,2,3:2:0:0:
319,280,105767,1,0,2:0:0:0:
464,361,105903,1,2,2:0:0:0:
490,226,106040,1,2,3:2:0:0:
284,358,106176,5,0,1:2:0:0:
392,219,106312,1,2,2:0:0:0:
221,140,106449,1,2,2:0:0:0:
201,146,106517,1,0,2:0:0:0:
181,151,106585,1,0,3:2:0:0:
161,157,106653,1,0,2:0:0:0:
141,163,106722,5,2,2:0:0:0:
403,139,106858,1,2,3:2:0:0:
131,163,106994,5,2,2:0:0:0:
412,138,107131,1,0,3:2:0:0:
124,164,107267,5,2,1:2:0:0:
419,137,107540,1,2,2:3:0:0:
271,150,107812,5,2,2:0:0:0:
