osu file format v14

[General]
AudioFilename: audio.mp3
AudioLeadIn: 0
PreviewTime: 26676
Countdown: 0
SampleSet: Soft
StackLeniency: 0.5
Mode: 0
LetterboxInBreaks: 0
WidescreenStoryboard: 1

[Editor]
Bookmarks:9631,18358,27085,44540,46722,55449,64176,72903,90358,99085,107812
DistanceSpacing: 0.8
BeatDivisor: 4
GridSize: 4
TimelineZoom: 2.799999

[Metadata]
Title:Narazumono
TitleUnicode:不成者
Artist:DUSTCELL
ArtistUnicode:DUSTCELL
Creator:achyoo
Version:Kudou Chitose's Insane
Source:
Tags:kudou chitose mrrrk ayucchi azyeu mocaotic asagi rtyzen megumic _gt japanese pop jpop hip-hop hiphop j-pop hypnotize KAMITSUBAKI STUDIO 神椿スタジオ thinkr ema misumi gst:live2022 great singapore tournament live 2022 gstlive custom map tourney AEF asia esports festival online kallang wave mall EXP experience center gstlive2022a3
BeatmapID:4136734
BeatmapSetID:1893881

[Difficulty]
HPDrainRate:5
CircleSize:4
OverallDifficulty:8
ApproachRate:9
SliderMultiplier:2.8
SliderTickRate:1

[Events]
//Background and Video events
0,0,"us.jpg",0,0
//Break Periods
//Storyboard Layer 0 (Background)
//Storyboard Layer 1 (Fail)
//Storyboard Layer 2 (Pass)
//Storyboard Layer 3 (Foreground)
//Storyboard Layer 4 (Overlay)
//Storyboard Sound Samples

[TimingPoints]
-186,545.454545454546,4,2,1,40,1,0
495,-500,4,2,1,40,0,0
904,545.454545454546,4,2,1,50,1,0
904,-71.4285714285714,4,2,1,50,0,0
3904,-125,4,2,1,50,0,0
5267,-71.4285714285714,4,2,1,50,0,0
6358,-100,4,2,1,50,0,0
7449,-71.4285714285714,4,2,1,50,0,0
8267,-125,4,2,1,50,0,0
9631,-100,4,2,1,50,0,0
10858,-55.5555555555556,4,2,1,50,0,0
11131,-71.4285714285714,4,2,1,50,0,0
12631,-125,4,2,1,50,0,0
13994,-71.4285714285714,4,2,1,50,0,0
15085,-100,4,2,1,50,0,0
15631,-71.4285714285714,4,2,1,50,0,0
16994,-100,4,2,1,50,0,0
18358,-100,4,2,1,45,0,0
22722,-100,4,2,1,65,0,0
24904,-100,4,2,1,35,0,0
26813,-125,4,2,1,35,0,0
27085,-55.5555555555556,4,2,1,75,0,0
27631,-71.4285714285714,4,2,1,75,0,0
28585,-100,4,2,1,75,0,0
29267,-55.5555555555556,4,2,1,75,0,0
29813,-71.4285714285714,4,2,1,75,0,0
30767,-100,4,2,1,75,0,0
31858,-71.4285714285714,4,2,1,75,0,0
35540,-55.5555555555556,4,2,1,75,0,0
36358,-71.4285714285714,4,2,1,75,0,0
37313,-100,4,2,1,75,0,0
37994,-55.5555555555556,4,2,1,75,0,0
38540,-71.4285714285714,4,2,1,75,0,0
41267,-100,4,2,1,75,0,0
41676,-71.4285714285714,4,2,1,75,0,0
44267,-55.5555555555556,4,2,1,75,0,0
44540,-125,4,2,1,40,0,0
46176,-83.3333333333333,4,2,1,40,0,0
46722,545.454545454546,4,2,1,50,1,0
49722,-75.187969924812,4,2,1,50,0,0
49994,-100,4,2,1,50,0,0
52994,-125,4,2,1,50,0,0
53267,-83.3333333333333,4,2,1,50,0,0
54903,-100,4,2,1,50,0,0
55994,-71.4285714285714,4,2,1,50,0,0
57631,-83.3333333333333,4,2,1,50,0,0
60903,-71.4285714285714,4,2,1,50,0,0
61994,-83.3333333333333,4,2,1,50,0,0
62540,-71.4285714285714,4,2,1,50,0,0
64176,-100,4,2,1,45,0,0
68540,-100,4,2,1,65,0,0
70722,-100,4,2,1,35,0,0
72631,-71.4285714285714,4,2,1,35,0,0
72903,-55.5555555555556,4,2,1,75,0,0
73449,-71.4285714285714,4,2,1,75,0,0
73994,-100,4,2,1,75,0,0
75085,-55.5555555555556,4,2,1,75,0,0
75631,-71.4285714285714,4,2,1,75,0,0
76585,-100,4,2,1,75,0,0
77676,-71.4285714285714,4,2,1,75,0,0
81358,-200,4,2,1,75,0,0
81631,-55.5555555555556,4,2,1,75,0,0
82176,-71.4285714285714,4,2,1,75,0,0
82722,-100,4,2,1,75,0,0
83812,-55.5555555555556,4,2,1,75,0,0
84358,-71.4285714285714,4,2,1,75,0,0
84903,-100,4,2,1,75,0,0
86403,-71.4285714285714,4,2,1,75,0,0
87085,-100,4,2,1,75,0,0
87494,-71.4285714285714,4,2,1,75,0,0
89267,-71.4285714285714,4,2,1,85,0,0
90085,-100,4,2,1,85,0,0
90358,-71.4285714285714,4,2,1,70,0,0
90903,-100,4,2,1,70,0,0
94722,-83.3333333333333,4,2,1,70,0,0
99085,-71.4285714285714,4,2,1,70,0,0
99631,-100,4,2,1,70,0,0
103449,-83.3333333333333,4,2,1,70,0,0
106722,-71.4285714285714,4,2,1,70,0,0
107812,-200,4,2,1,40,0,0

[Colours]
Combo1 : 255,228,138
Combo2 : 140,172,255
Combo3 : 255,108,108
Combo4 : 170,170,170

[HitObjects]
256,192,495,6,0,L|242:186,2,14,0|0|0,2:0|2:0|2:0,2:0:0:0:
259,93,904,6,0,P|268:186|259:298,1,196.00000000000006,0|0,3:2|2:0,2:0:0:0:
320,327,1313,1,2,2:0:0:0:
418,285,1449,5,0,1:2:0:0:
358,246,1585,1,0,2:0:0:0:
163,325,1858,5,0,2:0:0:0:
103,286,1994,1,2,2:0:0:0:
113,335,2131,1,0,2:0:0:0:
152,275,2267,1,2,3:2:0:0:
133,305,2404,5,0,2:0:0:0:
20,207,2676,1,0,2:0:0:0:
32,128,2813,1,0,2:0:0:0:
86,62,2949,1,2,2:0:0:0:
0,47,3085,6,0,B|21:61|56:75|56:75|68:142|103:209,1,196.00000000000006,2|0,3:2|2:0,2:0:0:0:
166,68,3631,1,2,1:2:0:0:
371,0,3904,6,0,P|363:33|406:61,1,84,2|0,2:0|2:0,2:0:0:0:
482,64,4176,5,2,2:0:0:0:
402,77,4313,1,2,2:0:0:0:
454,139,4449,1,2,3:2:0:0:
446,93,4585,5,2,2:0:0:0:
382,154,4722,5,0,1:2:0:0:
425,237,4858,5,0,3:2:0:0:
415,174,4994,1,0,2:0:0:0:
364,215,5131,1,0,2:0:0:0:
401,208,5267,6,0,P|266:192|104:198,1,294.0000000000001,2|0,3:2|2:0,2:0:0:0:
42,155,5813,1,0,1:2:0:0:
117,115,5949,1,0,2:0:0:0:
56,61,6358,6,0,P|80:124|91:222,1,139.99999999999997,2|2,2:0|3:2,2:0:0:0:
52,263,6767,1,0,2:0:0:0:
292,328,7040,5,0,2:0:0:0:
371,291,7176,1,0,2:0:0:0:
363,378,7313,1,0,2:0:0:0:
342,332,7449,6,0,B|353:292|380:257|380:257|301:176|263:75,1,294.0000000000001,2|0,3:2|2:0,2:0:0:0:
292,7,7994,1,2,1:2:0:0:
424,162,8267,6,0,P|385:175|335:207,1,84,2|0,2:0|2:0,2:0:0:0:
256,192,8540,5,2,2:0:0:0:
138,176,8676,1,0,2:0:0:0:
52,240,8813,1,2,3:2:0:0:
41,315,8949,1,0,2:0:0:0:
114,152,9222,5,0,3:2:0:0:
42,107,9358,1,2,2:0:0:0:
95,40,9494,1,0,2:0:0:0:
0,0,9631,6,0,B|64:27|146:34|146:34|149:59|170:109,1,210,2|0,3:2|2:0,2:0:0:0:
278,117,10176,1,2,1:2:0:0:
327,58,10313,1,0,2:0:0:0:
316,56,10585,5,0,2:0:0:0:
293,149,10722,1,2,2:0:0:0:
379,209,10858,2,0,B|449:237|506:197|506:197|505:161|470:137,1,188.99999999999986,2|0,2:0|2:0,2:0:0:0:
470,155,11131,6,0,B|460:159|460:159|454:182|481:229,1,49.00000000000002,2|0,2:0|2:0,2:0:0:0:
311,296,11404,1,0,2:0:0:0:
239,327,11540,1,0,2:0:0:0:
302,373,11676,1,0,2:0:0:0:
284,332,11813,6,0,B|295:274|329:216|329:216|295:186|268:152,1,196.00000000000006,2|0,3:2|2:0,2:0:0:0:
408,311,12358,1,2,1:2:0:0:
122,286,12631,6,0,P|93:314|103:355,1,84,2|0,2:0|2:0,2:0:0:0:
216,288,12904,5,2,2:0:0:0:
141,306,13040,1,2,2:0:0:0:
162,232,13176,1,0,3:2:0:0:
173,275,13313,5,2,2:0:0:0:
65,245,13449,5,0,1:2:0:0:
29,159,13585,5,0,3:2:0:0:
66,92,13722,5,2,2:0:0:0:
39,55,13858,5,0,2:0:0:0:
14,61,13994,6,0,P|151:92|313:87,1,294.0000000000001,2|0,3:2|2:0,2:0:0:0:
372,123,14540,1,2,1:2:0:0:
331,208,14676,1,0,2:0:0:0:
409,210,14949,5,0,2:0:0:0:
335,229,15085,2,0,P|319:261|335:304,1,69.99999999999999,2|0,2:0|2:0,2:0:0:0:
256,192,15494,5,0,2:0:0:0:
344,232,15631,2,0,P|361:278|338:327,1,98.00000000000004,2|0,1:2|2:0,2:0:0:0:
205,367,15904,1,2,2:0:0:0:
122,337,16040,1,0,2:0:0:0:
45,383,16176,6,0,B|123:358|238:356|238:356|247:304|278:264,1,294.0000000000001,2|0,3:2|2:0,2:0:0:0:
256,192,16722,1,2,1:2:0:0:
72,171,16994,6,0,P|100:193|141:238,1,69.99999999999999,2|0,2:0|2:0,2:0:0:0:
185,174,17267,1,0,3:2:0:0:
205,246,17404,1,0,3:2:0:0:
327,210,17540,1,0,3:2:0:0:
307,138,17676,1,0,3:2:0:0:
256,192,17813,5,0,1:2:0:0:
321,224,17949,1,2,3:2:0:0:
326,62,18222,5,2,3:2:0:0:
397,29,18358,2,0,P|258:24|109:29,1,279.99999999999994,6|2,2:0|1:2,2:0:0:0:
436,98,19722,5,2,3:2:0:0:
186,194,19994,2,0,P|252:192|330:197,1,139.99999999999997,0|0,1:2|2:0,2:0:0:0:
395,366,20540,6,0,P|256:361|107:366,1,279.99999999999994,0|2,3:2|1:2,2:0:0:0:
44,338,21358,1,2,2:0:0:0:
167,288,21631,5,2,3:2:0:0:
96,261,21904,1,0,3:2:0:0:
117,378,22176,5,0,1:2:0:0:
96,249,22313,1,2,3:2:0:0:
110,225,22449,1,2,1:2:0:0:
124,201,22585,1,2,2:0:0:0:
133,192,22722,6,0,P|169:191|210:194,2,69.99999999999999,0|0|0,3:2|1:2|3:2,2:0:0:0:
43,119,23131,1,0,1:2:0:0:
83,55,23267,2,0,P|119:54|160:57,2,69.99999999999999,2|0|0,1:2|1:2|3:2,2:0:0:0:
256,0,23676,5,0,1:2:0:0:
288,74,23813,2,0,P|319:86|360:77,1,69.99999999999999,2|0,3:2|1:2,2:0:0:0:
261,120,24085,5,2,3:2:0:0:
372,93,24222,2,0,P|397:72|410:32,1,69.99999999999999,0|2,1:2|3:2,2:0:0:0:
398,177,24494,5,2,1:2:0:0:
486,193,24631,1,2,3:2:0:0:
411,314,24767,1,2,1:2:0:0:
499,330,24904,5,2,3:2:0:0:
509,311,26676,5,2,2:0:0:0:
499,324,26813,2,0,P|463:329|408:351,1,84,2|0,2:0|2:0,2:0:0:0:
386,382,27085,6,0,B|446:297|408:222|408:222|359:217|330:248,1,251.99999999999983,6|2,3:2|3:2,2:0:0:0:
256,192,27494,1,0,3:2:0:0:
262,300,27631,6,0,P|304:294|306:234,1,98.00000000000004,2|2,1:2|2:0,2:0:0:0:
191,148,27904,2,0,P|176:127|173:100,1,49.00000000000002,2|0,2:0|2:0,2:0:0:0:
223,45,28040,1,0,3:2:0:0:
224,35,28108,1,0,2:0:0:0:
230,28,28176,5,2,2:0:0:0:
317,60,28313,1,0,3:2:0:0:
385,25,28449,5,2,2:0:0:0:
472,56,28585,2,0,P|495:29|512:0,1,69.99999999999999,2|0,3:2|1:2,2:0:0:0:
356,67,28858,5,0,2:0:0:0:
443,143,28994,2,0,P|462:137|485:128,2,34.99999999999999,2|0|0,2:3|2:0|2:0,2:0:0:0:
406,211,29267,6,0,B|379:227|345:254|345:254|273:207|163:178,1,251.99999999999983,2|2,3:2|2:0,2:0:0:0:
114,219,29676,5,0,3:2:0:0:
12,160,29813,2,0,P|15:115|53:80,1,98.00000000000004,2|2,1:2|2:0,2:0:0:0:
158,80,30085,1,0,2:0:0:0:
164,76,30154,1,0,2:0:0:0:
167,70,30222,2,0,P|162:45|136:31,1,49.00000000000002,0|0,3:2|2:0,2:0:0:0:
73,10,30358,5,2,2:0:0:0:
90,107,30494,1,2,2:0:0:0:
112,231,30631,1,2,2:0:0:0:
66,294,30767,6,0,P|41:276|40:224,1,69.99999999999999,2|0,3:2|1:2,2:0:0:0:
145,161,31040,1,0,2:0:0:0:
186,241,31176,2,0,P|182:271|138:298,1,69.99999999999999,4|0,2:0|2:0,2:0:0:0:
276,175,31449,5,2,3:2:0:0:
362,206,31585,1,0,2:0:0:0:
366,57,31722,1,2,3:2:0:0:
340,131,31858,6,0,B|314:184|257:222|257:222|274:255|279:309,1,196.00000000000006,0|2,3:2|2:0,2:0:0:0:
405,376,32267,1,0,2:0:0:0:
430,359,32335,1,0,2:0:0:0:
441,346,32404,1,2,3:2:0:0:
444,337,32472,1,0,2:0:0:0:
445,331,32540,2,0,P|413:320|344:272,1,98.00000000000004,2|0,2:0|3:2,2:0:0:0:
223,352,32813,1,0,2:0:0:0:
143,352,32949,6,0,P|102:324|56:307,1,98.00000000000004,2|0,3:2|1:2,2:0:0:0:
0,356,33222,1,2,2:0:0:0:
122,252,33358,1,2,2:3:0:0:
122,252,33426,1,0,2:0:0:0:
122,252,33494,1,2,2:0:0:0:
83,140,33631,6,0,P|65:185|38:226,1,98.00000000000004,2|0,3:2|2:0,2:0:0:0:
226,333,33904,2,0,P|244:288|271:247,1,98.00000000000004,0|0,2:0|3:2,2:0:0:0:
253,72,34176,6,0,P|247:120|231:166,1,98.00000000000004,2|0,1:2|2:0,2:0:0:0:
441,221,34449,1,2,2:0:0:0:
439,189,34517,1,0,2:0:0:0:
446,155,34585,1,0,3:2:0:0:
455,136,34654,1,0,2:0:0:0:
462,126,34722,6,0,B|414:83|350:61|350:61|346:22|333:-6,1,196.00000000000006,2|2,2:0|2:0,2:0:0:0:
431,56,35131,1,2,3:2:0:0:
374,111,35267,2,0,P|326:117|275:143,1,98.00000000000004,0|2,1:2|2:0,2:0:0:0:
195,240,35540,6,0,B|124:187|95:112|95:112|100:90|120:80,1,188.99999999999986,14|0,2:0|2:0,2:0:0:0:
123,82,35813,6,0,B|147:97|147:97|165:149|120:205,1,125.9999999999999,6|0,3:2|2:0,2:0:0:0:
4,236,36085,2,0,B|-12:331|48:380|48:380|82:379,1,188.99999999999986,2|0,3:2|2:0,2:0:0:0:
101,376,36358,6,0,B|114:363|114:363|82:324|23:363,1,98.00000000000004,2|0,1:2|2:0,2:0:0:0:
169,257,36631,6,0,P|191:243|204:218,1,49.00000000000002,0|0,2:0|2:0,2:0:0:0:
273,243,36767,1,0,3:2:0:0:
284,240,36835,1,0,2:0:0:0:
294,242,36904,5,2,2:0:0:0:
367,326,37040,1,2,3:2:0:0:
410,262,37176,5,2,2:0:0:0:
499,317,37313,2,0,P|501:361|519:396,1,69.99999999999999,2|0,3:2|1:2,2:0:0:0:
374,273,37585,5,0,2:0:0:0:
392,348,37722,2,0,P|384:364|377:394,2,34.99999999999999,2|0|0,2:3|2:0|2:0,2:0:0:0:
340,146,37994,6,0,B|309:133|273:110|273:110|197:163|99:192,1,251.99999999999983,2|2,3:2|2:0,2:0:0:0:
41,163,38404,5,2,3:2:0:0:
162,50,38540,2,0,P|187:91|177:140,1,98.00000000000004,2|0,1:2|2:0,2:0:0:0:
58,238,38813,1,0,2:0:0:0:
58,245,38881,1,0,2:0:0:0:
58,252,38949,2,0,P|71:267|103:272,1,49.00000000000002,2|0,3:2|2:0,2:0:0:0:
139,207,39085,5,2,2:0:0:0:
105,108,39222,1,0,3:2:0:0:
179,35,39358,1,2,2:0:0:0:
258,25,39494,6,0,P|356:43|464:35,1,196.00000000000006,2|0,3:2|2:0,2:0:0:0:
512,95,39904,1,4,2:0:0:0:
438,133,40040,1,0,2:0:0:0:
378,76,40176,5,2,3:2:0:0:
378,76,40313,1,2,2:0:0:0:
431,160,40449,1,0,3:2:0:0:
380,246,40585,2,0,B|342:307|265:282|244:254|244:254|251:231|247:207,1,196.00000000000006,2|2,3:2|2:0,2:0:0:0:
194,162,40994,5,0,2:0:0:0:
204,280,41131,1,2,3:2:0:0:
201,287,41199,1,0,2:0:0:0:
198,294,41267,2,0,P|162:303|121:280,1,69.99999999999999,2|0,2:0|3:2,2:0:0:0:
61,307,41540,1,2,2:0:0:0:
126,209,41676,6,0,B|166:167|136:97|96:87|96:87|72:104|33:101,1,196.00000000000006,2|2,3:2|2:0,2:0:0:0:
0,158,42085,1,2,2:3:0:0:
45,25,42222,5,2,2:0:0:0:
127,86,42358,2,0,P|155:51|153:-1,1,98.00000000000004,0|0,3:2|2:0,2:0:0:0:
299,47,42631,2,0,P|271:82|273:134,1,98.00000000000004,2|2,2:0|3:2,2:0:0:0:
192,149,42904,1,2,1:2:0:0:
192,149,43040,1,2,2:0:0:0:
163,270,43176,5,2,2:0:0:0:
127,305,43244,1,0,2:0:0:0:
95,308,43313,1,2,3:2:0:0:
74,295,43381,1,0,2:0:0:0:
66,283,43449,6,0,P|58:252|124:228,1,98.00000000000004,2|0,2:0|3:2,2:0:0:0:
171,260,43722,1,2,2:0:0:0:
322,262,43858,6,0,P|352:270|365:346,1,98.00000000000004,2|0,3:2|1:2,2:0:0:0:
303,353,44131,1,2,2:0:0:0:
245,282,44267,2,0,P|325:273|440:244,1,188.99999999999986,14|0,2:0|2:0,2:0:0:0:
504,299,44540,6,0,L|513:260,1,28,2|0,2:0|2:0,2:0:0:0:
487,274,45085,6,0,L|475:235,1,28,2|0,2:0|2:0,2:0:0:0:
472,281,45631,6,0,L|452:253,1,28,2|0,2:0|2:0,2:0:0:0:
478,291,46176,6,0,B|490:58|490:58|472:-1,1,294.00000000000017,0|0,2:0|2:0,2:0:0:0:
467,30,46722,6,0,L|505:63,1,34.99999999999999,0|0,3:2|2:0,2:0:0:0:
394,152,46994,5,0,2:0:0:0:
187,181,47267,2,0,L|329:203,1,139.99999999999997,2|0,1:2|2:0,2:0:0:0:
394,152,47812,1,0,2:0:0:0:
293,289,48085,2,0,L|371:280,1,69.99999999999999,2|0,3:2|2:0,2:0:0:0:
256,192,48358,2,0,L|347:206,1,69.99999999999999,0|0,1:2|2:0,2:0:0:0:
394,152,48631,1,0,2:0:0:0:
134,35,48903,6,0,B|100:30|100:30|-1:64,2,139.99999999999997,2|0|2,3:2|2:0|1:2,2:0:0:0:
125,108,49585,1,0,3:2:0:0:
8,145,49722,2,0,B|42:150|42:150|143:116,1,139.65000000000006,0|0,2:0|2:0,2:0:0:0:
158,106,49994,6,0,B|127:107|127:107|68:198|68:198|115:281,1,210,0|0,2:0|2:0,2:0:0:0:
82,332,50540,1,2,1:2:0:0:
164,358,50676,1,0,3:2:0:0:
219,291,50812,1,0,2:0:0:0:
448,384,51085,6,0,B|425:304|486:228|486:228|504:247|504:282,1,210,2|0,3:2|2:0,2:0:0:0:
431,291,51631,2,0,B|391:310|343:303|343:303|317:290|301:263,1,139.99999999999997,2|0,1:2|2:0,2:0:0:0:
147,276,52176,6,0,P|126:313|202:336,2,139.99999999999997,2|0|0,2:0|3:2|1:2,2:0:0:0:
120,348,52858,1,0,2:0:0:0:
50,327,52994,2,0,P|27:302|34:248,1,84,0|0,2:0|2:0,2:0:0:0:
86,199,53267,6,0,B|104:133|96:76|96:76|78:67|46:66,1,168.00000000000006,2|0,3:2|2:0,2:0:0:0:
196,34,53676,1,0,2:0:0:0:
243,93,53812,2,0,P|284:100|331:101,1,84.00000000000003,2|0,1:2|2:0,2:0:0:0:
326,28,54085,2,0,P|319:69|318:116,1,84.00000000000003,0|0,2:0|2:0,2:0:0:0:
476,132,54358,6,0,P|393:116|309:120,1,168.00000000000006,2|0,2:0|3:2,2:0:0:0:
486,138,54903,2,0,P|484:172|479:207,2,69.99999999999999,2|2|0,1:2|3:2|2:0,2:0:0:0:
453,68,55449,1,0,3:2:0:0:
311,313,55722,5,2,2:0:0:0:
368,265,55858,1,0,2:0:0:0:
256,192,55994,6,0,B|184:171|184:171|95:205,1,147.00000000000006,2|0,1:2|2:0,2:0:0:0:
103,212,56267,2,0,B|90:248|90:248|132:276|132:276|148:264,1,98.00000000000004,0|0,2:0|2:0,2:0:0:0:
223,294,56472,1,0,2:0:0:0:
229,291,56540,2,0,B|241:282|241:282|215:134|215:134|234:91,2,196.00000000000006,2|2|2,2:0|3:2|1:2,2:0:0:0:
143,104,57222,1,0,2:0:0:0:
120,100,57290,1,0,2:0:0:0:
113,83,57358,2,0,B|95:38|95:38|141:-9,1,98.00000000000004,0|0,2:0|2:0,2:0:0:0:
243,85,57631,6,0,P|184:79|71:55,2,168.00000000000006,2|2|2,2:3|2:0|1:2,2:0:0:0:
353,0,58312,1,0,2:0:0:0:
426,19,58449,2,0,P|451:70|412:128,1,126.00000000000006,0|0,2:0|2:0,2:0:0:0:
348,189,58722,1,2,2:0:0:0:
328,269,58858,1,0,2:0:0:0:
407,246,58994,1,2,3:2:0:0:
362,236,59131,5,0,2:0:0:0:
342,316,59267,1,2,1:2:0:0:
441,213,59403,1,0,3:2:0:0:
302,178,59540,1,0,2:0:0:0:
111,297,59812,6,0,P|194:319|286:367,1,168.00000000000006,0|0,3:2|2:0,2:0:0:0:
148,276,60222,1,0,2:0:0:0:
159,360,60358,2,0,B|124:383|124:383|64:366,1,84.00000000000003,0|2,1:2|2:0,2:0:0:0:
65,235,60631,2,0,B|100:212|100:212|160:229,1,84.00000000000003,0|2,2:0|2:0,2:0:0:0:
37,312,60903,6,0,B|54:301|54:301|11:122,1,196.00000000000006,0|0,2:0|3:2,2:0:0:0:
56,70,61312,1,0,2:0:0:0:
196,116,61449,2,0,B|190:164|190:164|128:205,1,98.00000000000004,2|0,1:2|2:0,2:0:0:0:
117,123,61722,1,2,2:0:0:0:
114,117,61790,1,0,2:0:0:0:
121,116,61858,1,0,2:0:0:0:
241,54,61994,6,0,P|344:44|436:19,1,168.00000000000006,0|0,3:2|2:0,2:0:0:0:
471,70,62403,1,2,2:0:0:0:
397,149,62540,2,0,B|355:129|355:129|347:66,2,98.00000000000004,2|0|2,1:2|2:0|2:0,2:0:0:0:
434,240,62949,1,2,2:0:0:0:
359,305,63085,6,0,B|341:321|341:321|233:298|233:298|175:361,1,196.00000000000006,0|0,2:0|3:2,2:0:0:0:
199,384,63494,1,0,3:2:0:0:
222,319,63631,1,0,1:2:0:0:
154,331,63767,5,0,3:2:0:0:
191,343,63903,1,0,3:2:0:0:
158,251,64040,5,2,3:2:0:0:
66,222,64176,6,0,P|59:156|67:78,1,139.99999999999997,6|0,2:0|2:0,2:0:0:0:
9,33,64585,1,0,2:0:0:0:
81,84,64722,2,0,P|88:150|80:228,1,139.99999999999997,2|0,1:2|2:0,2:0:0:0:
31,278,65131,1,0,2:0:0:0:
79,354,65267,2,0,P|93:373|77:356,3,69.99999999999999,2|0|2|0,2:0|2:0|3:2|2:0,2:0:0:0:
64,274,65812,1,0,1:2:0:0:
147,261,65949,5,0,2:0:0:0:
230,247,66085,1,0,2:0:0:0:
283,320,66222,1,0,2:0:0:0:
283,320,66358,2,0,P|349:313|427:321,1,139.99999999999997,0|2,3:2|2:0,2:0:0:0:
500,347,66767,1,0,2:0:0:0:
425,334,66903,2,0,P|359:341|281:333,1,139.99999999999997,2|2,1:2|2:0,2:0:0:0:
481,257,67449,6,0,P|474:191|482:113,1,139.99999999999997,2|0,3:2|3:2,2:0:0:0:
376,79,67994,1,0,1:2:0:0:
324,78,68131,5,2,3:2:0:0:
400,122,68267,1,2,1:2:0:0:
400,35,68403,1,2,2:0:0:0:
292,5,68540,2,0,P|258:7|197:3,2,69.99999999999999,0|0|0,3:2|1:2|3:2,2:0:0:0:
331,66,68949,1,0,1:2:0:0:
272,146,69085,6,0,P|238:148|177:144,2,69.99999999999999,2|0|0,1:2|1:2|3:2,2:0:0:0:
316,210,69494,1,0,1:2:0:0:
231,268,69631,1,2,3:2:0:0:
188,250,69767,1,0,1:2:0:0:
227,219,69903,1,2,3:2:0:0:
193,300,70040,2,0,P|193:335|185:385,1,69.99999999999999,0|2,1:2|3:2,2:0:0:0:
308,291,70312,5,2,1:2:0:0:
325,368,70449,1,2,3:2:0:0:
451,298,70585,1,2,1:2:0:0:
378,315,70722,5,2,3:2:0:0:
135,0,72358,1,0,2:0:0:0:
208,18,72494,1,2,2:0:0:0:
112,72,72631,6,0,B|61:84|1:83|1:83|33:100|63:125,1,147.00000000000006,2|0,2:0|2:0,2:0:0:0:
0,0,72903,6,0,B|37:60|61:157|61:157|24:191|-5:243,1,251.99999999999983,6|2,3:2|3:2,2:0:0:0:
148,146,73312,1,0,3:2:0:0:
220,175,73449,6,0,P|255:144|252:85,1,98.00000000000004,2|2,1:2|2:0,2:0:0:0:
140,262,73722,1,2,2:0:0:0:
115,270,73790,1,0,2:0:0:0:
125,253,73858,1,0,3:2:0:0:
133,278,73926,1,0,2:0:0:0:
127,265,73994,2,0,P|136:298|138:341,1,69.99999999999999,2|0,2:0|3:2,2:0:0:0:
202,384,74267,1,2,2:0:0:0:
327,314,74403,2,0,P|293:323|258:325,1,69.99999999999999,2|0,3:2|1:2,2:0:0:0:
396,276,74676,5,0,2:0:0:0:
474,284,74812,1,2,2:3:0:0:
474,312,74881,1,0,2:0:0:0:
453,331,74949,1,0,2:0:0:0:
393,256,75085,6,0,B|376:231|353:197|353:197|414:136|458:51,1,251.99999999999983,2|2,3:2|2:0,2:0:0:0:
465,182,75494,1,0,3:2:0:0:
387,180,75631,6,0,P|354:147|354:88,1,98.00000000000004,2|2,1:2|2:0,2:0:0:0:
272,143,75903,1,0,2:0:0:0:
266,145,75972,1,0,2:0:0:0:
260,148,76040,2,0,P|239:164|207:176,1,49.00000000000002,0|0,3:2|2:0,2:0:0:0:
157,226,76176,5,2,2:0:0:0:
149,86,76312,1,2,2:0:0:0:
32,162,76449,1,2,2:0:0:0:
112,158,76585,6,0,P|126:133|135:81,1,69.99999999999999,2|0,3:2|1:2,2:0:0:0:
0,198,76858,1,0,2:0:0:0:
62,242,76994,2,0,P|76:267|85:319,1,69.99999999999999,4|0,2:0|2:0,2:0:0:0:
231,267,77267,5,2,3:2:0:0:
113,172,77403,1,0,2:0:0:0:
81,245,77540,1,2,3:2:0:0:
160,237,77676,6,0,B|203:179|260:127|260:127|246:101|234:65,1,196.00000000000006,0|2,3:2|2:0,2:0:0:0:
53,25,78085,1,0,2:0:0:0:
54,51,78153,1,0,2:0:0:0:
60,66,78222,1,2,3:2:0:0:
66,75,78290,1,0,2:0:0:0:
70,80,78358,2,0,P|100:91|169:100,1,98.00000000000004,2|0,2:0|3:2,2:0:0:0:
284,18,78631,1,0,2:0:0:0:
353,60,78767,6,0,P|383:71|452:80,1,98.00000000000004,2|0,3:2|1:2,2:0:0:0:
512,36,79040,1,2,2:0:0:0:
408,165,79176,1,2,2:3:0:0:
408,165,79244,1,0,2:0:0:0:
408,165,79312,1,2,2:0:0:0:
479,239,79449,6,0,P|483:190|499:143,1,98.00000000000004,2|0,3:2|2:0,2:0:0:0:
322,135,79722,2,0,P|317:183|301:230,1,98.00000000000004,0|0,2:0|3:2,2:0:0:0:
418,340,79994,6,0,P|397:295|387:247,1,98.00000000000004,2|0,1:2|2:0,2:0:0:0:
234,165,80267,1,2,2:0:0:0:
204,143,80335,1,0,2:0:0:0:
187,123,80403,1,0,3:2:0:0:
182,106,80472,1,0,2:0:0:0:
181,98,80540,6,0,B|177:91|177:91|116:74|55:77|55:77|48:50|30:13,1,196.00000000000006,2|2,2:0|2:0,2:0:0:0:
46,170,80949,2,0,P|91:142|73:78,1,98.00000000000004,2|0,3:2|1:2,2:0:0:0:
200,19,81222,1,2,2:0:0:0:
279,32,81358,6,0,P|305:25|340:20,1,52.5,14|0,2:0|2:0,2:0:0:0:
377,49,81631,6,0,P|330:58|218:83,1,125.9999999999999,6|0,3:2|2:0,2:0:0:0:
156,181,81903,2,0,B|216:208|271:239|271:239|289:284|250:303,1,188.99999999999986,2|0,3:2|2:0,2:0:0:0:
244,293,82176,6,0,P|220:262|262:194,1,98.00000000000004,2|0,1:2|2:0,2:0:0:0:
248,118,82449,1,0,2:0:0:0:
292,96,82517,1,0,2:0:0:0:
322,99,82585,1,0,3:2:0:0:
338,110,82653,1,0,2:0:0:0:
343,118,82722,6,0,P|373:137|426:154,1,69.99999999999999,2|2,2:0|3:2,2:0:0:0:
409,259,82994,1,2,2:0:0:0:
481,231,83131,2,0,P|493:198|512:168,1,69.99999999999999,2|0,3:2|1:2,2:0:0:0:
469,308,83403,5,0,2:0:0:0:
337,258,83540,1,2,2:3:0:0:
337,258,83608,1,0,2:0:0:0:
337,258,83676,1,0,2:0:0:0:
273,303,83812,6,0,B|270:310|270:310|190:319|124:355|124:355|74:316|49:264,1,251.99999999999983,2|2,3:2|2:0,2:0:0:0:
40,384,84222,1,2,3:2:0:0:
141,262,84358,2,0,P|152:214|175:171,1,98.00000000000004,2|0,1:2|2:0,2:0:0:0:
27,169,84631,5,0,2:0:0:0:
0,157,84699,1,0,2:0:0:0:
7,176,84767,1,2,3:2:0:0:
19,149,84835,1,0,2:0:0:0:
14,164,84903,2,0,P|48:172|99:192,1,69.99999999999999,2|0,2:0|3:2,2:0:0:0:
151,143,85176,1,2,2:0:0:0:
68,19,85312,2,0,P|34:11|-17:-9,1,69.99999999999999,2|0,3:2|1:2,2:0:0:0:
78,103,85585,5,0,2:0:0:0:
193,72,85722,2,0,P|225:83|260:91,1,69.99999999999999,4|0,2:0|2:0,2:0:0:0:
321,145,85994,5,2,3:2:0:0:
321,145,86131,1,2,2:0:0:0:
472,176,86267,1,0,3:2:0:0:
380,89,86403,6,0,B|343:165|412:212|448:208|448:208|462:194|488:186,1,196.00000000000006,2|2,3:2|2:0,2:0:0:0:
460,97,86812,1,0,2:0:0:0:
384,210,86949,1,2,3:2:0:0:
380,218,87017,1,0,2:0:0:0:
377,226,87085,2,0,P|346:246|296:241,1,69.99999999999999,2|0,2:0|3:2,2:0:0:0:
197,314,87358,1,2,2:0:0:0:
150,249,87494,6,0,B|74:212|27:281|31:317|31:317|45:331|53:357,1,196.00000000000006,2|2,3:2|2:0,2:0:0:0:
120,360,87903,1,2,2:3:0:0:
159,237,88040,5,2,2:0:0:0:
74,235,88176,2,0,P|45:196|-15:185,1,98.00000000000004,0|0,3:2|2:0,2:0:0:0:
0,106,88449,1,2,2:0:0:0:
0,106,88585,1,2,3:2:0:0:
74,83,88722,2,0,P|103:122|163:133,1,98.00000000000004,2|2,1:2|2:0,2:0:0:0:
256,192,88994,6,0,P|258:180|251:194,2,49.00000000000002,2|0|2,2:0|2:0|3:2,2:0:0:0:
233,312,89267,5,2,1:2:0:0:
233,312,89335,1,0,1:2:0:0:
233,312,89403,1,0,1:2:0:0:
233,312,89472,1,0,2:0:0:0:
233,312,89540,1,2,1:2:0:0:
310,307,89676,1,2,3:2:0:0:
279,72,89812,1,0,1:2:0:0:
202,77,89949,1,2,1:2:0:0:
293,62,90085,6,0,P|328:70|370:72,1,69.99999999999999,2|0,3:2|2:0,2:0:0:0:
219,322,90358,6,0,P|123:301|12:298,1,196.00000000000006,4|0,3:2|3:2,2:0:0:0:
94,337,90767,1,0,3:2:0:0:
151,283,90903,6,0,P|155:214|174:141,1,139.99999999999997,2|0,1:2|2:0,2:0:0:0:
172,145,91244,1,0,2:0:0:0:
172,145,91312,1,2,3:2:0:0:
119,91,91449,2,0,P|80:98|63:187,1,139.99999999999997,2|0,2:0|2:0,2:0:0:0:
228,242,91858,1,0,3:2:0:0:
280,187,91994,2,0,P|273:148|184:131,1,139.99999999999997,2|0,1:2|2:0,2:0:0:0:
77,260,92403,1,0,1:2:0:0:
141,301,92540,6,0,P|153:335|157:379,1,69.99999999999999,2|0,3:2|2:0,2:0:0:0:
239,352,92812,2,0,P|227:318|223:274,1,69.99999999999999,2|0,2:0|3:2,2:0:0:0:
256,192,93085,1,0,1:2:0:0:
256,192,93222,1,2,2:0:0:0:
371,83,93358,5,2,2:0:0:0:
371,83,93426,1,0,2:0:0:0:
371,83,93494,1,0,3:2:0:0:
371,83,93562,1,0,2:0:0:0:
371,83,93631,2,0,P|359:49|355:5,1,69.99999999999999,2|0,2:0|3:2,2:0:0:0:
273,32,93903,2,0,P|285:66|289:110,2,69.99999999999999,0|0|0,2:0|3:2|1:2,2:0:0:0:
426,140,94312,5,2,2:0:0:0:
498,166,94449,1,2,2:3:0:0:
484,90,94585,1,0,2:0:0:0:
469,132,94722,6,0,P|394:174|328:247,1,168.00000000000006,2|2,3:2|3:2,2:0:0:0:
262,220,95131,1,0,3:2:0:0:
198,292,95267,2,0,P|170:344|101:325,1,126.00000000000006,2|0,1:2|2:0,2:0:0:0:
98,319,95540,2,0,P|87:310|97:327,2,42.000000000000014,2|0|0,2:0|3:2|3:2,2:0:0:0:
125,231,95812,5,2,2:0:0:0:
67,184,95949,2,0,P|26:178|6:245,1,84.00000000000003,2|0,3:2|2:0,2:0:0:0:
186,96,96222,1,2,3:2:0:0:
186,96,96358,1,0,1:2:0:0:
136,155,96494,5,2,2:0:0:0:
160,226,96631,2,0,P|201:236|254:256,1,84.00000000000003,2|0,2:0|2:0,2:0:0:0:
297,302,96903,1,2,3:2:0:0:
417,101,97040,6,0,P|407:142|359:263,1,168.00000000000006,2|2,2:0|2:0,2:0:0:0:
485,171,97449,2,0,P|467:209|454:249,1,84.00000000000003,0|0,1:2|2:0,2:0:0:0:
454,380,97722,5,2,2:0:0:0:
454,380,97790,1,0,2:0:0:0:
454,380,97858,1,0,3:2:0:0:
454,380,97926,1,0,2:0:0:0:
454,380,97994,2,0,P|415:362|375:349,1,84.00000000000003,2|0,2:0|3:2,2:0:0:0:
308,205,98267,1,2,2:0:0:0:
377,173,98403,2,0,P|415:190|455:203,1,84.00000000000003,2|0,3:2|1:2,2:0:0:0:
304,295,98676,5,2,2:0:0:0:
235,327,98812,2,0,P|196:309|156:296,1,84.00000000000003,2|2,2:3|2:0,2:0:0:0:
87,186,99085,6,0,P|179:166|282:131,1,196.00000000000006,4|0,3:2|3:2,2:0:0:0:
200,122,99494,1,0,3:2:0:0:
164,191,99631,6,0,P|183:247|187:339,1,139.99999999999997,2|0,1:2|2:0,2:0:0:0:
188,327,99972,1,0,2:0:0:0:
188,327,100040,1,2,3:2:0:0:
268,358,100176,2,0,P|302:318|233:246,1,139.99999999999997,2|0,2:0|2:0,2:0:0:0:
164,191,100585,5,0,3:2:0:0:
89,175,100722,2,0,P|50:121|86:65,1,139.99999999999997,2|0,1:2|2:0,2:0:0:0:
86,65,101062,1,0,2:0:0:0:
86,65,101131,1,2,2:0:0:0:
218,30,101267,6,0,P|182:24|143:9,1,69.99999999999999,0|0,3:2|2:0,2:0:0:0:
164,205,101540,2,0,P|200:211|239:226,1,69.99999999999999,2|0,2:0|3:2,2:0:0:0:
356,156,101812,2,0,P|290:142|200:111,1,139.99999999999997,2|2,1:2|2:0,2:0:0:0:
99,160,102153,1,0,2:0:0:0:
95,166,102222,1,0,3:2:0:0:
91,172,102290,1,0,2:0:0:0:
87,178,102358,6,0,B|70:208|70:208|101:253,1,69.99999999999999,2|0,2:0|3:2,2:0:0:0:
166,230,102631,1,0,2:0:0:0:
245,280,102767,2,0,B|262:250|262:250|231:205,1,69.99999999999999,0|0,3:2|1:2,2:0:0:0:
74,341,103040,5,2,2:0:0:0:
144,370,103176,2,0,P|176:358|211:352,1,69.99999999999999,2|0,2:3|2:0,2:0:0:0:
317,360,103449,6,0,P|385:353|400:264,1,168.00000000000006,2|2,3:2|3:2,2:0:0:0:
353,209,103858,1,0,3:2:0:0:
485,148,103994,1,2,1:2:0:0:
427,196,104131,5,0,2:0:0:0:
330,131,104267,1,2,2:0:0:0:
302,112,104335,1,0,2:0:0:0:
308,79,104403,1,2,3:2:0:0:
318,72,104472,1,0,2:0:0:0:
327,73,104540,1,2,2:0:0:0:
252,170,104676,6,0,P|308:126|421:94,1,168.00000000000006,0|2,3:2|3:2,2:0:0:0:
431,26,105085,1,0,1:2:0:0:
502,54,105222,1,2,2:0:0:0:
512,249,105494,5,2,2:0:0:0:
490,323,105631,2,0,P|466:261|408:165,1,168.00000000000006,2|2,3:2|2:0,2:0:0:0:
286,262,106040,5,2,3:2:0:0:
361,287,106176,2,0,P|397:265|434:247,1,84.00000000000003,0|2,1:2|2:0,2:0:0:0:
256,192,106449,1,2,2:0:0:0:
256,192,106517,1,0,2:0:0:0:
256,192,106585,1,0,3:2:0:0:
256,192,106653,1,0,2:0:0:0:
256,192,106722,6,0,P|262:242|256:308,1,98.00000000000004,2|2,2:0|3:2,2:0:0:0:
377,187,106994,1,2,2:0:0:0:
343,115,107131,1,0,3:2:0:0:
135,197,107267,1,2,1:2:0:0:
169,269,107403,1,0,2:0:0:0:
256,192,107540,5,2,2:3:0:0:
64,145,107812,2,0,L|49:215,1,69.99999999999999,2|0,2:0|2:0,2:0:0:0:
