osu file format v14

[General]
AudioFilename: audio.mp3
AudioLeadIn: 0
PreviewTime: 26676
Countdown: 0
SampleSet: Soft
StackLeniency: 0.4
Mode: 0
LetterboxInBreaks: 0
WidescreenStoryboard: 1

[Editor]
Bookmarks: 33222,47267,90085
DistanceSpacing: 0.3
BeatDivisor: 4
GridSize: 32
TimelineZoom: 2.799999

[Metadata]
Title:Narazumono
TitleUnicode:不成者
Artist:DUSTCELL
ArtistUnicode:DUSTCELL
Creator:achyoo
Version:Azyeu's Expert
Source:
Tags:kudou chitose mrrrk ayucchi azyeu mocaotic asagi rtyzen megumic _gt japanese pop jpop hip-hop hiphop j-pop hypnotize KAMITSUBAKI STUDIO 神椿スタジオ thinkr ema misumi gst:live2022 great singapore tournament live 2022 gstlive custom map tourney AEF asia esports festival online kallang wave mall EXP experience center gstlive2022a3
BeatmapID:4120003
BeatmapSetID:1893881

[Difficulty]
HPDrainRate:4.6
CircleSize:4
OverallDifficulty:8.5
ApproachRate:9.1
SliderMultiplier:3.59999990463257
SliderTickRate:1

[Events]
//Background and Video events
0,0,"us.jpg",0,0
//Break Periods
//Storyboard Layer 0 (Background)
//Storyboard Layer 1 (Fail)
//Storyboard Layer 2 (Pass)
//Storyboard Layer 3 (Foreground)
//Storyboard Layer 4 (Overlay)
//Storyboard Sound Samples

[TimingPoints]
-186,545.454545454546,4,2,1,40,1,0
904,545.454545454546,4,2,1,50,1,0
904,-125,4,2,1,50,0,0
17267,-166.666666666667,4,2,1,50,0,0
18358,-166.666666666667,4,2,1,45,0,0
22722,-249.999999999999,4,2,1,65,0,0
23267,-199.999999999999,4,2,1,65,0,0
23813,-166.666666666666,4,2,1,65,0,0
24085,-142.857142857142,4,2,1,65,0,0
24358,-125,4,2,1,65,0,0
24631,-111.111111111111,4,2,1,65,0,0
24904,-83.3333333333333,4,2,1,35,0,0
26676,-250.000000000001,4,2,1,35,0,0
27085,-250.000000000001,4,2,1,75,0,0
28040,-100,4,2,1,75,0,0
44540,-100,4,2,1,40,0,0
46176,-200,4,2,1,40,0,0
46722,545.454545454546,4,2,1,50,1,0
46994,-166.666666666667,4,2,1,50,0,0
49176,-250.000000000001,4,2,1,50,0,0
49449,-166.666666666667,4,2,1,50,0,0
49722,-250.000000000001,4,2,1,50,0,0
49994,-166.666666666667,4,2,1,50,0,0
50267,-250.000000000001,4,2,1,50,0,0
50540,-166.666666666667,4,2,1,50,0,0
53267,-142.857142857143,4,2,1,50,0,0
53540,-166.666666666667,4,2,1,50,0,0
53812,-200.000000000001,4,2,1,50,0,0
54085,-166.666666666667,4,2,1,50,0,0
56812,-142.857142857143,4,2,1,50,0,0
57085,-200,4,2,1,50,0,0
57358,-250,4,2,1,50,0,0
57631,-166.666666666667,4,2,1,50,0,0
57903,-142.857142857143,4,2,1,50,0,0
58176,-200,4,2,1,50,0,0
58449,-250,4,2,1,50,0,0
58722,-166.666666666667,4,2,1,50,0,0
58994,-142.857142857143,4,2,1,50,0,0
59403,-125,4,2,1,50,0,0
59812,-166.666666666667,4,2,1,50,0,0
64176,-166.666666666667,4,2,1,45,0,0
68540,-249.999999999999,4,2,1,65,0,0
69085,-199.999999999999,4,2,1,65,0,0
69631,-166.666666666666,4,2,1,65,0,0
69903,-142.857142857142,4,2,1,65,0,0
70176,-125,4,2,1,65,0,0
70449,-111.111111111111,4,2,1,65,0,0
70722,-83.3333333333333,4,2,1,35,0,0
72494,-250,4,2,1,35,0,0
72903,-250,4,2,1,75,0,0
73858,-100,4,2,1,75,0,0
89267,-100,4,2,1,85,0,0
90358,-90.9090909090909,4,2,1,70,0,0
91312,-100,4,2,1,70,0,0
99085,-90.9090909090909,4,2,1,70,0,0
100040,-100,4,2,1,70,0,0
107812,-100,4,2,1,40,0,0

[Colours]
Combo1 : 255,228,138
Combo2 : 140,172,255
Combo3 : 255,108,108
Combo4 : 170,170,170

[HitObjects]
230,351,904,6,0,P|244:271|259:195,1,143.999996185303,0|0,3:2|2:0,2:0:0:0:
349,96,1313,1,2,2:0:0:0:
432,157,1449,1,0,1:2:0:0:
503,126,1585,1,0,2:0:0:0:
358,233,1722,1,0,2:0:0:0:
358,233,1858,1,0,2:0:0:0:
216,129,1994,6,0,P|235:89|225:57,1,71.9999980926514,2|0,2:0|2:0,2:0:0:0:
138,180,2267,2,0,P|207:161|261:208,1,143.999996185303,2|0,3:2|1:2,2:0:0:0:
94,361,2676,6,0,P|87:326|80:291,1,71.9999980926514,0|0,2:0|2:0,2:0:0:0:
191,236,2949,1,2,2:0:0:0:
297,297,3085,2,0,P|290:332|283:367,1,71.9999980926514,2|0,3:2|2:0,2:0:0:0:
436,247,3358,2,0,P|429:211|422:176,1,71.9999980926514,0|0,2:0|2:0,2:0:0:0:
493,307,3631,5,2,1:2:0:0:
411,326,3767,1,0,2:0:0:0:
350,229,3904,1,2,2:0:0:0:
276,212,4040,1,0,2:0:0:0:
202,307,4176,6,0,P|166:314|131:320,1,71.9999980926514,2|2,2:0|2:0,2:0:0:0:
36,207,4449,1,2,3:2:0:0:
107,164,4585,2,0,P|114:128|120:93,1,71.9999980926514,2|0,2:0|1:2,2:0:0:0:
45,63,4858,5,0,3:2:0:0:
194,163,4994,1,0,2:0:0:0:
107,240,5131,1,0,2:0:0:0:
207,298,5267,6,0,P|213:333|219:368,1,71.9999980926514,2|0,3:2|2:0,2:0:0:0:
294,334,5540,2,0,P|280:263|268:193,1,143.999996185303,2|0,2:0|1:2,2:0:0:0:
397,273,5949,5,0,2:0:0:0:
442,194,6085,1,0,2:0:0:0:
318,105,6222,1,0,2:0:0:0:
462,115,6358,6,0,P|427:113|394:127,1,71.9999980926514,2|0,2:0|2:0,2:0:0:0:
254,19,6631,2,0,P|308:61|375:42,1,143.999996185303,2|0,3:2|1:2,2:0:0:0:
256,185,7040,6,0,P|220:178|185:172,1,71.9999980926514,0|0,2:0|2:0,2:0:0:0:
61,147,7313,1,0,2:0:0:0:
138,100,7449,5,2,3:2:0:0:
86,218,7585,1,0,2:0:0:0:
171,253,7722,2,0,P|177:288|183:323,1,71.9999980926514,2|0,2:0|2:0,2:0:0:0:
96,378,7994,5,2,1:2:0:0:
60,302,8131,1,0,2:0:0:0:
290,260,8267,1,2,2:0:0:0:
271,340,8404,1,2,2:0:0:0:
414,150,8540,5,2,2:0:0:0:
439,247,8676,1,0,2:0:0:0:
363,300,8813,1,2,3:2:0:0:
293,267,8949,1,0,2:0:0:0:
196,311,9085,6,0,P|202:346|208:381,1,71.9999980926514,2|0,1:2|3:2,2:0:0:0:
84,189,9358,2,0,P|90:154|96:119,1,71.9999980926514,2|0,2:0|2:0,2:0:0:0:
0,284,9631,2,0,P|70:270|141:258,1,143.999996185303,2|0,3:2|2:0,2:0:0:0:
260,111,10040,1,0,2:0:0:0:
330,151,10176,2,0,P|365:158|400:163,1,71.9999980926514,2|0,1:2|2:0,2:0:0:0:
477,240,10449,1,2,2:0:0:0:
379,269,10585,1,0,2:0:0:0:
442,316,10722,5,2,2:0:0:0:
308,228,10858,2,0,P|302:263|296:298,1,71.9999980926514,2|0,2:0|3:2,2:0:0:0:
208,332,11131,2,0,P|195:262|185:190,1,143.999996185303,2|0,2:0|2:0,2:0:0:0:
54,294,11540,2,0,P|60:259|66:224,1,71.9999980926514,0|0,2:0|2:0,2:0:0:0:
119,141,11813,5,2,3:2:0:0:
149,64,11949,1,0,2:0:0:0:
0,29,12085,1,0,2:0:0:0:
0,29,12222,1,0,2:0:0:0:
68,77,12358,5,2,1:2:0:0:
221,36,12494,1,0,2:0:0:0:
262,110,12631,1,2,2:0:0:0:
337,128,12767,1,0,2:0:0:0:
284,188,12904,5,2,2:0:0:0:
406,80,13040,2,0,P|412:115|418:150,1,71.9999980926514,2|0,2:0|3:2,2:0:0:0:
486,290,13313,2,0,P|498:219|510:148,1,143.999996185303,2|0,2:0|3:2,2:0:0:0:
394,293,13722,1,2,2:0:0:0:
326,246,13858,1,0,2:0:0:0:
213,325,13994,5,2,3:2:0:0:
131,257,14131,1,0,2:0:0:0:
241,200,14267,1,0,2:0:0:0:
205,315,14404,1,0,2:0:0:0:
286,370,14540,6,0,P|321:364|356:358,1,71.9999980926514,2|0,1:2|2:0,2:0:0:0:
122,245,14813,2,0,P|87:239|52:233,1,71.9999980926514,2|0,2:0|2:0,2:0:0:0:
208,337,15085,2,0,P|220:266|232:195,1,143.999996185303,2|0,2:0|3:2,2:0:0:0:
187,60,15494,1,0,2:0:0:0:
265,22,15631,5,2,1:2:0:0:
177,135,15767,1,0,2:0:0:0:
307,198,15904,1,2,2:0:0:0:
332,282,16040,1,0,2:0:0:0:
390,213,16176,5,2,3:2:0:0:
390,213,16313,1,0,2:0:0:0:
252,259,16449,1,0,2:0:0:0:
252,259,16585,1,0,2:0:0:0:
326,360,16722,6,0,P|332:325|338:290,1,71.9999980926514,2|0,1:2|2:0,2:0:0:0:
160,168,16994,2,0,P|166:203|172:238,1,71.9999980926514,2|0,2:0|2:0,2:0:0:0:
329,112,17267,6,0,P|323:147|317:182,2,53.9999985694884,0|0|0,3:2|3:2|3:2,2:0:0:0:
365,29,17676,1,0,3:2:0:0:
365,29,17813,1,0,1:2:0:0:
249,107,17949,1,2,3:2:0:0:
156,70,18085,1,2,3:2:0:0:
93,114,18222,1,2,3:2:0:0:
8,52,18358,5,6,2:0:0:0:
168,157,18631,1,0,2:0:0:0:
110,209,18904,6,0,P|105:236|98:266,1,53.9999985694884,2|0,1:2|2:0,2:0:0:0:
244,181,19176,2,0,P|249:154|253:127,1,53.9999985694884,0|0,2:0|2:0,2:0:0:0:
322,247,19449,2,0,P|348:252|375:256,1,53.9999985694884,2|0,2:0|2:0,2:0:0:0:
245,321,19722,1,2,3:2:0:0:
245,321,19858,2,0,P|218:324|191:330,1,53.9999985694884,0|0,2:0|1:2,2:0:0:0:
335,384,20131,2,0,P|331:357|325:330,2,53.9999985694884,0|0|0,2:0|2:0|2:0,2:0:0:0:
464,243,20540,6,0,P|458:269|455:296,1,53.9999985694884,0|0,3:2|2:0,2:0:0:0:
479,168,20813,2,0,P|483:141|488:114,1,53.9999985694884,2|0,2:0|2:0,2:0:0:0:
331,56,21085,2,0,P|334:82|340:109,2,53.9999985694884,2|0|2,1:2|2:0|2:0,2:0:0:0:
274,204,21494,1,0,2:0:0:0:
274,204,21631,2,0,P|327:193|380:186,2,107.999997138977,2|0|0,3:2|3:2|1:2,2:0:0:0:
172,275,22313,1,2,3:2:0:0:
49,200,22449,1,2,1:2:0:0:
89,121,22585,1,2,2:0:0:0:
28,77,22722,6,0,P|23:53|18:28,2,35.9999990463258,0|0|0,3:2|1:2|3:2,2:0:0:0:
170,169,23131,1,0,1:2:0:0:
100,261,23267,2,0,P|94:291|90:324,2,44.9999988079074,2|0|0,1:2|1:2|3:2,2:0:0:0:
256,196,23676,1,0,1:2:0:0:
316,257,23813,6,0,P|342:260|369:265,1,53.9999985694888,2|0,3:2|1:2,2:0:0:0:
173,161,24085,2,0,P|140:165|104:172,1,62.9999983310703,2|0,3:2|1:2,2:0:0:0:
315,335,24358,6,0,P|350:340|388:349,1,71.9999980926514,2|2,3:2|1:2,2:0:0:0:
156,83,24631,2,0,P|122:88|75:96,1,80.9999978542329,2|2,3:2|1:2,2:0:0:0:
209,311,24904,6,0,B|223:262|231:228|231:228|246:213|265:195|265:195|276:155|289:107,1,215.999994277954,2|0,3:2|2:0,2:0:0:0:
211,34,26676,6,0,P|215:52|219:70,2,35.9999990463256,2|2|2,2:0|2:0|2:0,2:0:0:0:
160,145,27085,5,6,3:2:0:0:
296,108,27222,1,0,2:0:0:0:
408,239,27358,1,2,3:2:0:0:
330,215,27494,1,0,3:2:0:0:
128,326,27631,5,2,1:2:0:0:
279,287,27767,1,2,2:0:0:0:
221,370,27904,1,2,2:0:0:0:
207,352,27972,1,0,2:0:0:0:
211,336,28040,2,0,P|206:312|201:289,2,44.9999988079071,0|0|2,3:2|2:0|2:0,2:0:0:0:
133,238,28313,5,0,3:2:0:0:
151,149,28449,1,2,2:0:0:0:
176,32,28585,1,2,3:2:0:0:
109,76,28722,5,0,1:2:0:0:
223,101,28858,1,0,2:0:0:0:
303,120,28994,2,0,P|298:143|293:166,2,44.9999988079071,2|0|0,2:3|2:0|2:0,2:0:0:0:
370,71,29267,6,0,P|414:62|458:53,1,89.9999976158143,2|0,3:2|2:0,2:0:0:0:
322,248,29540,2,0,P|277:238|233:230,1,89.9999976158143,2|0,2:0|3:2,2:0:0:0:
76,175,29813,5,2,1:2:0:0:
111,362,29949,1,2,2:0:0:0:
28,304,30085,1,0,2:0:0:0:
46,290,30154,1,0,2:0:0:0:
62,294,30222,2,0,P|85:289|108:284,2,44.9999988079071,0|0|2,3:2|2:0|2:0,2:0:0:0:
215,335,30494,5,2,2:0:0:0:
314,253,30631,1,2,2:0:0:0:
389,287,30767,1,2,3:2:0:0:
409,152,30904,5,0,1:2:0:0:
253,197,31040,1,0,2:0:0:0:
119,110,31176,1,4,2:0:0:0:
197,133,31313,1,0,2:0:0:0:
0,248,31449,5,2,3:2:0:0:
98,283,31585,1,0,2:0:0:0:
167,211,31722,1,2,3:2:0:0:
244,270,31858,6,0,P|288:278|332:287,1,89.9999976158143,0|0,3:2|1:2,2:0:0:0:
486,126,32131,2,0,P|441:135|397:143,1,89.9999976158143,2|0,2:0|2:0,2:0:0:0:
280,80,32335,1,0,2:0:0:0:
274,92,32404,2,0,P|278:115|283:138,2,44.9999988079071,2|0|2,3:2|2:0|2:0,2:0:0:0:
421,320,32676,5,0,3:2:0:0:
506,220,32813,1,0,2:0:0:0:
333,262,32949,2,0,P|288:270|244:279,1,89.9999976158143,2|0,3:2|1:2,2:0:0:0:
402,115,33222,2,0,P|446:124|490:132,1,89.9999976158143,2|2,2:0|2:3,2:0:0:0:
504,144,33426,1,0,2:0:0:0:
504,144,33494,1,2,2:0:0:0:
415,310,33631,5,2,3:2:0:0:
391,207,33767,1,0,2:0:0:0:
236,286,33904,1,0,2:0:0:0:
256,205,34040,1,0,3:2:0:0:
131,363,34176,5,2,1:2:0:0:
99,231,34313,1,0,2:0:0:0:
0,333,34449,1,2,2:0:0:0:
27,331,34517,1,0,2:0:0:0:
34,319,34585,2,0,P|57:313|80:308,2,44.9999988079071,0|0|2,3:2|2:0|2:0,2:0:0:0:
182,217,34858,5,0,3:2:0:0:
77,104,34994,1,2,2:0:0:0:
205,28,35131,2,0,P|196:72|187:116,1,89.9999976158143,2|0,3:2|1:2,2:0:0:0:
377,182,35404,1,2,2:0:0:0:
292,336,35540,2,0,P|277:263|262:191,1,134.999996423721,14|0,2:0|2:0,2:0:0:0:
319,128,35813,6,0,P|366:103|414:114,1,89.9999976158143,6|0,3:2|2:0,2:0:0:0:
178,198,36085,2,0,P|133:200|96:177,1,89.9999976158143,2|0,3:2|3:2,2:0:0:0:
286,343,36358,2,0,P|277:298|268:254,1,89.9999976158143,2|0,1:2|2:0,2:0:0:0:
231,120,36631,1,0,2:0:0:0:
243,103,36699,1,0,2:0:0:0:
231,96,36767,2,0,P|225:72|220:49,2,44.9999988079071,0|0|2,3:2|2:0|2:0,2:0:0:0:
181,207,37040,5,2,3:2:0:0:
357,270,37176,1,2,2:0:0:0:
385,193,37313,1,2,3:2:0:0:
268,181,37449,5,0,1:2:0:0:
305,342,37585,1,0,2:0:0:0:
437,251,37722,2,0,P|462:260|479:265,2,44.9999988079071,2|0|0,2:3|2:0|2:0,2:0:0:0:
385,185,37994,5,2,3:2:0:0:
356,279,38131,1,0,2:0:0:0:
252,175,38267,1,2,2:0:0:0:
271,255,38404,1,2,3:2:0:0:
144,180,38540,5,2,1:2:0:0:
128,253,38676,1,0,2:0:0:0:
12,150,38813,1,0,2:0:0:0:
11,171,38881,1,0,2:0:0:0:
21,180,38949,2,0,P|26:203|31:226,2,44.9999988079071,2|0|2,3:2|2:0|2:0,2:0:0:0:
122,261,39222,5,0,3:2:0:0:
140,173,39358,1,2,2:0:0:0:
161,66,39494,1,2,3:2:0:0:
291,115,39631,5,0,1:2:0:0:
272,40,39767,1,0,2:0:0:0:
432,99,39904,1,4,2:0:0:0:
397,165,40040,1,0,2:0:0:0:
468,226,40176,5,2,3:2:0:0:
329,254,40313,1,2,2:0:0:0:
476,231,40449,1,0,3:2:0:0:
270,311,40585,6,0,B|255:290|244:273|244:273|248:251|254:223,1,89.9999976158143,2|0,3:2|1:2,2:0:0:0:
76,111,40858,2,0,B|90:131|102:149|102:149|97:170|93:192,1,89.9999976158143,2|0,2:0|2:0,2:0:0:0:
37,310,41063,1,0,2:0:0:0:
50,314,41131,2,0,P|73:308|96:303,2,44.9999988079071,2|0|2,3:2|2:0|2:0,2:0:0:0:
323,183,41404,5,0,3:2:0:0:
202,156,41540,1,2,2:0:0:0:
387,236,41676,2,0,B|400:214|410:196|410:196|403:175|398:153,1,89.9999976158143,2|0,3:2|1:2,2:0:0:0:
242,229,41949,2,0,B|229:251|219:269|219:269|225:290|231:311,1,89.9999976158143,2|2,2:0|2:3,2:0:0:0:
340,382,42222,1,2,2:0:0:0:
425,332,42358,5,0,3:2:0:0:
315,289,42494,1,0,2:0:0:0:
154,327,42631,1,2,2:0:0:0:
71,346,42767,1,2,3:2:0:0:
0,195,42904,5,2,1:2:0:0:
73,212,43040,1,2,2:0:0:0:
154,230,43176,1,2,2:0:0:0:
166,211,43244,1,0,2:0:0:0:
161,199,43313,2,0,P|166:176|171:153,2,44.9999988079071,2|0|2,3:2|2:0|2:0,2:0:0:0:
112,91,43585,5,0,3:2:0:0:
248,194,43722,1,2,2:0:0:0:
352,63,43858,2,0,P|307:71|264:82,1,89.9999976158143,2|0,3:2|1:2,2:0:0:0:
421,235,44131,1,2,2:0:0:0:
306,339,44267,2,0,P|314:294|325:251,1,89.9999976158143,14|0,2:0|2:0,2:0:0:0:
457,106,44540,5,2,2:0:0:0:
451,115,45085,5,2,2:0:0:0:
446,107,45631,5,2,2:0:0:0:
435,114,46176,6,0,B|361:122|361:122|357:127|357:127|281:137,1,157.499995827675,0|0,2:0|2:0,2:0:0:0:
216,190,46722,5,0,3:2:0:0:
21,146,46994,2,0,P|16:119|10:93,1,53.9999985694884,0|0,2:0|2:0,2:0:0:0:
97,181,47267,2,0,P|90:207|86:233,1,53.9999985694884,2|0,1:2|2:0,2:0:0:0:
23,311,47540,2,0,P|71:310|107:337,1,80.9999978542326,0|0,2:0|2:0,2:0:0:0:
117,344,47812,6,0,P|149:332|171:321,1,53.9999985694884,0|0,2:0|2:0,2:0:0:0:
209,250,48085,2,0,P|203:223|186:202,1,53.9999985694884,2|0,3:2|2:0,2:0:0:0:
322,281,48358,2,0,P|305:301|299:328,1,53.9999985694884,0|0,1:2|2:0,2:0:0:0:
402,197,48631,2,0,P|354:198|318:171,1,80.9999978542326,0|0,2:0|2:0,2:0:0:0:
320,172,48903,6,0,P|326:145|330:119,1,53.9999985694884,2|0,3:2|2:0,2:0:0:0:
163,71,49176,2,0,P|168:94|172:118,1,35.9999990463256,0|0,2:0|2:0,2:0:0:0:
262,25,49449,6,0,P|257:52|251:78,1,53.9999985694884,2|0,1:2|3:2,2:0:0:0:
97,171,49722,2,0,P|93:150|88:129,1,35.9999990463256,0|0,2:0|2:0,2:0:0:0:
188,209,49994,6,0,P|214:204|240:198,1,53.9999985694884,0|0,2:0|2:0,2:0:0:0:
52,279,50267,2,0,P|27:273|2:268,1,35.9999990463256,2|0,3:2|2:0,2:0:0:0:
141,323,50540,6,0,P|147:349|151:375,1,53.9999985694884,2|0,1:2|3:2,2:0:0:0:
105,175,50812,2,0,P|98:148|94:122,1,53.9999985694884,0|0,2:0|2:0,2:0:0:0:
135,247,51085,5,2,3:2:0:0:
350,276,51494,1,0,2:0:0:0:
401,212,51631,6,0,P|427:207|453:201,1,53.9999985694884,2|0,1:2|2:0,2:0:0:0:
283,325,51903,2,0,P|256:318|230:314,1,53.9999985694884,0|0,2:0|2:0,2:0:0:0:
439,368,52176,2,0,P|465:374|491:378,1,53.9999985694884,2|0,2:0|2:0,2:0:0:0:
358,356,52449,5,0,3:2:0:0:
133,236,52722,2,0,P|181:244|226:207,1,107.999997138977,0|0,1:2|2:0,2:0:0:0:
310,110,53131,1,0,2:0:0:0:
241,65,53267,6,0,P|234:36|227:0,1,62.9999983310699,2|0,3:2|2:0,2:0:0:0:
395,111,53540,2,0,P|388:137|384:163,1,53.9999985694884,0|0,2:0|2:0,2:0:0:0:
274,234,53812,6,0,P|249:228|224:223,1,44.9999988079069,2|0,1:2|2:0,2:0:0:0:
401,292,54085,2,0,P|427:287|453:281,1,53.9999985694884,0|0,2:0|2:0,2:0:0:0:
307,381,54358,2,0,P|313:344|322:308,2,53.9999985694884,2|0|0,2:0|2:0|3:2,2:0:0:0:
145,249,54767,1,0,2:0:0:0:
107,334,54903,1,2,1:2:0:0:
107,334,55040,2,0,P|177:320|247:304,1,134.999996423721,2|0,3:2|2:0,2:0:0:0:
351,231,55449,5,0,3:2:0:0:
346,237,55722,1,2,2:0:0:0:
290,162,55858,1,0,2:0:0:0:
355,122,55994,2,0,P|363:83|370:44,1,53.9999985694884,2|0,1:2|2:0,2:0:0:0:
211,173,56267,2,0,P|216:199|222:225,1,53.9999985694884,0|0,2:0|2:0,2:0:0:0:
39,148,56540,6,0,P|65:143|91:137,1,53.9999985694884,2|0,2:0|2:0,2:0:0:0:
228,93,56812,2,0,P|197:99|166:106,1,62.9999983310699,2|0,3:2|2:0,2:0:0:0:
157,270,57085,6,0,P|135:265|113:260,1,44.9999988079071,2|0,1:2|2:0,2:0:0:0:
228,300,57358,2,0,P|245:303|263:307,1,35.9999990463257,0|0,2:0|2:0,2:0:0:0:
395,307,57631,6,0,P|400:281|406:255,1,53.9999985694884,2|0,2:3|2:0,2:0:0:0:
338,196,57903,2,0,P|331:226|324:257,1,62.9999983310699,2|0,2:0|2:0,2:0:0:0:
497,164,58176,6,0,P|492:142|487:119,1,44.9999988079071,2|0,1:2|2:0,2:0:0:0:
416,141,58449,2,0,P|420:162|425:185,1,35.9999990463257,0|0,2:0|2:0,2:0:0:0:
478,304,58722,6,0,P|483:278|489:252,1,53.9999985694884,2|0,2:0|2:0,2:0:0:0:
330,194,58994,2,0,P|324:227|317:260,1,62.9999983310699,2|0,3:2|2:0,2:0:0:0:
387,381,59267,1,2,1:2:0:0:
387,381,59403,2,0,P|394:344|402:308,1,71.9999980926514,0|0,3:2|2:0,2:0:0:0:
235,216,59812,6,0,P|183:212|138:248,1,107.999997138977,0|0,3:2|2:0,2:0:0:0:
81,136,60222,1,0,2:0:0:0:
129,64,60358,1,0,1:2:0:0:
69,19,60494,2,0,P|42:13|16:8,1,53.9999985694884,2|0,2:0|2:0,2:0:0:0:
195,109,60767,2,0,P|221:104|315:89,1,107.999997138977,2|0,2:0|2:0,2:0:0:0:
454,19,61176,5,0,3:2:0:0:
416,95,61312,1,0,2:0:0:0:
489,130,61449,2,0,P|494:158|500:186,1,53.9999985694884,2|0,1:2|2:0,2:0:0:0:
356,155,61722,2,0,P|360:181|367:208,1,53.9999985694884,2|0,2:0|2:0,2:0:0:0:
466,329,61994,5,0,3:2:0:0:
472,321,62267,1,0,2:0:0:0:
335,291,62403,1,2,2:0:0:0:
267,240,62540,5,2,1:2:0:0:
267,240,62676,1,0,2:0:0:0:
212,318,62812,1,2,2:0:0:0:
137,288,62949,1,2,2:0:0:0:
71,328,63085,6,0,P|67:346|62:386,2,53.9999985694884,0|0|0,2:0|3:2|3:2,2:0:0:0:
94,204,63494,1,0,3:2:0:0:
94,204,63631,1,0,1:2:0:0:
186,144,63767,1,0,3:2:0:0:
128,82,63903,1,0,3:2:0:0:
182,8,64040,1,2,3:2:0:0:
259,36,64176,5,6,2:0:0:0:
2,99,64449,2,0,P|28:95|55:89,1,53.9999985694884,0|0,2:0|2:0,2:0:0:0:
136,70,64722,1,2,1:2:0:0:
242,225,64994,6,0,P|215:220|188:216,1,53.9999985694884,0|0,2:0|2:0,2:0:0:0:
312,166,65267,2,0,P|339:160|366:157,1,53.9999985694884,2|0,2:0|2:0,2:0:0:0:
466,256,65540,1,2,3:2:0:0:
466,256,65676,2,0,P|447:236|432:215,1,53.9999985694884,0|0,2:0|1:2,2:0:0:0:
466,82,65949,2,0,P|456:107|448:133,2,53.9999985694884,0|0|0,2:0|2:0|2:0,2:0:0:0:
282,37,66358,6,0,P|288:63|292:89,1,53.9999985694884,0|0,3:2|2:0,2:0:0:0:
310,174,66631,2,0,P|314:200|320:226,1,53.9999985694884,2|0,2:0|2:0,2:0:0:0:
169,285,66903,2,0,P|175:259|180:233,2,53.9999985694884,2|0|2,1:2|2:0|2:0,2:0:0:0:
323,343,67312,1,0,2:0:0:0:
323,343,67449,2,0,P|272:329|228:358,2,107.999997138977,2|0|0,3:2|3:2|1:2,2:0:0:0:
395,241,68131,1,2,3:2:0:0:
320,172,68267,1,2,1:2:0:0:
369,104,68403,1,2,2:0:0:0:
309,51,68540,6,0,P|314:26|319:2,2,35.9999990463258,0|0|0,3:2|1:2|3:2,2:0:0:0:
187,165,68949,1,0,1:2:0:0:
158,90,69085,2,0,P|152:60|148:27,2,44.9999988079074,2|0|0,1:2|1:2|3:2,2:0:0:0:
293,246,69494,1,0,1:2:0:0:
335,177,69631,6,0,P|361:172|388:168,1,53.9999985694888,2|0,3:2|1:2,2:0:0:0:
220,307,69903,2,0,P|187:303|151:296,1,62.9999983310703,2|0,3:2|1:2,2:0:0:0:
366,291,70176,6,0,P|402:296|440:304,1,71.9999980926514,2|2,3:2|1:2,2:0:0:0:
194,159,70449,2,0,P|154:165|114:171,1,80.9999978542329,2|2,3:2|1:2,2:0:0:0:
285,254,70722,6,0,P|329:162|267:81,1,215.999994277954,2|0,3:2|2:0,2:0:0:0:
260,68,72494,6,0,P|264:50|268:32,2,35.9999990463257,2|2|2,2:0|2:0|2:0,2:0:0:0:
328,126,72903,5,6,3:2:0:0:
440,51,73040,1,0,2:0:0:0:
410,219,73176,1,2,3:2:0:0:
315,123,73312,1,0,3:2:0:0:
243,182,73449,5,2,1:2:0:0:
167,145,73585,1,2,2:0:0:0:
111,206,73722,1,2,2:0:0:0:
93,220,73790,1,0,2:0:0:0:
77,216,73858,2,0,P|53:221|30:226,2,44.9999988079071,0|0|2,3:2|2:0|2:0,2:0:0:0:
187,244,74131,5,0,3:2:0:0:
68,121,74267,1,2,2:0:0:0:
156,0,74403,1,2,3:2:0:0:
73,33,74540,5,0,1:2:0:0:
175,132,74676,1,0,2:0:0:0:
66,212,74812,2,0,P|43:217|20:222,2,44.9999988079071,2|0|0,2:3|2:0|2:0,2:0:0:0:
193,330,75085,6,0,P|184:286|175:242,1,89.9999976158143,2|0,3:2|2:0,2:0:0:0:
316,137,75358,2,0,P|307:181|298:225,1,89.9999976158143,2|0,2:0|3:2,2:0:0:0:
353,281,75631,5,2,1:2:0:0:
231,169,75767,1,2,2:0:0:0:
373,66,75903,1,0,2:0:0:0:
370,86,75972,1,0,2:0:0:0:
381,94,76040,2,0,P|389:114|390:136,2,44.9999988079071,0|0|2,3:2|2:0|2:0,2:0:0:0:
292,229,76312,5,2,2:0:0:0:
309,146,76449,1,2,2:0:0:0:
169,119,76585,1,2,3:2:0:0:
90,136,76722,5,0,1:2:0:0:
247,93,76858,1,0,2:0:0:0:
223,0,76994,1,4,2:0:0:0:
139,20,77131,1,0,2:0:0:0:
312,47,77267,5,2,3:2:0:0:
234,177,77403,1,0,2:0:0:0:
291,237,77540,1,2,3:2:0:0:
222,274,77676,6,0,P|214:317|205:362,1,89.9999976158143,0|0,3:2|1:2,2:0:0:0:
444,168,77949,2,0,P|399:177|355:185,1,89.9999976158143,2|0,2:0|2:0,2:0:0:0:
243,46,78153,1,0,2:0:0:0:
237,58,78222,2,0,P|241:81|246:104,2,44.9999988079071,2|0|2,3:2|2:0|2:0,2:0:0:0:
300,242,78494,5,0,3:2:0:0:
358,106,78631,1,0,2:0:0:0:
136,167,78767,2,0,P|180:176|225:184,1,89.9999976158143,2|0,3:2|1:2,2:0:0:0:
400,355,79040,2,0,P|391:310|382:266,1,89.9999976158143,2|2,2:0|2:3,2:0:0:0:
377,264,79244,1,0,2:0:0:0:
377,264,79312,1,2,2:0:0:0:
285,305,79449,5,2,3:2:0:0:
213,267,79585,1,0,2:0:0:0:
151,321,79722,1,0,2:0:0:0:
86,282,79858,1,0,3:2:0:0:
83,359,79994,5,2,1:2:0:0:
146,230,80131,1,0,2:0:0:0:
14,156,80267,1,2,2:0:0:0:
24,173,80335,1,0,2:0:0:0:
18,184,80403,2,0,P|18:205|26:226,2,44.9999988079071,0|0|2,3:2|2:0|2:0,2:0:0:0:
168,135,80676,5,0,3:2:0:0:
79,89,80812,1,2,2:0:0:0:
262,21,80949,2,0,P|262:64|242:106,1,89.9999976158143,2|0,3:2|1:2,2:0:0:0:
154,236,81222,1,2,2:0:0:0:
322,301,81358,2,0,P|273:251|281:186,1,134.999996423721,14|0,2:0|2:0,2:0:0:0:
333,119,81631,6,0,P|378:110|422:101,1,89.9999976158143,6|0,3:2|2:0,2:0:0:0:
189,190,81903,2,0,P|144:180|100:172,1,89.9999976158143,2|0,3:2|3:2,2:0:0:0:
330,304,82176,2,0,P|375:295|419:286,1,89.9999976158143,2|0,1:2|2:0,2:0:0:0:
203,384,82449,1,0,2:0:0:0:
196,365,82517,1,0,2:0:0:0:
207,355,82585,2,0,P|213:331|218:308,2,44.9999988079071,0|0|2,3:2|2:0|2:0,2:0:0:0:
286,185,82858,5,2,3:2:0:0:
231,105,82994,1,2,2:0:0:0:
278,36,83131,1,2,3:2:0:0:
222,106,83267,5,0,1:2:0:0:
142,64,83403,1,0,2:0:0:0:
80,121,83540,2,0,P|57:125|34:130,2,44.9999988079071,2|0|0,2:3|2:0|2:0,2:0:0:0:
112,232,83812,5,2,3:2:0:0:
6,208,83949,1,0,2:0:0:0:
69,328,84085,1,2,2:0:0:0:
140,308,84222,1,2,3:2:0:0:
207,225,84358,5,2,1:2:0:0:
283,247,84494,1,0,2:0:0:0:
359,267,84631,1,0,2:0:0:0:
380,266,84699,1,0,2:0:0:0:
389,276,84767,2,0,P|412:281|435:286,2,44.9999988079071,2|0|2,3:2|2:0|2:0,2:0:0:0:
306,321,85040,5,0,3:2:0:0:
407,195,85176,1,2,2:0:0:0:
345,132,85312,1,2,3:2:0:0:
388,65,85449,5,0,1:2:0:0:
277,91,85585,1,0,2:0:0:0:
203,36,85722,1,4,2:0:0:0:
131,25,85858,1,0,2:0:0:0:
29,179,85994,5,2,3:2:0:0:
105,162,86131,1,2,2:0:0:0:
179,143,86267,1,0,3:2:0:0:
88,87,86403,6,0,P|43:95|0:104,1,89.9999976158143,2|0,3:2|1:2,2:0:0:0:
232,209,86676,2,0,P|276:200|320:191,1,89.9999976158143,2|0,2:0|2:0,2:0:0:0:
138,339,86881,1,0,2:0:0:0:
132,326,86949,2,0,P|138:303|143:280,2,44.9999988079071,2|0|2,3:2|2:0|2:0,2:0:0:0:
179,143,87222,5,0,3:2:0:0:
105,162,87358,1,2,2:0:0:0:
29,179,87494,2,0,P|37:223|46:267,1,89.9999976158143,2|0,3:2|1:2,2:0:0:0:
258,301,87767,2,0,P|249:256|240:212,1,89.9999976158143,2|2,2:0|2:3,2:0:0:0:
382,126,88040,1,2,2:0:0:0:
310,68,88176,5,0,3:2:0:0:
226,133,88312,1,0,2:0:0:0:
176,10,88449,1,2,2:0:0:0:
300,62,88585,1,2,3:2:0:0:
377,132,88722,5,2,1:2:0:0:
459,113,88858,1,2,2:0:0:0:
423,0,88994,1,2,2:0:0:0:
424,13,89062,1,0,2:0:0:0:
417,20,89131,2,0,P|411:41|406:63,1,44.9999988079071,2|0,3:2|2:0,2:0:0:0:
304,143,89267,5,2,1:2:0:0:
307,159,89335,1,0,1:2:0:0:
310,174,89403,1,0,1:2:0:0:
314,191,89472,1,0,2:0:0:0:
317,206,89540,1,2,1:2:0:0:
397,252,89676,2,0,B|418:256|440:260|440:260|457:249|478:234,1,89.9999976158143,2|0,3:2|1:2,2:0:0:0:
319,347,89949,1,2,1:2:0:0:
241,299,90085,2,0,B|220:284|203:273|203:273|181:277|159:281,1,89.9999976158143,2|0,3:2|2:0,2:0:0:0:
329,351,90358,6,0,B|310:259|310:259|314:250|314:250|296:157,1,197.999994754791,4|0,3:2|3:2,2:0:0:0:
331,79,90767,1,0,3:2:0:0:
217,177,90903,5,2,1:2:0:0:
142,136,91040,1,0,2:0:0:0:
254,23,91176,1,0,2:0:0:0:
255,46,91244,1,0,2:0:0:0:
244,57,91312,2,0,P|239:81|234:104,2,44.9999988079071,2|0|2,3:2|2:0|2:0,2:0:0:0:
152,214,91585,5,0,3:2:0:0:
233,256,91722,1,0,2:0:0:0:
199,370,91858,1,0,3:2:0:0:
101,280,91994,5,2,1:2:0:0:
310,232,92131,2,0,P|354:222|399:212,1,89.9999976158143,0|0,2:0|2:0,2:0:0:0:
410,209,92335,1,0,2:0:0:0:
410,209,92403,1,0,1:2:0:0:
263,38,92540,5,2,3:2:0:0:
245,117,92676,1,0,2:0:0:0:
495,211,92812,1,2,2:0:0:0:
476,122,92949,1,0,3:2:0:0:
305,240,93085,5,0,1:2:0:0:
328,312,93222,1,2,2:0:0:0:
193,364,93358,1,2,2:0:0:0:
192,341,93426,1,0,2:0:0:0:
203,330,93494,2,0,P|208:306|213:283,2,44.9999988079071,0|0|2,3:2|2:0|2:0,2:0:0:0:
145,196,93767,5,0,3:2:0:0:
297,147,93903,1,0,2:0:0:0:
212,113,94040,1,0,3:2:0:0:
281,69,94176,5,0,1:2:0:0:
229,195,94312,1,2,2:0:0:0:
127,112,94449,1,2,2:3:0:0:
48,136,94585,1,0,2:0:0:0:
137,289,94722,6,0,P|145:244|154:201,1,89.9999976158143,2|0,3:2|2:0,2:0:0:0:
243,381,94994,2,0,P|249:337|259:293,1,89.9999976158143,2|0,3:2|3:2,2:0:0:0:
386,199,95267,2,0,P|377:243|368:287,1,89.9999976158143,2|0,1:2|2:0,2:0:0:0:
238,119,95540,1,2,2:0:0:0:
227,130,95608,1,0,2:0:0:0:
232,139,95676,2,0,P|224:175|218:211,2,44.9999988079071,0|0|2,3:2|2:0|2:0,2:0:0:0:
339,48,95949,5,2,3:2:0:0:
319,135,96085,1,0,2:0:0:0:
401,108,96222,2,0,P|445:116|489:125,1,89.9999976158143,2|0,3:2|1:2,2:0:0:0:
297,225,96494,1,2,2:0:0:0:
212,178,96631,2,0,P|176:170|140:164,2,44.9999988079071,2|0|0,2:0|2:0|2:0,2:0:0:0:
367,373,96903,5,2,3:2:0:0:
478,285,97040,2,0,P|469:241|460:197,1,89.9999976158143,2|0,2:0|2:0,2:0:0:0:
215,348,97312,2,0,P|224:304|233:260,1,89.9999976158143,2|0,2:0|1:2,2:0:0:0:
272,79,97585,1,0,2:0:0:0:
374,100,97722,1,2,2:0:0:0:
385,111,97790,1,0,2:0:0:0:
380,120,97858,2,0,P|388:156|394:192,2,44.9999988079071,0|0|2,3:2|2:0|2:0,2:0:0:0:
359,276,98131,5,0,3:2:0:0:
226,253,98267,1,2,2:0:0:0:
93,232,98403,2,0,P|47:240|3:248,1,89.9999976158143,2|0,3:2|1:2,2:0:0:0:
197,68,98676,5,2,2:0:0:0:
225,146,98812,1,2,2:3:0:0:
143,131,98949,1,2,2:0:0:0:
218,248,99085,6,0,B|298:228|298:228|322:200|322:200|398:181,1,197.999994754791,4|0,3:2|3:2,2:0:0:0:
472,118,99494,1,0,3:2:0:0:
512,277,99631,5,2,1:2:0:0:
433,254,99767,1,0,2:0:0:0:
360,325,99903,1,0,2:0:0:0:
342,340,99972,1,0,2:0:0:0:
326,334,100040,2,0,P|302:339|279:344,2,44.9999988079071,2|0|2,3:2|2:0|2:0,2:0:0:0:
226,253,100312,5,0,3:2:0:0:
72,288,100449,1,0,2:0:0:0:
5,240,100585,1,0,3:2:0:0:
66,365,100722,5,2,1:2:0:0:
140,221,100858,2,0,P|150:265|160:310,1,89.9999976158143,0|0,2:0|2:0,2:0:0:0:
160,324,101062,1,0,2:0:0:0:
160,324,101131,1,2,2:0:0:0:
0,127,101267,5,0,3:2:0:0:
84,153,101403,1,0,2:0:0:0:
232,75,101540,1,2,2:0:0:0:
165,135,101676,1,0,3:2:0:0:
313,257,101812,2,0,P|303:213|293:168,1,89.9999976158143,2|0,1:2|2:0,2:0:0:0:
440,99,102085,1,2,2:0:0:0:
441,122,102153,1,0,2:0:0:0:
430,133,102222,2,0,P|425:157|421:180,2,44.9999988079071,0|0|2,3:2|2:0|2:0,2:0:0:0:
401,259,102494,5,0,3:2:0:0:
222,223,102631,1,0,2:0:0:0:
145,206,102767,1,0,3:2:0:0:
215,303,102903,5,0,1:2:0:0:
189,145,103040,1,2,2:0:0:0:
4,219,103176,1,2,2:3:0:0:
77,242,103312,1,0,2:0:0:0:
79,81,103449,6,0,P|69:125|59:170,1,89.9999976158143,2|0,3:2|2:0,2:0:0:0:
228,309,103722,2,0,P|218:265|208:220,1,89.9999976158143,2|0,3:2|3:2,2:0:0:0:
36,327,103994,2,0,P|79:336|123:346,1,89.9999976158143,2|0,1:2|2:0,2:0:0:0:
308,286,104267,1,2,2:0:0:0:
297,275,104335,1,0,2:0:0:0:
302,266,104403,2,0,P|294:230|288:194,2,44.9999988079071,2|0|2,3:2|2:0|2:0,2:0:0:0:
369,174,104676,5,0,3:2:0:0:
389,92,104812,1,0,2:0:0:0:
297,13,104949,2,0,P|306:57|314:101,1,89.9999976158143,2|0,3:2|1:2,2:0:0:0:
208,194,105222,1,2,2:0:0:0:
286,226,105358,2,0,P|294:262|300:298,2,44.9999988079071,0|0|2,2:0|2:0|2:0,2:0:0:0:
384,380,105631,6,0,P|393:336|404:285,1,89.9999976158143,2|0,3:2|2:0,2:0:0:0:
444,194,105903,1,2,2:0:0:0:
236,360,106040,2,0,P|227:316|216:265,1,89.9999976158143,2|0,3:2|1:2,2:0:0:0:
97,123,106312,1,2,2:0:0:0:
187,66,106449,1,2,2:0:0:0:
191,80,106517,1,0,2:0:0:0:
181,86,106585,2,0,P|173:122|167:158,2,44.9999988079071,0|0|2,3:2|2:0|2:0,2:0:0:0:
27,208,106858,5,2,3:2:0:0:
118,237,106994,1,2,2:0:0:0:
219,196,107131,1,0,3:2:0:0:
308,212,107267,1,2,1:2:0:0:
397,169,107403,1,0,2:0:0:0:
496,187,107540,5,2,2:3:0:0:
93,116,107812,1,2,2:0:0:0:
