osu file format v14

[General]
AudioFilename: audio.mp3
AudioLeadIn: 0
PreviewTime: 26676
Countdown: 0
SampleSet: Soft
StackLeniency: 0.6
Mode: 0
LetterboxInBreaks: 0
WidescreenStoryboard: 1

[Editor]
Bookmarks: 51631,64176,72903,90358
DistanceSpacing: 1.2
BeatDivisor: 4
GridSize: 32
TimelineZoom: 2.799999

[Metadata]
Title:Narazumono
TitleUnicode:不成者
Artist:DUSTCELL
ArtistUnicode:DUSTCELL
Creator:achyoo
Version:Asagi's Hard
Source:
Tags:kudou chitose mrrrk ayucchi azyeu mocaotic asagi rtyzen megumic _gt japanese pop jpop hip-hop hiphop j-pop hypnotize KAMITSUBAKI STUDIO 神椿スタジオ thinkr ema misumi gst:live2022 great singapore tournament live 2022 gstlive custom map tourney AEF asia esports festival online kallang wave mall EXP experience center gstlive2022a3
BeatmapID:4120002
BeatmapSetID:1893881

[Difficulty]
HPDrainRate:4.5
CircleSize:3.8
OverallDifficulty:6
ApproachRate:8
SliderMultiplier:2.8
SliderTickRate:1

[Events]
//Background and Video events
0,0,"us.jpg",0,0
//Break Periods
//Storyboard Layer 0 (Background)
//Storyboard Layer 1 (Fail)
//Storyboard Layer 2 (Pass)
//Storyboard Layer 3 (Foreground)
//Storyboard Layer 4 (Overlay)
//Storyboard Sound Samples

[TimingPoints]
-186,545.454545454546,4,2,1,40,1,0
495,-125,4,2,1,40,0,0
904,545.454545454546,4,2,1,50,1,0
904,-111.111111111111,4,2,1,50,0,0
17813,-95.2380952380952,4,2,1,50,0,0
18085,-83.3333333333333,4,2,1,50,0,0
18358,-125,4,2,1,45,0,0
22722,-125,4,2,1,65,0,0
23267,-111.111111111111,4,2,1,65,0,0
23813,-100,4,2,1,65,0,0
24358,-90.9090909090909,4,2,1,65,0,0
24904,-90.9090909090909,4,2,1,35,0,0
26813,-125,4,2,1,35,0,0
27085,-100,4,2,1,75,0,0
44540,-100,4,2,1,40,0,0
46722,545.454545454546,4,2,1,50,1,0
47267,-111.111111111111,4,2,1,50,0,0
63085,-125,4,2,1,50,0,0
63358,-105.263157894737,4,2,1,50,0,0
63631,-90.9090909090909,4,2,1,50,0,0
63903,-80,4,2,1,50,0,0
64176,-125,4,2,1,45,0,0
68540,-125,4,2,1,65,0,0
69085,-111.111111111111,4,2,1,65,0,0
69631,-100,4,2,1,65,0,0
70176,-90.9090909090909,4,2,1,65,0,0
70722,-90.9090909090909,4,2,1,35,0,0
72631,-125,4,2,1,35,0,0
72903,-100,4,2,1,75,0,0
89267,-100,4,2,1,85,0,0
90358,-100,4,2,1,70,0,0
107812,-100,4,2,1,40,0,0

[Colours]
Combo1 : 255,228,138
Combo2 : 140,172,255
Combo3 : 255,108,108
Combo4 : 170,170,170

[HitObjects]
59,84,495,6,0,P|110:98|146:55,1,112,0|0,2:0|2:0,2:0:0:0:
145,58,904,6,0,P|152:120|158:183,1,126,0|0,3:2|2:0,2:0:0:0:
131,261,1313,2,0,P|100:255|70:268,2,63.0000000000001,2|0|0,2:0|1:2|2:0,2:0:0:0:
173,331,1722,2,0,P|204:328|235:324,1,63.0000000000001,0|0,2:0|2:0,2:0:0:0:
299,273,1994,5,2,2:0:0:0:
444,361,2267,2,0,B|487:342|487:342|495:262,1,126,2|0,3:2|1:2,2:0:0:0:
496,264,2676,1,0,2:0:0:0:
360,171,2949,1,2,2:0:0:0:
335,89,3085,6,0,L|341:26,1,63.0000000000001,2|0,3:2|2:0,2:0:0:0:
258,21,3358,2,0,L|252:84,1,63.0000000000001,0|0,2:0|2:0,2:0:0:0:
287,163,3631,1,2,1:2:0:0:
287,163,3767,1,0,2:0:0:0:
214,204,3904,2,0,P|184:208|155:195,1,63.0000000000001,2|0,2:0|2:0,2:0:0:0:
79,226,4176,6,0,L|74:163,2,63.0000000000001,2|2|2,2:0|2:0|3:2,2:0:0:0:
19,282,4585,2,0,P|78:272|114:320,1,126,2|0,2:0|3:2,2:0:0:0:
193,355,4994,1,0,2:0:0:0:
193,355,5131,1,0,2:0:0:0:
258,306,5267,6,0,L|252:244,1,63.0000000000001,2|0,3:2|2:0,2:0:0:0:
330,207,5540,2,0,L|341:332,1,126,2|0,2:0|1:2,2:0:0:0:
422,359,5949,2,0,P|455:356|490:354,2,63.0000000000001,0|0|0,2:0|2:0|2:0,2:0:0:0:
415,277,6358,6,0,L|477:272,1,63.0000000000001,2|0,2:0|2:0,2:0:0:0:
511,196,6631,2,0,P|508:137|451:122,1,126,2|0,3:2|1:2,2:0:0:0:
372,147,7040,2,0,P|366:83|360:18,1,126,0|0,2:0|2:0,2:0:0:0:
283,61,7449,6,0,L|289:133,1,63.0000000000001,2|0,3:2|2:0,2:0:0:0:
241,191,7722,2,0,P|211:201|180:193,1,63.0000000000001,2|0,2:0|2:0,2:0:0:0:
124,142,7994,1,2,1:2:0:0:
124,142,8131,1,0,2:0:0:0:
54,185,8267,2,0,L|60:257,1,63.0000000000001,2|2,2:0|2:0,2:0:0:0:
128,295,8540,2,0,P|65:288|5:306,2,126,2|2|2,2:0|3:2|1:2,2:0:0:0:
276,366,9358,6,0,P|320:375|353:343,1,94.5000000000001,2|0,2:0|2:0,2:0:0:0:
350,324,9631,6,0,L|345:258,1,63.0000000000001,2|0,3:2|2:0,2:0:0:0:
427,253,9904,2,0,L|432:318,1,63.0000000000001,0|0,2:0|2:0,2:0:0:0:
508,344,10176,1,2,1:2:0:0:
494,180,10449,2,0,L|489:115,1,63.0000000000001,2|0,2:0|2:0,2:0:0:0:
418,86,10722,5,2,2:0:0:0:
418,86,10858,2,0,P|390:94|350:84,1,63.0000000000001,2|0,2:0|3:2,2:0:0:0:
294,34,11131,2,0,P|232:22|194:73,1,126,2|0,2:0|2:0,2:0:0:0:
175,145,11540,1,0,2:0:0:0:
11,169,11813,6,0,P|42:166|67:183,1,63.0000000000001,2|0,3:2|2:0,2:0:0:0:
104,256,12085,2,0,P|106:287|108:318,1,63.0000000000001,0|0,2:0|2:0,2:0:0:0:
179,368,12358,1,2,1:2:0:0:
179,368,12494,1,0,2:0:0:0:
238,311,12631,2,0,L|232:242,1,63.0000000000001,2|0,2:0|2:0,2:0:0:0:
294,193,12904,5,2,2:0:0:0:
294,193,13040,2,0,P|327:186|364:190,1,63.0000000000001,2|0,2:0|3:2,2:0:0:0:
407,125,13313,2,0,P|410:66|355:48,1,126,2|0,2:0|3:2,2:0:0:0:
275,72,13722,2,0,P|243:74|217:59,1,63.0000000000001,2|0,2:0|2:0,2:0:0:0:
137,78,13994,6,0,L|141:15,2,63.0000000000001,2|0|0,3:2|2:0|2:0,2:0:0:0:
180,148,14404,1,0,2:0:0:0:
109,189,14540,2,0,L|46:184,1,63.0000000000001,2|0,1:2|2:0,2:0:0:0:
38,265,14813,2,0,L|100:269,1,63.0000000000001,2|0,2:0|2:0,2:0:0:0:
165,319,15085,5,2,2:0:0:0:
307,237,15358,2,0,L|303:310,1,63.0000000000001,0|0,3:2|2:0,2:0:0:0:
362,356,15631,2,0,P|391:358|422:330,1,63.0000000000001,2|0,1:2|2:0,2:0:0:0:
452,269,15904,2,0,L|456:206,1,63.0000000000001,2|0,2:0|2:0,2:0:0:0:
434,120,16176,6,0,P|465:128|496:125,2,63.0000000000001,2|0|0,3:2|2:0|2:0,2:0:0:0:
383,55,16585,1,0,2:0:0:0:
309,92,16722,2,0,B|316:125|316:125|302:150,1,63.0000000000001,2|0,1:2|2:0,2:0:0:0:
220,143,16994,2,0,B|213:110|213:110|226:84,1,63.0000000000001,2|0,2:0|2:0,2:0:0:0:
275,17,17267,1,0,3:2:0:0:
130,90,17540,6,0,B|99:95|99:95|70:82,1,63.0000000000001,0|0,3:2|3:2,2:0:0:0:
122,175,17813,6,0,B|85:179|85:179|51:164,1,73.5,0|2,1:2|3:2,2:0:0:0:
116,259,18085,6,0,B|75:266|75:266|33:247,1,84,2|2,3:2|3:2,2:0:0:0:
192,311,18358,6,0,B|329:300|259:377|425:359,2,224,6|2|2,2:0|1:2|2:0,2:0:0:0:
34,208,19722,1,2,3:2:0:0:
104,352,19994,2,0,P|108:296|122:242,1,112,0|0,1:2|2:0,2:0:0:0:
161,101,20540,6,0,P|55:107|11:11,2,224,0|2|2,3:2|1:2|3:2,2:0:0:0:
314,135,21904,1,0,3:2:0:0:
251,14,22176,2,0,L|244:69,1,56,0|2,1:2|3:2,2:0:0:0:
62,268,22722,6,0,L|56:212,1,56,0|0,3:2|1:2,2:0:0:0:
137,259,22994,2,0,L|131:203,1,56,0|0,3:2|1:2,2:0:0:0:
210,106,23267,6,0,L|203:173,1,63.0000000000001,2|0,1:2|1:2,2:0:0:0:
286,116,23540,2,0,L|279:183,1,63.0000000000001,0|0,3:2|1:2,2:0:0:0:
357,290,23813,6,0,L|349:220,1,70,2|0,3:2|1:2,2:0:0:0:
434,282,24085,2,0,L|426:212,1,70,2|0,3:2|1:2,2:0:0:0:
452,132,24358,6,0,B|415:121|415:121|381:140,1,77,2|2,3:2|1:2,2:0:0:0:
312,87,24631,1,2,3:2:0:0:
312,87,24767,1,2,1:2:0:0:
262,158,24904,5,2,3:2:0:0:
46,55,26676,5,2,2:0:0:0:
46,54,26813,2,0,P|85:46|111:79,1,84,2|0,2:0|2:0,2:0:0:0:
112,98,27085,6,0,L|105:167,1,70,6|0,3:2|2:0,2:0:0:0:
64,241,27358,2,0,B|95:256|95:256|129:248,1,70,2|0,3:2|3:2,2:0:0:0:
187,186,27631,1,2,1:2:0:0:
265,215,27767,2,0,L|258:287,1,70,2|2,2:0|2:0,2:0:0:0:
323,350,28040,5,0,3:2:0:0:
323,350,28108,1,0,2:0:0:0:
323,350,28176,2,0,P|351:371|386:371,2,70,2|0|2,2:0|3:2|2:0,2:0:0:0:
377,286,28585,2,0,B|464:285|428:330|518:326,1,140,2|0,3:2|2:0,2:0:0:0:
503,241,28994,2,0,P|505:206|509:171,1,70,2|0,2:3|2:0,2:0:0:0:
480,92,29267,6,0,P|417:70|371:117,1,140,2|2,3:2|2:0,2:0:0:0:
304,169,29676,1,0,3:2:0:0:
226,136,29813,2,0,L|220:66,1,70,2|2,1:2|2:0,2:0:0:0:
136,72,30085,2,0,L|141:141,1,70,0|0,2:0|3:2,2:0:0:0:
133,158,30290,1,0,2:0:0:0:
126,173,30358,6,0,B|91:165|91:165|59:187,1,70,2|2,2:0|2:0,2:0:0:0:
19,261,30631,1,2,2:0:0:0:
59,334,30767,2,0,P|124:348|174:302,1,140,2|0,3:2|2:0,2:0:0:0:
208,224,31176,2,0,P|241:216|270:233,1,70,4|0,2:0|2:0,2:0:0:0:
347,269,31449,6,0,B|361:236|361:236|350:204,1,70,2|0,3:2|2:0,2:0:0:0:
292,142,31722,1,2,3:2:0:0:
348,77,31858,2,0,B|434:73|395:113|484:107,2,140,0|2|2,3:2|2:0|3:2,2:0:0:0:
270,43,32540,6,0,B|256:76|256:76|267:108,1,70,2|0,2:0|3:2,2:0:0:0:
323,175,32813,1,0,2:0:0:0:
241,192,32949,2,0,B|155:186|194:227|105:221,2,140,2|2|2,3:2|2:0|2:0,2:0:0:0:
285,263,33631,6,0,L|277:332,1,70,2|0,3:2|2:0,2:0:0:0:
360,343,33904,2,0,L|367:273,1,70,0|0,2:0|3:2,2:0:0:0:
408,200,34176,2,0,P|441:208|472:193,1,70,2|0,1:2|2:0,2:0:0:0:
511,120,34449,1,2,2:0:0:0:
470,45,34585,5,0,3:2:0:0:
470,45,34654,1,0,2:0:0:0:
470,45,34722,2,0,P|402:26|356:87,1,140,2|2,2:0|2:0,2:0:0:0:
278,110,35131,2,0,L|206:104,1,70,2|0,3:2|1:2,2:0:0:0:
140,54,35404,1,2,2:0:0:0:
217,20,35540,2,0,L|289:26,1,70,14|0,2:0|2:0,2:0:0:0:
130,67,35813,6,0,B|96:75|96:75|63:62,1,70,6|0,3:2|2:0,2:0:0:0:
123,155,36085,2,0,B|89:163|89:163|56:150,1,70,2|0,3:2|3:2,2:0:0:0:
188,223,36358,2,0,P|254:212|292:266,1,140,2|0,1:2|2:0,2:0:0:0:
383,270,36767,5,0,3:2:0:0:
383,270,36835,1,0,2:0:0:0:
383,270,36904,2,0,L|389:200,2,70,2|2|2,2:0|3:2|2:0,2:0:0:0:
462,314,37313,2,0,L|477:166,1,140,2|0,3:2|2:0,2:0:0:0:
496,89,37722,2,0,B|465:75|465:75|429:82,1,70,2|0,2:3|2:0,2:0:0:0:
348,101,37994,6,0,L|356:19,1,70,2|0,3:2|2:0,2:0:0:0:
270,22,38267,2,0,L|262:104,1,70,2|2,2:0|3:2,2:0:0:0:
298,175,38540,1,2,1:2:0:0:
298,175,38676,1,0,2:0:0:0:
218,203,38813,2,0,P|183:209|153:193,1,70,0|2,2:0|3:2,2:0:0:0:
71,165,39085,6,0,L|77:234,1,70,2|0,2:0|3:2,2:0:0:0:
31,305,39358,1,2,2:0:0:0:
98,354,39494,2,0,P|142:304|207:320,1,140,2|0,3:2|2:0,2:0:0:0:
279,364,39904,2,0,B|315:371|315:371|343:353,1,70,4|0,2:0|2:0,2:0:0:0:
355,270,40176,6,0,L|358:200,1,70,2|2,3:2|2:0,2:0:0:0:
313,128,40449,1,0,3:2:0:0:
376,73,40585,2,0,B|436:77|436:77|452:96|452:96|506:99,2,140,2|2|2,3:2|2:0|3:2,2:0:0:0:
295,34,41267,6,0,L|291:103,1,70,2|0,2:0|3:2,2:0:0:0:
339,172,41540,1,2,2:0:0:0:
269,219,41676,2,0,B|209:215|209:215|193:196|193:196|138:192,2,140,2|2|2,3:2|2:0|2:0,2:0:0:0:
350,193,42358,6,0,B|360:227|360:227|347:258,1,70,0|0,3:2|2:0,2:0:0:0:
276,310,42631,2,0,L|270:379,1,70,2|2,2:0|3:2,2:0:0:0:
185,375,42904,2,0,L|190:305,1,70,2|2,1:2|2:0,2:0:0:0:
165,225,43176,1,2,2:0:0:0:
89,264,43313,5,2,3:2:0:0:
89,264,43381,1,0,2:0:0:0:
89,264,43449,2,0,P|54:267|26:247,1,70,2|0,2:0|3:2,2:0:0:0:
9,165,43722,1,2,2:0:0:0:
67,104,43858,2,0,L|206:116,1,140,2|2,3:2|2:0,2:0:0:0:
280,156,44267,2,0,B|295:124|295:124|284:90,1,70,14|0,2:0|2:0,2:0:0:0:
224,31,44540,5,2,2:0:0:0:
224,31,45085,1,2,2:0:0:0:
224,31,45631,1,2,2:0:0:0:
381,157,46176,6,0,B|273:167|273:167|237:217|237:217|127:228,1,280.513333333333,0|0,2:0|3:2,2:0:0:0:
127,226,46994,5,0,2:0:0:0:
231,353,47267,2,0,B|265:327|265:327|259:244,1,126,2|0,1:2|2:0,2:0:0:0:
178,101,47812,1,0,2:0:0:0:
16,160,48085,2,0,P|53:206|113:196,1,126,2|0,3:2|1:2,2:0:0:0:
256,110,48631,2,0,L|251:47,1,63.0000000000001,0|0,2:0|2:0,2:0:0:0:
169,20,48903,6,0,L|179:145,1,126,2|0,3:2|2:0,2:0:0:0:
337,192,49449,2,0,L|322:317,1,126,2|0,1:2|2:0,2:0:0:0:
171,375,49994,1,0,2:0:0:0:
171,375,50267,1,2,3:2:0:0:
46,268,50540,6,0,P|87:189|175:206,1,189,2|0,1:2|2:0,2:0:0:0:
233,260,51085,2,0,B|294:277|294:277|343:238,1,126,2|0,3:2|2:0,2:0:0:0:
452,115,51631,6,0,P|410:36|323:53,1,189,2|0,1:2|2:0,2:0:0:0:
265,107,52176,2,0,B|204:124|204:124|154:85,1,126,2|0,2:0|3:2,2:0:0:0:
6,185,52722,6,0,B|92:149|92:149|168:206,1,189,0|0,1:2|2:0,2:0:0:0:
224,264,53267,2,0,P|284:274|333:226,2,126,2|0|2,3:2|2:0|1:2,2:0:0:0:
121,137,54085,1,0,2:0:0:0:
277,62,54358,6,0,L|264:187,1,126,2|0,2:0|3:2,2:0:0:0:
343,356,54903,2,0,B|315:308|315:308|172:293|172:293|135:331,1,252,2|0,1:2|3:2,2:0:0:0:
135,331,55722,6,0,L|197:338,1,63.0000000000001,2|0,2:0|2:0,2:0:0:0:
243,262,55994,2,0,L|117:248,1,126,2|0,1:2|2:0,2:0:0:0:
2,123,56540,6,0,B|35:115|35:115|60:127,1,63.0000000000001,2|0,2:0|2:0,2:0:0:0:
135,161,56812,2,0,B|147:135|147:135|139:102,1,63.0000000000001,2|0,3:2|2:0,2:0:0:0:
195,41,57085,2,0,P|254:31|289:79,1,126,2|0,1:2|2:0,2:0:0:0:
440,143,57631,6,0,B|469:108|469:108|459:27,2,126,2|2|2,2:3|2:0|1:2,2:0:0:0:
316,243,58449,1,0,2:0:0:0:
432,357,58722,6,0,L|501:351,1,63.0000000000001,2|0,2:0|2:0,2:0:0:0:
489,270,58994,2,0,L|424:274,1,63.0000000000001,2|0,3:2|2:0,2:0:0:0:
357,319,59267,2,0,B|306:321|306:321|289:339|289:339|233:343,1,126,2|0,1:2|2:0,2:0:0:0:
78,377,59812,6,0,B|49:320|49:320|72:262,1,126,0|0,3:2|2:0,2:0:0:0:
152,285,60222,1,0,2:0:0:0:
229,260,60358,2,0,B|258:203|258:203|234:145,1,126,0|0,1:2|2:0,2:0:0:0:
192,69,60767,6,0,P|235:111|294:99,1,126,2|0,2:0|2:0,2:0:0:0:
343,35,61176,1,0,3:2:0:0:
496,128,61449,2,0,L|503:65,1,63.0000000000001,2|0,1:2|2:0,2:0:0:0:
422,53,61722,2,0,L|414:115,1,63.0000000000001,2|0,2:0|2:0,2:0:0:0:
456,201,61994,6,0,B|407:161|407:161|346:177,1,126,0|0,3:2|2:0,2:0:0:0:
265,320,62540,2,0,B|271:382,2,63.0000000000001,2|0|2,1:2|2:0|2:0,2:0:0:0:
187,292,62949,1,2,2:0:0:0:
112,338,63085,6,0,B|85:349|85:349|56:343,1,56,0|0,2:0|3:2,2:0:0:0:
110,252,63358,6,0,B|78:264|78:264|45:257,1,66.4999999999999,0|0,3:2|3:2,2:0:0:0:
108,167,63631,6,0,B|72:181|72:181|17:167,1,77,0|0,1:2|3:2,2:0:0:0:
110,79,63903,6,0,B|66:95|66:95|26:84,1,87.5,0|2,3:2|3:2,2:0:0:0:
190,36,64176,6,0,P|294:22|347:113,2,224,6|2|2,2:0|1:2|2:0,2:0:0:0:
187,207,65540,1,2,3:2:0:0:
42,132,65812,2,0,P|97:126|153:120,1,112,0|0,1:2|2:0,2:0:0:0:
233,296,66358,6,0,P|121:307|10:320,2,224,0|2|2,3:2|1:2|3:2,2:0:0:0:
392,204,67722,1,0,3:2:0:0:
327,316,67994,2,0,L|321:260,1,56,0|2,1:2|3:2,2:0:0:0:
358,26,68540,6,0,L|302:20,1,56,0|0,3:2|1:2,2:0:0:0:
347,101,68812,2,0,L|291:95,1,56,0|0,3:2|1:2,2:0:0:0:
155,143,69085,6,0,L|218:136,1,63.0000000000001,2|0,1:2|1:2,2:0:0:0:
164,220,69358,2,0,L|227:213,1,63.0000000000001,0|0,3:2|1:2,2:0:0:0:
358,284,69631,6,0,L|287:276,1,70,2|0,3:2|1:2,2:0:0:0:
347,361,69903,2,0,L|276:353,1,70,2|0,3:2|1:2,2:0:0:0:
199,377,70176,6,0,B|189:340|189:340|205:305,1,77,2|2,3:2|1:2,2:0:0:0:
158,230,70449,1,2,3:2:0:0:
158,230,70585,1,2,1:2:0:0:
90,286,70722,5,2,3:2:0:0:
489,77,72494,5,2,2:0:0:0:
489,77,72631,2,0,P|450:67|422:96,1,84,2|0,2:0|2:0,2:0:0:0:
423,121,72903,6,0,L|427:190,1,70,6|0,3:2|2:0,2:0:0:0:
343,198,73176,2,0,L|338:128,1,70,2|0,3:2|3:2,2:0:0:0:
285,69,73449,1,2,1:2:0:0:
244,143,73585,2,0,B|212:155|212:155|177:145,1,70,2|2,2:0|2:0,2:0:0:0:
97,121,73858,5,0,3:2:0:0:
97,121,73926,1,0,2:0:0:0:
97,121,73994,2,0,L|102:191,2,70,2|0|2,2:0|3:2|2:0,2:0:0:0:
14,94,74403,2,0,L|21:233,1,140,2|0,3:2|2:0,2:0:0:0:
3,316,74812,2,0,P|37:320|68:305,1,70,2|0,2:3|2:0,2:0:0:0:
140,261,75085,6,0,P|205:247|244:300,1,140,2|2,3:2|2:0,2:0:0:0:
290,371,75494,1,0,3:2:0:0:
372,351,75631,2,0,L|441:356,1,70,2|2,1:2|2:0,2:0:0:0:
451,272,75903,2,0,L|382:267,1,70,0|0,2:0|3:2,2:0:0:0:
367,255,76108,1,0,2:0:0:0:
353,244,76176,6,0,B|342:210|342:210|355:178,1,70,2|2,2:0|2:0,2:0:0:0:
391,102,76449,1,2,2:0:0:0:
321,54,76585,2,0,L|181:43,1,140,2|0,3:2|2:0,2:0:0:0:
106,4,76994,2,0,B|93:37|93:37|101:70,1,70,4|0,2:0|2:0,2:0:0:0:
163,126,77267,6,0,L|157:195,1,70,2|0,3:2|2:0,2:0:0:0:
190,273,77540,1,2,3:2:0:0:
126,328,77676,2,0,B|31:322|31:322|15:310|10:283,2,140,0|2|2,3:2|2:0|3:2,2:0:0:0:
220,384,78358,6,0,L|225:314,1,70,2|0,2:0|3:2,2:0:0:0:
184,240,78631,1,0,2:0:0:0:
244,182,78767,2,0,B|339:188|339:188|354:199|360:227,2,140,2|2|2,3:2|2:0|2:0,2:0:0:0:
167,216,79449,6,0,B|132:222|132:222|100:207,1,70,2|0,3:2|2:0,2:0:0:0:
56,135,79722,2,0,L|52:65,1,70,0|0,2:0|3:2,2:0:0:0:
135,59,79994,2,0,L|140:128,1,70,2|0,1:2|2:0,2:0:0:0:
229,92,80267,1,2,2:0:0:0:
287,30,80403,5,0,3:2:0:0:
287,30,80472,1,0,2:0:0:0:
287,30,80540,2,0,P|352:21|388:77,1,140,2|2,2:0|2:0,2:0:0:0:
439,144,80949,2,0,L|428:213,1,70,2|0,3:2|1:2,2:0:0:0:
353,168,81222,1,2,2:0:0:0:
304,236,81358,2,0,L|312:305,1,70,14|0,2:0|2:0,2:0:0:0:
169,369,81631,6,0,B|199:354|199:354|235:361,1,70,6|0,3:2|2:0,2:0:0:0:
159,284,81903,2,0,B|189:269|189:269|225:276,1,70,2|0,3:2|3:2,2:0:0:0:
84,335,82176,2,0,B|44:312|44:312|39:218,1,140,2|0,1:2|2:0,2:0:0:0:
66,123,82585,5,0,3:2:0:0:
66,123,82653,1,0,2:0:0:0:
66,123,82722,2,0,P|33:134|-1:126,2,70,2|2|2,2:0|3:2|2:0,2:0:0:0:
113,53,83131,2,0,P|178:35|220:96,1,140,2|0,3:2|2:0,2:0:0:0:
276,148,83540,2,0,B|311:158|311:158|341:144,1,70,2|0,2:3|2:0,2:0:0:0:
410,96,83812,6,0,L|402:26,1,70,2|0,3:2|2:0,2:0:0:0:
486,19,84085,2,0,L|493:88,1,70,2|2,2:0|3:2,2:0:0:0:
463,169,84358,1,2,1:2:0:0:
463,169,84494,1,0,2:0:0:0:
499,245,84631,2,0,B|468:258|468:258|433:248,1,70,0|2,2:0|3:2,2:0:0:0:
358,205,84903,6,0,P|323:201|293:234,1,70,2|0,2:0|3:2,2:0:0:0:
289,306,85176,1,2,2:0:0:0:
210,335,85312,2,0,B|172:310|172:310|167:215,1,140,2|0,3:2|2:0,2:0:0:0:
82,232,85722,2,0,B|85:301,1,70,4|0,2:0|2:0,2:0:0:0:
46,156,85994,6,0,B|78:142|78:142|111:151,1,70,2|2,3:2|2:0,2:0:0:0:
179,201,86267,1,0,3:2:0:0:
244,143,86403,2,0,B|256:67|209:75|226:-2,2,140,2|2|2,3:2|2:0|3:2,2:0:0:0:
285,216,87085,6,0,B|253:230|253:230|219:220,1,70,2|0,2:0|3:2,2:0:0:0:
146,181,87358,1,2,2:0:0:0:
84,237,87494,2,0,B|72:313|119:305|102:382,2,140,2|2|2,3:2|2:0|2:0,2:0:0:0:
168,257,88176,6,0,P|202:255|228:233,1,70,0|0,3:2|2:0,2:0:0:0:
306,263,88449,2,0,L|301:332,1,70,2|2,2:0|3:2,2:0:0:0:
385,339,88722,2,0,L|389:269,1,70,2|2,1:2|2:0,2:0:0:0:
353,192,88994,1,2,2:0:0:0:
353,192,89131,1,2,3:2:0:0:
423,147,89267,6,0,L|466:150,3,35,2|0|0|0,1:2|1:2|1:2|2:0,2:0:0:0:
491,134,89540,1,2,1:2:0:0:
470,52,89676,2,0,B|438:40|438:40|404:49,1,70,2|0,3:2|1:2,2:0:0:0:
344,109,89949,1,2,1:2:0:0:
344,109,90085,2,0,L|266:100,1,70,2|0,3:2|2:0,2:0:0:0:
226,31,90358,1,4,3:2:0:0:
71,96,90631,6,0,B|57:130|57:130|65:162,1,70,0|0,3:2|3:2,2:0:0:0:
0,217,90903,2,0,P|64:200|104:252,1,140,2|0,1:2|2:0,2:0:0:0:
108,336,91312,1,2,3:2:0:0:
188,310,91449,6,0,L|202:164,1,140,2|0,2:0|2:0,2:0:0:0:
289,181,91858,1,0,3:2:0:0:
289,181,91994,2,0,L|275:320,1,140,2|0,1:2|2:0,2:0:0:0:
338,376,92403,1,0,1:2:0:0:
419,353,92540,6,0,B|434:320|434:320|427:286,1,70,2|0,3:2|2:0,2:0:0:0:
398,192,92812,2,0,B|429:208|429:208|463:199,1,70,2|0,2:0|3:2,2:0:0:0:
512,132,93085,1,0,1:2:0:0:
512,132,93222,1,2,2:0:0:0:
483,53,93358,2,0,B|452:37|452:37|417:45,1,70,2|0,2:0|3:2,2:0:0:0:
362,108,93631,6,0,B|309:104|309:104|283:118|283:118|225:113,1,140,2|0,2:0|2:0,2:0:0:0:
171,48,94040,1,0,3:2:0:0:
93,79,94176,2,0,L|87:150,1,70,0|2,1:2|2:0,2:0:0:0:
48,224,94449,2,0,B|79:238|79:238|114:228,1,70,2|0,2:3|2:0,2:0:0:0:
194,204,94722,6,0,P|246:202|276:247,1,105,2|0,3:2|2:0,2:0:0:0:
279,269,94994,2,0,L|273:340,1,70,2|0,3:2|3:2,2:0:0:0:
356,350,95267,2,0,L|361:280,1,70,2|0,1:2|2:0,2:0:0:0:
428,228,95540,2,0,P|459:241|499:233,1,70,2|0,2:0|3:2,2:0:0:0:
467,155,95812,5,2,2:0:0:0:
467,155,95949,2,0,L|472:85,1,70,2|0,3:2|2:0,2:0:0:0:
404,34,96222,2,0,B|326:21|357:71|265:55,1,140,2|2,3:2|2:0,2:0:0:0:
189,13,96631,2,0,L|183:87,1,70,2|0,2:0|2:0,2:0:0:0:
133,151,96903,5,2,3:2:0:0:
133,150,97040,2,0,P|97:155|64:145,1,70,2|0,2:0|2:0,2:0:0:0:
14,249,97312,2,0,P|78:236|117:290,1,140,2|0,2:0|2:0,2:0:0:0:
171,353,97722,2,0,P|204:359|234:338,1,70,2|0,2:0|3:2,2:0:0:0:
259,260,97994,6,0,L|254:190,1,70,2|0,2:0|3:2,2:0:0:0:
313,130,98267,1,2,2:0:0:0:
367,193,98403,2,0,B|400:203|400:203|433:189,1,70,2|0,3:2|1:2,2:0:0:0:
479,120,98676,1,2,2:0:0:0:
426,54,98812,2,0,B|392:43|392:43|359:57,1,70,2|2,2:3|2:0,2:0:0:0:
313,130,99085,1,4,3:2:0:0:
128,278,99358,6,0,P|91:277|62:252,1,70,0|0,3:2|3:2,2:0:0:0:
122,194,99631,2,0,B|207:187|177:234|255:227,1,140,2|0,1:2|2:0,2:0:0:0:
331,258,100040,1,2,3:2:0:0:
376,328,100176,6,0,P|473:329|497:235,1,210,2|0,2:0|3:2,2:0:0:0:
436,174,100722,2,0,P|441:104|447:34,1,140,2|0,1:2|2:0,2:0:0:0:
366,8,101131,1,2,2:0:0:0:
297,55,101267,6,0,B|261:63|261:63|231:47,1,70,0|0,3:2|2:0,2:0:0:0:
154,16,101540,2,0,L|149:85,1,70,2|0,2:0|3:2,2:0:0:0:
107,158,101812,2,0,B|136:173|136:173|172:165,1,70,2|0,1:2|2:0,2:0:0:0:
254,145,102085,2,0,L|294:149,3,35,2|0|0|0,2:0|2:0|3:2|2:0,2:0:0:0:
325,140,102358,6,0,P|391:136|421:198,1,140,2|0,2:0|2:0,2:0:0:0:
418,279,102767,1,0,3:2:0:0:
333,300,102903,2,0,L|341:217,1,70,0|2,1:2|2:0,2:0:0:0:
256,217,103176,2,0,L|248:286,1,70,2|0,2:3|2:0,2:0:0:0:
183,348,103449,6,0,B|128:359|128:359|88:325,1,105,2|0,3:2|2:0,2:0:0:0:
75,298,103722,2,0,L|5:292,1,70,2|0,3:2|3:2,2:0:0:0:
15,208,103994,2,0,L|84:213,1,70,2|0,1:2|2:0,2:0:0:0:
160,161,104267,1,2,2:0:0:0:
160,161,104403,1,2,3:2:0:0:
99,102,104540,5,2,2:0:0:0:
157,42,104676,2,0,B|190:31|190:31|226:50,1,70,0|0,3:2|2:0,2:0:0:0:
301,87,104949,2,0,B|307:17,1,70,2|0,3:2|1:2,2:0:0:0:
391,26,105222,2,0,B|384:95,1,70,2|0,2:0|2:0,2:0:0:0:
437,159,105494,1,2,2:0:0:0:
381,222,105631,6,0,B|299:208|334:259|232:240,1,140,2|2,3:2|2:0,2:0:0:0:
185,184,106040,2,0,P|150:178|120:195,1,70,2|0,3:2|1:2,2:0:0:0:
80,268,106312,1,2,2:0:0:0:
141,326,106449,2,0,P|175:331|205:314,1,70,2|0,2:0|3:2,2:0:0:0:
251,246,106722,5,2,2:0:0:0:
251,246,106858,1,2,3:2:0:0:
346,273,106994,1,2,2:0:0:0:
346,273,107131,1,0,3:2:0:0:
400,198,107267,2,0,B|416:166|416:166|409:132,1,70,2|0,1:2|2:0,2:0:0:0:
326,122,107540,2,0,B|309:153|309:153|316:187,1,70,2|0,2:3|2:0,2:0:0:0:
377,51,107812,5,2,2:0:0:0:
