osu file format v14

[General]
AudioFilename: audio.mp3
AudioLeadIn: 0
PreviewTime: 91500
Countdown: 0
SampleSet: Soft
StackLeniency: 0.7
Mode: 0
LetterboxInBreaks: 0
WidescreenStoryboard: 1

[Editor]
Bookmarks: 29100,31500,33900,54300,56700,59100,63900,78300,83100,87900,92700,132300,141900,155100,164700,174300,183900,199500
DistanceSpacing: 1.2
BeatDivisor: 4
GridSize: 32
TimelineZoom: 0.9999988

[Metadata]
Title:Inochi no Yukue
TitleUnicode:命の行方
Artist:DUSTCELL
ArtistUnicode:DUSTCELL
Creator:SMOKELIND
Version:ELI'S HARD
Source:
Tags:EMA EM A Misumi Kamitsubaki Studio 神椿スタジオ rei sirose 白瀬玲 Kudou Chitose 久遠千歳 Kudo vtuber youtube virtual youtuber banishment Japanese JPop J-Pop Pop Hip Hop Moete -Aqua Elinor Eli [_Eli_] Fate of Life
BeatmapID:2974475
BeatmapSetID:1438629

[Difficulty]
HPDrainRate:4
CircleSize:3.6
OverallDifficulty:7
ApproachRate:8
SliderMultiplier:1.4
SliderTickRate:1

[Events]
//Background and Video events
0,0,"EzfyqSlVgAAFZNX.jpg",0,0
Video,-64,"vid.mp4"
//Break Periods
2,150500,154050
//Storyboard Layer 0 (Background)
//Storyboard Layer 1 (Fail)
//Storyboard Layer 2 (Pass)
//Storyboard Layer 3 (Foreground)
//Storyboard Layer 4 (Overlay)
//Storyboard Sound Samples

[TimingPoints]
300,300,4,2,77,27,1,0
5100,-125,4,2,77,27,0,0
24300,-111.111111111111,4,2,77,67,0,0
33900,-90.9090909090909,4,2,77,87,0,1
51900,-90.9090909090909,4,2,77,47,0,1
53700,-90.9090909090909,4,2,70,57,0,1
53900,-90.9090909090909,4,2,70,77,0,1
54000,-90.9090909090909,4,2,70,57,0,1
54300,-100,4,2,77,87,0,0
63900,-117.647058823529,4,2,77,57,0,0
83100,-111.111111111111,4,2,77,67,0,0
92700,-90.9090909090908,4,2,77,87,0,1
110700,-90.9090909090908,4,2,77,47,0,1
111900,-125,4,2,77,47,0,0
113100,-125,4,2,77,27,0,0
132300,-117.647058823529,4,2,77,47,0,0
150300,-117.647058823529,4,2,77,27,0,0
154800,-117.647058823529,4,2,77,47,0,0
155100,-90.9090909090909,4,2,77,87,0,1
173100,-90.9090909090909,4,2,77,47,0,0
174300,-90.9090909090909,4,2,77,77,0,1
192300,-125,4,2,77,47,0,0
193500,-125,4,2,77,27,0,0
199500,-125,4,2,77,27,0,0

[Colours]
Combo1 : 255,81,81
Combo2 : 176,90,218
Combo3 : 79,143,208
Combo4 : 255,154,53

[HitObjects]
40,28,5100,5,0,0:0:0:0:
76,180,5400,2,0,L|104:288,1,112,2|2,0:0|0:0,0:0:0:0:
244,360,6000,2,0,L|300:344,1,56,2|2,0:0|0:0,0:0:0:0:
356,292,6300,6,0,B|404:292|396:344|452:344,1,112,2|2,0:0|0:0,0:0:0:0:
492,280,6750,2,0,P|492:232|444:196,1,112,2|2,0:0|0:0,0:0:0:0:
296,144,7350,5,2,0:0:0:0:
296,144,7500,2,0,L|172:188,1,112,2|2,0:0|0:0,0:0:0:0:
84,68,8100,2,0,L|189:30,1,112,2|2,0:0|0:0,0:0:0:0:
348,20,8700,6,0,P|392:20|420:84,1,112,2|2,0:0|0:0,0:0:0:0:
420,152,9150,1,2,0:0:0:0:
280,340,9600,2,0,L|224:320,1,56,2|2,0:0|0:0,0:0:0:0:
156,356,9900,6,0,P|140:312|180:260,1,112,2|2,0:0|0:0,0:0:0:0:
252,248,10350,1,2,0:0:0:0:
352,128,10650,2,0,L|404:148,2,56,2|2|2,0:0|0:0|0:0,0:0:0:0:
292,80,11100,6,0,B|248:80|256:136|200:136,1,112,2|2,0:0|0:0,0:0:0:0:
76,40,11700,2,0,P|44:40|20:108,1,112,2|2,0:0|0:0,0:0:0:0:
76,252,12300,6,0,L|184:216,1,112,2|2,0:0|0:0,0:0:0:0:
284,336,12900,2,0,L|176:300,1,112,2|2,0:0|0:0,0:0:0:0:
180,140,13500,6,0,P|232:140|256:196,1,112,2|2,0:0|0:0,0:0:0:0:
304,252,13950,2,0,P|376:252|388:168,1,168,2|0,0:0|0:0,0:0:0:0:
393,175,15000,5,2,0:0:0:0:
393,175,15150,2,0,L|272:140,1,112,2|2,0:0|0:0,0:0:0:0:
212,112,15600,2,0,L|160:136,1,56,2|2,0:0|0:0,0:0:0:0:
104,192,15900,6,0,L|136:304,1,112,2|2,0:0|0:0,0:0:0:0:
200,344,16350,1,2,0:0:0:0:
356,344,16650,2,0,P|384:344|400:324,2,56,2|2|2,0:0|0:0|0:0,0:0:0:0:
296,296,17100,6,0,P|296:248|348:224,2,112,2|2|2,0:0|0:0|0:0,0:0:0:0:
448,252,18000,1,2,0:0:0:0:
400,104,18300,6,0,L|284:72,1,112,2|2,0:0|0:0,0:0:0:0:
216,52,18750,1,2,0:0:0:0:
60,228,19200,2,0,P|60:256|80:276,1,56,2|2,0:0|0:0,0:0:0:0:
144,316,19500,6,0,P|196:316|220:268,1,112,2|2,0:0|0:0,0:0:0:0:
256,196,19950,1,2,0:0:0:0:
256,196,20100,2,0,L|368:232,1,112,2|2,0:0|0:0,0:0:0:0:
432,196,20550,5,2,0:0:0:0:
432,196,20700,2,0,B|460:144|460:144|432:96,1,112,2|2,0:0|0:0,0:0:0:0:
296,24,21300,2,0,B|252:32|252:32|232:48|232:48|192:56,1,112,2|2,0:0|0:0,0:0:0:0:
100,184,21900,6,0,P|152:184|176:240,1,112,2|2,0:0|0:0,0:0:0:0:
288,344,22500,2,0,L|404:316,1,112,2|2,0:0|0:0,0:0:0:0:
388,160,23100,6,0,B|308:108|224:172|300:232|196:316|112:260,1,336,2|0,3:0|0:0,0:0:0:0:
36,104,24300,5,4,1:0:0:0:
176,16,24600,2,0,L|236:36,1,62.9999980773926,10|2,0:0|0:0,0:0:0:0:
292,96,24900,2,0,L|352:76,1,62.9999980773926,8|2,0:0|0:0,0:0:0:0:
428,40,25200,5,10,0:0:0:0:
428,40,25350,2,0,P|480:56|500:120,1,125.999996154785,2|2,0:0|0:0,0:0:0:0:
496,200,25800,2,0,L|476:264,1,62.9999980773926,10|2,0:0|0:0,0:0:0:0:
420,320,26100,1,10,0:0:0:0:
284,228,26400,2,0,L|248:240,4,31.4999990386963,10|0|0|0|8,0:0|3:0|3:0|3:0|0:0,0:0:0:0:
400,112,27000,6,0,P|400:76|380:56,1,62.9999980773926,10|2,0:0|0:0,0:0:0:0:
320,8,27300,2,0,B|260:8|280:76|220:76,1,125.999996154785,10|10,0:0|0:0,0:0:0:0:
140,60,27750,6,0,B|184:88|184:88|160:160,2,125.999996154785,2|2|2,0:0|0:0|0:0,0:0:0:0:
60,84,28500,2,0,P|32:112|32:136,1,62.9999980773926,10|2,0:0|0:0,0:0:0:0:
52,212,28800,2,0,P|64:240|52:268,1,62.9999980773926,10|0,0:0|0:0,0:0:0:0:
0,364,29100,6,0,L|124:332,1,125.999996154785,10|8,0:0|0:0,0:0:0:0:
196,296,29550,2,0,P|212:316|212:352,2,62.9999980773926,2|10|2,0:0|0:0|0:0,0:0:0:0:
164,228,30000,1,10,0:0:0:0:
164,228,30150,2,0,P|152:204|168:172,1,62.9999980773926,2|8,0:0|0:0,0:0:0:0:
236,128,30450,6,0,B|300:128|276:188|340:188,1,125.999996154785,2|2,0:0|0:0,0:0:0:0:
416,220,30900,2,0,L|488:192,1,62.9999980773926,10|2,0:0|0:0,0:0:0:0:
504,120,31200,1,10,0:0:0:0:
436,36,31350,5,2,0:0:0:0:
436,36,31425,1,0,0:0:0:0:
436,36,31500,2,0,P|372:36|352:88,1,125.999996154785,8|8,0:0|0:0,0:0:0:0:
308,152,31950,1,0,0:0:0:0:
264,220,32100,2,0,P|204:216|172:156,2,125.999996154785,8|8|0,0:0|0:0|3:0,0:0:0:0:
460,344,33900,6,0,L|504:192,1,154.000004699707,6|8,1:0|0:0,0:0:0:0:
472,108,34350,1,2,0:0:0:0:
400,48,34500,2,0,B|328:48|364:132|284:132,1,154.000004699707,2|8,0:0|0:0,0:0:0:0:
204,80,34950,1,2,0:0:0:0:
96,28,35100,6,0,L|24:56,1,77.0000023498536,2|2,1:0|0:0,0:0:0:0:
4,148,35400,1,10,0:0:0:0:
56,224,35550,2,0,P|148:220|164:148,1,154.000004699707,2|2,1:0|1:0,0:0:0:0:
204,80,36000,1,10,0:0:0:0:
384,40,36300,6,0,P|452:40|476:112,1,154.000004699707,2|10,1:0|0:0,0:0:0:0:
388,148,36750,2,0,B|340:204|340:204|388:268,1,154.000004699707,2|2,0:0|1:0,0:0:0:0:
476,304,37200,1,10,0:0:0:0:
404,364,37350,6,0,B|332:376|348:292|268:308,1,154.000004699707,2|0,0:0|0:0,0:0:0:0:
188,344,37800,1,8,0:0:0:0:
88,168,38100,2,0,P|44:168|8:228,2,115.50000352478,2|2|2,0:0|0:0|0:0,0:0:0:0:
172,208,38700,6,0,P|196:180|196:140,1,77.0000023498536,6|0,1:0|0:0,0:0:0:0:
128,80,39000,2,0,P|128:40|152:12,1,77.0000023498536,10|0,0:0|0:0,0:0:0:0:
244,4,39300,1,2,0:0:0:0:
336,16,39450,2,0,L|412:40,1,77.0000023498536,2|8,1:0|0:0,0:0:0:0:
456,120,39750,1,2,0:0:0:0:
364,136,39900,6,0,P|328:136|304:168,1,77.0000023498536,2|0,1:0|0:0,0:0:0:0:
284,256,40200,1,10,0:0:0:0:
344,328,40350,2,0,L|492:284,1,154.000004699707,0|0,1:0|1:0,0:0:0:0:
512,192,40800,2,0,L|492:116,1,77.0000023498536,10|2,0:0|0:0,0:0:0:0:
432,48,41100,6,0,B|364:20|364:120|292:84,1,154.000004699707,2|10,1:0|0:0,0:0:0:0:
212,40,41550,1,2,0:0:0:0:
140,96,41700,2,0,L|176:248,1,154.000004699707,2|10,0:0|0:0,0:0:0:0:
208,332,42150,1,2,0:0:0:0:
300,344,42300,6,0,P|340:344|364:316,1,77.0000023498536,2|2,1:2|3:2,3:2:0:0:
384,280,42525,1,0,3:2:0:0:
384,280,42600,2,0,P|384:240|356:216,1,77.0000023498536,10|2,3:2|1:2,3:2:0:0:
288,156,42900,2,0,L|216:188,1,77.0000023498536,2|2,3:2|1:2,3:2:0:0:
124,176,43200,2,0,L|112:140,3,38.5000011749268,10|0|0|0,3:2|3:2|3:0|3:0,3:2:0:0:
100,96,43500,6,0,P|124:32|200:32,1,154.000004699707,6|8,1:0|0:0,0:0:0:0:
272,92,43950,1,2,0:0:0:0:
332,164,44100,2,0,B|412:164|376:80|448:80,1,154.000004699707,2|8,0:0|0:0,0:0:0:0:
500,156,44550,1,2,0:0:0:0:
504,248,44700,6,0,L|432:276,1,77.0000023498536,2|2,1:0|0:0,0:0:0:0:
368,344,45000,1,10,0:0:0:0:
276,332,45150,2,0,B|228:272|228:272|268:204,1,154.000004699707,2|2,1:0|1:0,0:0:0:0:
324,132,45600,2,0,L|392:168,1,77.0000023498536,10|2,0:0|0:0,0:0:0:0:
464,108,45900,6,0,P|440:36|372:36,1,154.000004699707,2|10,1:0|0:0,0:0:0:0:
280,32,46350,2,0,B|220:12|220:108|144:76,1,154.000004699707,2|2,0:0|1:0,0:0:0:0:
64,32,46800,1,10,0:0:0:0:
167,192,47100,6,0,B|191:240|191:240|163:280,2,102.666669799805,2|2|2,1:0|0:0|0:0,0:0:0:0:
59,142,47700,1,2,0:0:0:0:
59,142,47850,1,2,1:0:0:0:
97,57,48000,2,0,P|147:83|163:115,1,77.0000023498536,8|0,0:0|3:0,0:0:0:0:
168,192,48300,6,0,L|244:164,1,77.0000023498536,2|0,1:0|0:0,0:0:0:0:
332,140,48600,2,0,P|392:140|416:220,1,154.000004699707,8|0,0:0|0:0,0:0:0:0:
376,304,49050,1,2,1:0:0:0:
296,348,49200,2,0,P|260:348|240:316,1,77.0000023498536,10|2,0:0|0:0,0:0:0:0:
188,240,49500,6,0,B|124:216|124:308|48:276,1,154.000004699707,0|8,1:0|0:0,0:0:0:0:
16,188,49950,1,0,1:0:0:0:
108,28,50250,1,2,1:0:0:0:
200,32,50400,2,0,L|276:52,1,77.0000023498536,10|2,0:0|0:0,0:0:0:0:
364,76,50700,6,0,P|300:76|280:156,1,154.000004699707,0|8,1:0|0:0,0:0:0:0:
332,228,51150,2,0,P|316:308|256:308,1,154.000004699707,0|0,0:0|1:0,0:0:0:0:
172,268,51600,2,0,L|152:192,1,77.0000023498536,10|2,0:0|0:0,0:0:0:0:
208,116,51900,5,2,1:0:0:0:
256,192,51975,12,0,53100,0:0:0:0:
208,116,53700,6,0,L|313:94,1,102.666669799805,8|2,1:0|1:0,0:0:0:0:
340,92,54000,1,4,1:0:0:0:
460,208,54300,6,0,P|492:264|452:320,1,140,6|2,1:0|0:0,0:0:0:0:
368,288,54750,1,0,1:0:0:0:
284,256,54900,2,0,B|220:268|248:336|188:348,1,140,10|2,0:0|1:0,0:0:0:0:
104,316,55350,2,0,P|92:284|104:252,1,70,2|0,0:0|0:0,0:0:0:0:
136,168,55650,5,2,1:0:0:0:
220,132,55800,2,0,L|288:156,1,70,2|2,1:0|0:0,0:0:0:0:
352,220,56100,2,0,L|420:200,1,70,10|2,0:0|0:0,0:0:0:0:
488,140,56400,1,2,1:0:0:0:
436,28,56550,5,2,3:0:0:0:
436,28,56625,1,0,3:0:0:0:
436,28,56700,2,0,P|388:8|332:64,1,140,2|2,1:0|0:0,0:0:0:0:
300,148,57150,1,0,1:0:0:0:
260,232,57300,2,0,L|128:188,1,140,10|2,0:0|1:0,0:0:0:0:
40,216,57750,2,0,L|56:284,1,70,2|0,0:0|0:0,0:0:0:0:
104,364,58050,5,2,1:0:0:0:
196,360,58200,2,0,P|232:360|256:336,1,70,2|2,1:0|0:0,0:0:0:0:
288,252,58500,2,0,P|324:252|348:276,1,70,10|2,0:0|1:0,0:0:0:0:
408,340,58800,1,2,1:0:0:0:
484,248,58950,5,2,3:0:0:0:
484,248,59025,1,0,3:0:0:0:
484,248,59100,2,0,L|520:112,1,140,6|2,1:0|0:0,0:0:0:0:
476,32,59550,1,0,1:0:0:0:
392,0,59700,2,0,B|332:0|352:76|284:76,1,140,10|2,0:0|1:0,0:0:0:0:
216,16,60150,2,0,P|192:44|192:76,1,70,2|0,0:0|0:0,0:0:0:0:
232,156,60450,5,2,1:0:0:0:
324,160,60600,2,0,L|396:172,1,70,2|2,1:0|0:0,0:0:0:0:
460,232,60900,2,0,L|448:300,1,70,10|2,0:0|0:0,0:0:0:0:
380,364,61200,1,2,1:0:0:0:
296,276,61350,5,2,3:0:0:0:
296,276,61425,1,0,3:0:0:0:
296,276,61500,2,0,B|232:264|248:348|180:336,1,140,6|2,1:0|0:0,0:0:0:0:
92,348,61950,1,0,1:0:0:0:
48,268,62100,2,0,P|48:224|128:192,1,140,10|2,0:0|1:0,0:0:0:0:
216,204,62550,2,0,P|248:204|268:168,1,70,2|0,0:0|0:0,0:0:0:0:
268,84,62850,5,2,1:0:0:0:
220,8,63000,2,0,L|148:24,1,70,2|2,1:0|0:0,0:0:0:0:
64,48,63300,2,0,L|76:116,1,70,10|2,0:0|1:0,0:0:0:0:
96,204,63600,2,0,L|108:276,1,70,2|2,1:0|3:0,0:0:0:0:
196,296,63900,6,0,B|252:296|240:232|292:232,1,119.000002269745,2|2,3:0|0:0,0:0:0:0:
372,236,64350,1,2,1:0:0:0:
372,236,64500,2,0,P|420:268|468:240,1,119.000002269745,2|2,0:0|1:0,0:0:0:0:
500,84,65100,6,0,L|484:24,1,59.5000011348725,2|0,0:0|1:0,0:0:0:0:
408,12,65400,2,0,L|344:32,1,59.5000011348725,2|2,1:0|0:0,0:0:0:0:
296,84,65700,2,0,B|252:84|260:24|200:24,1,119.000002269745,10|2,0:0|1:0,0:0:0:0:
132,48,66150,6,0,B|104:60,1,29.7500005674362,0|0,1:0|1:0,0:0:0:0:
76,80,66300,2,0,P|60:124|104:180,1,119.000002269745,2|2,1:0|0:0,0:0:0:0:
176,212,66750,1,2,1:0:0:0:
176,212,66900,2,0,L|236:188,1,59.5000011348725,10|2,0:0|0:0,0:0:0:0:
304,160,67200,1,2,1:0:0:0:
456,188,67500,6,0,P|476:212|476:240,1,59.5000011348725,2|2,0:0|1:0,0:0:0:0:
480,316,67800,2,0,P|460:336|428:336,1,59.5000011348725,2|2,1:0|0:0,0:0:0:0:
352,348,68100,2,0,L|232:312,1,119.000002269745,10|2,0:0|1:0,0:0:0:0:
164,292,68550,6,0,L|152:320,1,29.7500005674362,2|0,1:0|1:0,0:0:0:0:
128,348,68700,2,0,L|72:324,1,59.5000011348725,2|2,1:0|0:0,0:0:0:0:
56,248,69000,2,0,L|116:232,1,59.5000011348725,2|2,0:0|1:0,0:0:0:0:
188,216,69300,1,10,0:0:0:0:
340,188,69600,1,2,1:0:0:0:
332,32,69900,6,0,P|308:16|276:32,1,59.5000011348725,2|2,0:0|1:0,0:0:0:0:
224,80,70200,1,2,1:0:0:0:
224,80,70350,2,0,P|164:80|136:28,1,119.000002269745,2|0,0:0|0:0,0:0:0:0:
12,120,70950,5,2,1:0:0:0:
12,120,71100,2,0,L|28:180,1,59.5000011348725,2|2,1:0|0:0,0:0:0:0:
60,252,71400,1,2,0:0:0:0:
60,252,71550,2,0,B|112:252|92:196|160:196,1,119.000002269745,2|2,1:0|0:0,0:0:0:0:
224,240,72000,1,2,1:0:0:0:
336,344,72300,6,0,L|400:324,1,59.5000011348725,2|2,0:0|1:0,0:0:0:0:
452,276,72600,1,2,1:0:0:0:
452,276,72750,2,0,P|452:212|408:192,1,119.000002269745,2|0,0:0|1:0,0:0:0:0:
256,208,73350,6,0,B|244:240,1,29.7500005674362,0|0,1:0|0:0,0:0:0:0:
228,268,73500,2,0,L|100:220,1,119.000002269745,6|2,1:0|0:0,0:0:0:0:
24,100,74100,2,0,L|152:52,1,119.000002269745,10|2,0:0|1:0,0:0:0:0:
212,36,74550,1,2,0:0:0:0:
352,112,74850,5,0,1:0:0:0:
352,112,75000,2,0,P|364:144|352:168,1,59.5000011348725,0|0,1:0|0:0,0:0:0:0:
296,216,75300,2,0,P|284:248|296:272,1,59.5000011348725,10|2,0:0|0:0,0:0:0:0:
340,332,75600,1,0,1:0:0:0:
416,352,75750,6,0,L|444:344,1,29.7500005674362,0|0,1:0|0:0,0:0:0:0:
480,332,75900,2,0,P|516:288|496:232,1,119.000002269745,2|2,1:0|0:0,0:0:0:0:
424,100,76500,2,0,P|372:72|320:104,1,119.000002269745,10|2,0:0|1:0,0:0:0:0:
296,172,76950,1,2,0:0:0:0:
288,328,77250,5,0,1:0:0:0:
288,328,77400,2,0,P|256:328|240:308,1,59.5000011348725,0|0,1:0|0:0,0:0:0:0:
204,240,77700,2,0,P|152:240|128:304,1,119.000002269745,10|0,0:0|1:0,0:0:0:0:
36,352,78150,6,0,L|8:344,1,29.7500005674362,2|0,1:0|1:0,0:0:0:0:
0,304,78300,2,0,L|28:188,1,119.000002269745,2|2,1:0|0:0,0:0:0:0:
48,112,78750,1,2,1:0:0:0:
48,112,78900,2,0,P|68:88|96:88,1,59.5000011348725,10|2,0:0|0:0,0:0:0:0:
148,144,79200,2,0,B|208:144|184:84|244:84,1,119.000002269745,2|0,1:0|0:0,0:0:0:0:
388,272,79950,5,2,0:0:0:0:
388,272,80100,2,0,L|448:256,1,59.5000011348725,10|2,0:0|0:0,0:0:0:0:
492,196,80400,2,0,L|476:136,1,59.5000011348725,2|2,1:0|1:0,0:0:0:0:
468,104,80625,5,0,1:0:0:0:
468,104,80700,2,0,P|420:72|372:100,1,119.000002269745,2|2,1:0|0:0,0:0:0:0:
328,164,81150,1,2,1:0:0:0:
328,164,81300,2,0,L|308:224,1,59.5000011348725,10|2,0:0|0:0,0:0:0:0:
264,284,81600,2,0,B|204:284|228:220|172:220,1,119.000002269745,2|2,1:0|0:0,0:0:0:0:
28,272,82200,5,0,1:0:0:0:
16,120,82500,2,0,B|48:80|48:80|112:104,1,119.000002269745,10|2,0:0|1:0,0:0:0:0:
208,148,82950,5,0,3:0:0:0:
208,148,83025,1,0,3:0:0:0:
208,148,83100,1,4,1:0:0:0:
328,36,83400,2,0,L|388:52,1,62.9999980773926,10|2,0:0|0:0,0:0:0:0:
404,132,83700,2,0,L|388:196,1,62.9999980773926,10|2,0:0|0:0,0:0:0:0:
316,232,84000,5,10,0:0:0:0:
316,232,84150,2,0,L|352:360,1,125.999996154785,2|2,0:0|0:0,0:0:0:0:
432,364,84600,2,0,P|468:364|488:344,1,62.9999980773926,10|2,0:0|0:0,0:0:0:0:
500,264,84900,1,10,0:0:0:0:
500,100,85200,2,0,B|436:52|436:52|392:68,1,125.999996154785,10|8,0:0|0:0,0:0:0:0:
240,132,85800,6,0,L|256:192,1,62.9999980773926,10|2,0:0|0:0,0:0:0:0:
328,232,86100,2,0,L|304:356,1,125.999996154785,10|10,0:0|0:0,0:0:0:0:
224,364,86550,2,0,P|168:364|136:304,1,125.999996154785,2|2,0:0|0:0,0:0:0:0:
152,144,87150,5,2,0:0:0:0:
152,144,87300,2,0,L|216:160,1,62.9999980773926,10|2,0:0|0:0,0:0:0:0:
276,212,87600,2,0,L|336:192,1,62.9999980773926,10|0,0:0|0:0,0:0:0:0:
444,144,87900,6,0,P|460:108|404:48,1,125.999996154785,10|10,0:0|0:0,0:0:0:0:
332,28,88350,1,2,0:0:0:0:
332,28,88500,2,0,P|300:28|280:56,1,62.9999980773926,10|2,0:0|0:0,0:0:0:0:
224,108,88800,5,10,0:0:0:0:
224,108,88950,2,0,L|96:76,1,125.999996154785,2|2,0:0|0:0,0:0:0:0:
28,124,89400,2,0,P|16:152|28:184,1,62.9999980773926,10|2,0:0|0:0,0:0:0:0:
78,253,89700,2,0,L|138:229,1,62.9999980773926,10|2,0:0|0:0,0:0:0:0:
218,198,90000,2,0,L|284:217,1,62.9999980773926,10|2,0:0|0:0,0:0:0:0:
320,236,90225,5,0,0:0:0:0:
320,236,90300,2,0,B|376:244|356:304|420:316,1,125.999996154785,8|8,0:0|0:0,0:0:0:0:
500,312,90750,1,0,0:0:0:0:
500,312,90900,2,0,L|360:360,2,125.999996154785,8|8|0,0:0|0:0|3:0,0:0:0:0:
304,24,92700,6,0,P|232:24|212:92,1,154.000004699707,4|8,1:0|0:0,0:0:0:0:
240,180,93150,1,2,0:0:0:0:
264,268,93300,2,0,B|116:324,1,154.000004699707,2|8,0:0|0:0,0:0:0:0:
40,276,93750,1,2,0:0:0:0:
8,188,93900,6,0,P|0:152|20:120,1,77.0000023498536,2|2,1:0|0:0,0:0:0:0:
100,72,94200,1,10,0:0:0:0:
192,64,94350,2,0,B|260:56|236:136|324:128,1,154.000004699707,2|2,1:0|1:0,0:0:0:0:
404,88,94800,1,10,0:0:0:0:
496,248,95100,6,0,L|344:200,1,154.000004699707,2|10,1:0|0:0,0:0:0:0:
260,220,95550,2,0,B|212:284|212:284|260:340,1,154.000004699707,2|2,0:0|1:0,0:0:0:0:
348,360,96000,1,10,0:0:0:0:
440,360,96150,6,0,P|488:360|504:270,1,154.000004699707,2|0,0:0|0:0,0:0:0:0:
447,199,96600,1,8,0:0:0:0:
266,158,96900,2,0,B|238:114|238:114|272:55,2,115.50000352478,2|2|2,0:0|0:0|0:0,0:0:0:0:
346,204,97500,6,0,P|370:232|370:272,1,77.0000023498536,2|0,1:0|0:0,0:0:0:0:
320,348,97800,2,0,P|280:348|252:324,1,77.0000023498536,10|0,0:0|0:0,0:0:0:0:
180,268,98100,1,2,0:0:0:0:
124,340,98250,2,0,L|48:316,1,77.0000023498536,2|8,1:0|0:0,0:0:0:0:
32,228,98550,1,2,0:0:0:0:
76,148,98700,6,0,P|112:132|144:148,1,77.0000023498536,2|0,1:0|0:0,0:0:0:0:
224,192,99000,1,10,0:0:0:0:
304,240,99150,2,0,B|364:240|340:152|420:152,1,154.000004699707,0|0,1:0|1:0,0:0:0:0:
476,80,99600,2,0,L|402:57,1,77.0000023498536,10|2,0:0|0:0,0:0:0:0:
316,28,99900,6,0,P|276:28|256:56,1,77.0000023498536,2|2,1:0|0:0,0:0:0:0:
197,129,100200,2,0,P|197:169|229:193,1,77.0000023498536,10|2,0:0|0:0,0:0:0:0:
304,240,100500,2,0,B|360:292|360:292|308:352,1,154.000004699707,2|10,0:0|0:0,0:0:0:0:
216,364,100950,1,2,0:0:0:0:
124,360,101100,6,0,P|88:360|64:328,1,77.0000023498536,10|0,0:0|3:0,0:0:0:0:
60,288,101325,1,0,3:0:0:0:
60,288,101400,2,0,L|136:268,1,77.0000023498536,10|2,0:0|1:0,0:0:0:0:
196,200,101700,2,0,L|124:172,1,77.0000023498536,2|2,3:0|1:0,0:0:0:0:
44,124,102000,2,0,L|56:88,3,38.5000011749268,10|0|0|0,0:0|3:0|3:0|3:0,0:0:0:0:
76,44,102300,6,0,B|144:8|144:104|220:64,1,154.000004699707,6|8,1:0|0:0,0:0:0:0:
308,76,102750,1,2,0:0:0:0:
276,164,102900,2,0,B|232:188|232:188|268:288,1,154.000004699707,2|8,0:0|0:0,0:0:0:0:
340,344,103350,1,2,0:0:0:0:
432,348,103500,6,0,P|464:332|464:292,1,77.0000023498536,2|2,1:0|0:0,0:0:0:0:
452,204,103800,1,10,0:0:0:0:
368,160,103950,2,0,P|368:80|428:64,1,154.000004699707,2|2,1:0|1:0,0:0:0:0:
508,112,104400,1,10,0:0:0:0:
344,4,104700,6,0,L|268:28,1,77.0000023498536,2|2,1:0|0:0,0:0:0:0:
180,48,105000,1,10,0:0:0:0:
144,132,105150,2,0,L|188:284,1,154.000004699707,2|2,0:0|1:0,0:0:0:0:
252,344,105600,2,0,P|292:344|316:312,1,77.0000023498536,10|0,0:0|0:0,0:0:0:0:
340,228,105900,6,0,B|316:180|316:180|344:140,2,102.666669799805,2|2|2,1:0|0:0|0:0,0:0:0:0:
464,240,106500,2,0,B|492:280|492:280|468:328,2,102.666669799805,2|2|2,0:0|0:0|0:0,0:0:0:0:
418,119,107100,6,0,L|330:143,1,77.0000023498536,2|0,1:0|0:0,0:0:0:0:
252,156,107400,2,0,B|180:148|204:240|128:232,1,154.000004699707,8|0,0:0|0:0,0:0:0:0:
56,180,107850,1,2,1:0:0:0:
40,88,108000,2,0,P|60:56|96:48,1,77.0000023498536,10|2,0:0|0:0,0:0:0:0:
184,16,108300,6,0,L|340:60,1,154.000004699707,0|8,1:0|0:0,0:0:0:0:
420,84,108750,1,0,1:0:0:0:
476,260,109050,1,2,1:0:0:0:
416,332,109200,2,0,L|340:312,1,77.0000023498536,10|2,0:0|0:0,0:0:0:0:
252,332,109500,6,0,P|252:260|320:228,1,154.000004699707,0|8,1:0|0:0,0:0:0:0:
376,152,109950,2,0,P|376:76|312:52,1,154.000004699707,0|0,0:0|1:0,0:0:0:0:
228,88,110400,2,0,L|248:164,1,77.0000023498536,8|2,0:0|0:0,0:0:0:0:
216,252,110700,6,0,B|164:392|16:288|28:192|124:76|292:108|272:216|272:380|368:336|412:312|420:280,1,616.000018798829,2|0,1:0|0:0,0:0:0:0:
480,60,113100,6,0,L|372:24,1,112,6|2,0:0|0:0,0:0:0:0:
304,60,113550,1,2,0:0:0:0:
200,176,113850,2,0,L|220:240,2,56,2|2|2,0:0|0:0|0:0,0:0:0:0:
172,104,114300,6,0,P|84:104|60:220,1,224
152,348,115200,2,0,L|208:328,1,56,2|2,0:0|0:0,0:0:0:0:
252,268,115500,6,0,L|308:288,2,56,2|2|2,0:0|0:0|0:0,0:0:0:0:
208,200,115950,2,0,B|260:192|248:148|300:140,1,112,2|2,0:0|0:0,0:0:0:0:
372,172,116400,1,2,0:0:0:0:
456,304,116700,6,0,L|528:72,1,224
388,8,117600,2,0,L|336:32,1,56,2|2,0:0|0:0,0:0:0:0:
300,100,117900,6,0,L|192:64,1,112,2|2,0:0|0:0,0:0:0:0:
120,40,118350,1,2,0:0:0:0:
52,180,118650,2,0,L|32:128,2,56,2|2|2,0:0|0:0|0:0,0:0:0:0:
100,240,119100,6,0,P|152:240|176:192,1,112,2|2,0:0|0:0,0:0:0:0:
240,144,119550,2,0,L|344:184,1,112,2|2,0:0|0:0,0:0:0:0:
416,216,120000,1,2,0:0:0:0:
496,80,120300,6,0,P|496:40|436:16,1,112,2|2,0:0|0:0,0:0:0:0:
356,20,120750,1,2,0:0:0:0:
356,20,120900,2,0,L|232:56,1,112,2|2,0:0|0:0,0:0:0:0:
156,180,121500,6,0,B|216:156|260:212|220:236|264:304|328:280,1,224,2|0,0:0|0:0,0:0:0:0:
468,348,122400,2,0,L|492:292,1,56,2|2,0:0|0:0,0:0:0:0:
508,220,122700,6,0,L|392:176,1,112,2|2,0:0|0:0,0:0:0:0:
328,196,123150,2,0,P|328:132|364:112,1,112,2|2,0:0|0:0,0:0:0:0:
440,84,123600,1,2,0:0:0:0:
348,12,123900,6,0,L|244:56,2,112
476,100,124800,2,0,L|460:156,1,56,2|2,0:0|0:0,0:0:0:0:
388,188,125100,6,0,L|420:296,1,112,2|2,0:0|0:0,0:0:0:0:
472,352,125550,2,0,P|424:320|376:340,1,112,2|2,0:0|0:0,0:0:0:0:
300,352,126000,2,0,L|244:332,1,56,2|2,0:0|0:0,0:0:0:0:
176,300,126300,6,0,B|236:322|280:254|240:230|284:174|344:198,1,224
488,264,127200,1,2,0:0:0:0:
416,124,127500,6,0,L|360:108,2,56,2|2|2,0:0|0:0|0:0,0:0:0:0:
480,80,127950,2,0,P|480:32|424:8,1,112,2|2,0:0|0:0,0:0:0:0:
352,24,128400,1,2,0:0:0:0:
204,80,128700,6,0,L|232:188,1,112,2|2,0:0|0:0,0:0:0:0:
300,232,129150,2,0,L|272:340,1,112,2|2,0:0|0:0,0:0:0:0:
196,356,129600,2,0,L|140:336,1,56,2|2,0:0|0:0,0:0:0:0:
104,268,129900,6,0,L|48:292,2,56,2|2|2,0:0|0:0|0:0,0:0:0:0:
152,204,130350,2,0,B|200:192|200:248|252:240,1,112,2|2,0:0|0:0,0:0:0:0:
324,204,130800,1,2,0:0:0:0:
456,116,131100,6,0,P|456:60|320:40,1,224,2|0,0:0|0:0,0:0:0:0:
192,132,132000,2,0,L|136:112,1,56,2|2,0:0|0:0,0:0:0:0:
40,152,132300,6,0,B|8:200|8:200|44:256,1,119.000002269745,6|0,1:0|0:0,0:0:0:0:
176,352,132900,2,0,L|232:328,1,59.5000011348725
284,264,133200,2,0,L|344:288,1,59.5000011348725
380,360,133500,6,0,P|452:264|376:208,1,238.00000453949,8|0,0:0|0:0,0:0:0:0:
216,176,134400,1,0,0:0:0:0:
300,32,134700,6,0,B|352:8|352:76|408:56,2,119.000002269745
132,28,135600,2,0,L|76:48,1,59.5000011348725,2|0,0:0|0:0,0:0:0:0:
24,112,135900,6,0,L|64:228,1,119.000002269745,10|2,0:0|1:0,0:0:0:0:
180,344,136500,2,0,P|216:344|236:324,1,59.5000011348725,2|0,0:0|0:0,0:0:0:0:
272,256,136800,2,0,P|272:224|252:208,1,59.5000011348725,2|0,1:0|0:0,0:0:0:0:
172,180,137100,6,0,L|284:140,1,119.000002269745,2|0,1:0|0:0,0:0:0:0:
424,52,137700,2,0,L|456:64,2,29.7500005674362
344,28,138000,1,0,0:0:0:0:
176,20,138300,6,0,B|120:20|140:88|88:88,1,119.000002269745,8|0,0:0|0:0,0:0:0:0:
36,248,138900,1,0,1:0:0:0:
200,228,139200,2,0,L|216:288,1,59.5000011348725,2|2,0:0|0:0,0:0:0:0:
276,340,139500,6,0,P|304:352|328:340,1,59.5000011348725,2|0,0:0|0:0,0:0:0:0:
364,264,139800,2,0,P|384:244|416:244,1,59.5000011348725,2|0,0:0|0:0,0:0:0:0:
484,288,140100,2,0,L|452:172,1,119.000002269745,2|2,0:0|1:0,0:0:0:0:
344,44,140700,6,0,P|288:44|264:96,1,119.000002269745,10|2,0:0|0:0,0:0:0:0:
240,260,141300,2,0,L|184:280,1,59.5000011348725,2|0,0:0|0:0,0:0:0:0:
104,300,141600,1,10,0:0:0:0:
104,300,141750,1,8,0:0:0:0:
36,212,141900,6,0,P|20:156|60:116,1,119.000002269745,0|0,1:0|0:0,0:0:0:0:
80,120,142275,1,0,0:0:0:0:
100,128,142350,1,0,0:0:0:0:
164,184,142500,2,0,L|220:160,1,59.5000011348725
276,100,142800,2,0,L|330:123,1,59.5000011348725
388,184,143100,6,0,P|344:168|344:296,1,238.00000453949,10|0,0:0|1:0,0:0:0:0:
496,348,144000,1,0,0:0:0:0:
492,180,144300,6,0,L|456:64,2,119.000002269745,2|0|0,0:0|0:0|0:0,0:0:0:0:
424,332,145200,1,0,0:0:0:0:
256,344,145500,6,0,L|192:328,1,59.5000011348725,10|0,0:0|0:0,0:0:0:0:
132,280,145800,2,0,L|148:220,1,59.5000011348725,0|0,1:0|0:0,0:0:0:0:
180,146,146100,2,0,B|232:130|228:198|288:182,1,119.000002269745,0|0,0:0|1:0,0:0:0:0:
360,148,146550,5,0,0:0:0:0:
360,148,146700,2,0,L|340:28,1,119.000002269745,2|0,1:0|0:0,0:0:0:0:
172,20,147300,2,0,P|144:20|124:44,1,59.5000011348725
40,52,147600,2,0,P|26:76|36:105,1,59.5000011348725
64,184,147900,6,0,B|132:160|176:216|132:240|188:312|248:288,1,238.00000453949,10|0,0:0|1:0,0:0:0:0:
380,188,148800,1,0,0:0:0:0:
308,36,149100,6,0,P|260:36|228:92,2,119.000002269745,2|0|0,0:0|0:0|0:0,0:0:0:0:
444,132,150000,1,0,1:0:0:0:
320,244,150300,5,2,0:0:0:0:
40,44,154800,6,0,L|52:104,1,59.5000011348725,2|2,0:0|0:0,0:0:0:0:
140,184,155100,6,0,P|176:184|200:152,1,77.0000023498536,6|2,1:0|0:0,0:0:0:0:
256,80,155400,2,0,P|292:80|316:112,1,77.0000023498536,10|2,0:0|0:0,0:0:0:0:
344,200,155700,2,0,L|364:276,1,77.0000023498536,2|2,0:0|1:0,0:0:0:0:
444,324,156000,2,0,L|464:248,1,77.0000023498536,10|2,0:0|0:0,0:0:0:0:
480,156,156300,6,0,P|464:136|416:136,1,77.0000023498536,2|2,1:0|0:0,0:0:0:0:
344,200,156600,2,0,P|328:220|280:220,1,77.0000023498536,10|2,0:0|1:0,0:0:0:0:
224,292,156900,2,0,B|156:280|188:212|108:200,1,154.000004699707,2|10,0:0|0:0,0:0:0:0:
24,232,157350,1,2,0:0:0:0:
0,144,157500,6,0,P|0:108|24:76,1,77.0000023498536,2|2,1:0|0:0,0:0:0:0:
104,28,157800,2,0,L|248:88,1,154.000004699707,10|2,0:0|0:0,0:0:0:0:
328,128,158250,1,2,1:0:0:0:
412,168,158400,2,0,P|448:168|472:136,1,77.0000023498536,10|2,0:0|0:0,0:0:0:0:
480,44,158700,6,0,L|408:16,1,77.0000023498536,2|2,1:0|0:0,0:0:0:0:
316,4,159000,2,0,L|240:28,1,77.0000023498536,10|2,0:0|1:0,0:0:0:0:
168,84,159300,2,0,P|152:108|168:152,1,77.0000023498536,2|2,0:0|1:0,0:0:0:0:
240,212,159600,2,0,P|256:236|240:280,1,77.0000023498536,10|2,0:0|3:0,0:0:0:0:
172,340,159900,6,0,L|96:316,1,77.0000023498536,2|2,1:0|0:0,0:0:0:0:
16,272,160200,1,10,0:0:0:0:
0,180,160350,2,0,P|28:100|88:100,1,154.000004699707,2|2,0:0|1:0,0:0:0:0:
166,150,160800,2,0,P|204:152|232:128,1,77.0000023498536,10|2,0:0|0:0,0:0:0:0:
276,44,161100,6,0,L|352:64,1,77.0000023498536,2|2,1:0|0:0,0:0:0:0:
436,100,161400,1,10,0:0:0:0:
360,152,161550,2,0,B|316:176|316:176|356:276,1,154.000004699707,2|2,1:0|1:0,0:0:0:0:
412,344,162000,2,0,L|484:316,1,77.0000023498536,8|2,0:0|0:0,0:0:0:0:
508,224,162300,6,0,P|524:188|508:156,1,77.0000023498536,2|2,1:0|0:0,0:0:0:0:
436,100,162600,1,10,0:0:0:0:
360,48,162750,2,0,B|284:48|312:132|236:132,1,154.000004699707,2|0,0:0|1:0,0:0:0:0:
168,76,163200,2,0,P|136:56|104:76,1,77.0000023498536,8|2,0:0|0:0,0:0:0:0:
44,144,163500,5,0,1:0:0:0:
76,240,163650,1,0,3:0:0:0:
76,240,163725,1,0,3:0:0:0:
76,240,163800,2,0,L|104:316,1,77.0000023498536,8|2,0:0|1:0,0:0:0:0:
192,356,164100,1,2,0:0:0:0:
192,356,164250,1,2,1:0:0:0:
284,360,164400,2,0,P|320:360|344:328,1,77.0000023498536,10|0,0:0|3:0,0:0:0:0:
376,212,164700,6,0,P|376:160|288:144,1,154.000004699707,6|10,1:0|0:0,0:0:0:0:
200,160,165150,2,0,B|148:96|148:96|180:28,1,154.000004699707,2|2,0:0|1:0,0:0:0:0:
264,0,165600,2,0,P|304:0|328:28,1,77.0000023498536,10|2,0:0|0:0,0:0:0:0:
396,96,165900,5,2,1:0:0:0:
396,96,166050,1,2,0:0:0:0:
396,188,166200,2,0,L|376:264,1,77.0000023498536,10|0,0:0|1:0,0:0:0:0:
296,312,166500,2,0,L|276:236,1,77.0000023498536,2|0,0:0|1:0,0:0:0:0:
240,152,166800,2,0,P|208:136|172:152,1,77.0000023498536,10|2,0:0|0:0,0:0:0:0:
88,196,167100,6,0,P|68:232|80:264,1,77.0000023498536,2|2,1:0|0:0,0:0:0:0:
132,340,167400,1,10,0:0:0:0:
224,356,167550,2,0,B|296:328,1,77.0000023498536,2|0,0:0|0:0,0:0:0:0:
388,344,167850,2,0,P|388:272|320:236,1,154.000004699707,2|2,1:0|0:0,0:0:0:0:
236,252,168300,5,2,1:0:0:0:
236,252,168450,1,2,0:0:0:0:
212,164,168600,2,0,P|212:128|240:100,1,77.0000023498536,10|2,0:0|1:0,0:0:0:0:
324,64,168900,2,0,P|364:64|392:92,1,77.0000023498536,2|0,0:0|1:0,0:0:0:0:
452,156,169200,2,0,P|452:196|428:228,1,77.0000023498536,10|0,0:0|3:0,0:0:0:0:
392,308,169500,6,0,L|320:280,1,77.0000023498536,2|2,1:0|0:0,0:0:0:0:
236,252,169800,1,10,0:0:0:0:
164,312,169950,2,0,P|132:328|96:312,1,77.0000023498536,2|0,0:0|0:0,0:0:0:0:
28,248,170250,2,0,P|12:216|28:180,1,77.0000023498536,2|8,1:0|0:0,0:0:0:0:
100,120,170550,1,2,0:0:0:0:
192,132,170700,6,0,L|212:208,1,77.0000023498536,2|2,1:0|0:0,0:0:0:0:
244,296,171000,1,10,0:0:0:0:
328,332,171150,2,0,P|364:332|392:304,1,77.0000023498536,2|0,1:0|0:0,0:0:0:0:
436,224,171450,2,0,P|436:188|408:156,1,77.0000023498536,2|8,1:0|0:0,0:0:0:0:
328,116,171750,1,2,0:0:0:0:
236,136,171900,6,0,L|164:168,1,77.0000023498536,2|2,1:0|0:0,0:0:0:0:
76,192,172200,1,10,0:0:0:0:
32,112,172350,2,0,P|32:72|64:48,1,77.0000023498536,2|0,0:0|0:0,0:0:0:0:
140,4,172650,2,0,L|216:28,1,77.0000023498536,2|8,1:0|0:0,0:0:0:0:
296,64,172950,1,2,0:0:0:0:
236,136,173100,6,0,B|172:180|124:300|192:404|276:404|348:364|376:284|304:232|272:256,1,462.000014099122,0|2,1:0|0:0,0:0:0:0:
72,348,174300,6,0,L|52:272,1,77.0000023498536,6|0,1:0|0:0,0:0:0:0:
24,184,174600,1,10,0:0:0:0:
68,104,174750,2,2,B|132:84|128:184|196:164,1,154.000004699707,2|2,0:0|1:0,0:0:0:0:
288,176,175200,2,0,P|304:144|284:112,1,77.0000023498536,10|2,0:0|0:0,0:0:0:0:
256,24,175500,6,0,L|332:4,1,77.0000023498536,2|2,1:0|0:0,0:0:0:0:
424,20,175800,1,8,0:0:0:0:
488,88,175950,2,0,P|488:176|432:188,1,154.000004699707,2|2,1:0|1:0,0:0:0:0:
348,216,176400,2,0,P|328:252|344:284,1,77.0000023498536,10|0,0:0|0:0,0:0:0:0:
404,352,176700,6,0,L|480:332,1,77.0000023498536,2|2,1:0|0:0,0:0:0:0:
508,244,177000,1,10,0:0:0:0:
504,152,177150,2,0,B|428:152|456:76|376:76,1,154.000004699707,2|2,0:0|1:0,0:0:0:0:
288,84,177600,2,0,L|212:112,1,77.0000023498536,10|0,0:0|0:0,0:0:0:0:
144,168,177900,6,0,P|128:204|144:236,1,77.0000023498536,0|0,1:0|0:0,0:0:0:0:
176,324,178200,2,0,L|92:348,1,77.0000023498536,10|0,0:0|1:0,0:0:0:0:
20,300,178500,1,2,0:0:0:0:
20,300,178650,1,2,1:0:0:0:
16,208,178800,2,0,L|36:132,1,77.0000023498536,10|0,0:0|3:0,0:0:0:0:
92,60,179100,6,0,B|168:40|148:132|224:116,1,154.000004699707,2|8,1:0|0:0,0:0:0:0:
295,58,179550,2,0,B|247:102|247:102|287:186,1,154.000004699707,0|0,0:0|1:0,0:0:0:0:
317,268,180000,2,0,P|345:297|379:297,1,77.0000023498536,8|0,0:0|0:0,0:0:0:0:
469,273,180300,5,2,1:0:0:0:
476,180,180450,2,0,L|436:32,1,154.000004699707,0|0,0:0|1:0,0:0:0:0:
344,0,180900,2,0,L|272:28,1,77.0000023498536,2|0,0:0|1:0,0:0:0:0:
220,104,181200,2,0,L|148:76,1,77.0000023498536,8|0,0:0|0:0,0:0:0:0:
92,4,181500,6,0,P|40:36|64:120,1,154.000004699707,2|8,1:0|0:0,0:0:0:0:
116,188,181950,1,0,0:0:0:0:
196,232,182100,2,0,L|268:204,1,77.0000023498536,2|0,0:0|1:0,0:0:0:0:
312,124,182400,2,0,L|388:152,1,77.0000023498536,10|0,0:0|0:0,0:0:0:0:
484,180,182700,5,0,1:0:0:0:
484,180,182775,1,0,3:0:0:0:
484,180,182850,1,0,3:0:0:0:
464,272,183000,2,0,L|440:352,1,77.0000023498536,10|0,0:0|1:0,0:0:0:0:
352,368,183300,2,0,L|329:294,1,77.0000023498536,0|0,3:0|1:0,0:0:0:0:
304,212,183600,1,10,0:0:0:0:
304,212,183750,1,2,3:0:0:0:
204,284,183900,6,0,B|144:256|144:364|68:328,1,154.000004699707,6|10,1:0|0:0,0:0:0:0:
8,264,184350,1,0,0:0:0:0:
16,172,184500,2,0,P|36:144|76:144,1,77.0000023498536,2|2,0:0|1:0,0:0:0:0:
164,172,184800,2,0,P|184:200|224:200,1,77.0000023498536,10|2,0:0|0:0,0:0:0:0:
312,176,185100,6,0,L|296:100,1,77.0000023498536,2|2,1:0|0:0,0:0:0:0:
272,12,185400,1,10,0:0:0:0:
180,4,185550,2,0,L|28:56,1,154.000004699707,2|2,1:0|1:0,0:0:0:0:
8,144,186000,2,0,P|8:184|36:208,1,77.0000023498536,10|0,0:0|0:0,0:0:0:0:
112,256,186300,6,0,B|184:224|180:316|252:292,1,154.000004699707,2|10,1:0|0:0,0:0:0:0:
308,220,186750,1,0,0:0:0:0:
256,144,186900,2,0,P|256:108|284:80,1,77.0000023498536,2|2,0:0|1:0,0:0:0:0:
368,40,187200,2,0,P|404:40|432:72,1,77.0000023498536,10|2,0:0|0:0,0:0:0:0:
488,140,187500,5,2,1:0:0:0:
496,232,187650,2,0,L|476:308,1,77.0000023498536,2|8,0:0|0:0,0:0:0:0:
392,344,187950,2,0,L|316:320,1,77.0000023498536,2|0,1:0|0:0,0:0:0:0:
224,324,188250,1,2,1:0:0:0:
180,244,188400,2,0,L|204:168,1,77.0000023498536,10|0,0:0|3:0,0:0:0:0:
292,148,188700,6,0,B|344:88|344:88|296:24,1,154.000004699707,2|10,1:0|0:0,0:0:0:0:
208,8,189150,1,0,0:0:0:0:
116,8,189300,2,0,P|80:8|56:40,1,77.0000023498536,2|2,0:0|1:0,0:0:0:0:
24,128,189600,2,0,P|16:164|40:196,1,77.0000023498536,10|2,0:0|0:0,0:0:0:0:
104,260,189900,6,0,L|180:232,1,77.0000023498536,2|2,1:0|0:0,0:0:0:0:
252,180,190200,1,10,0:0:0:0:
344,196,190350,2,0,L|384:348,1,154.000004699707,2|2,1:0|1:0,0:0:0:0:
476,360,190800,2,0,L|500:280,1,77.0000023498536,10|0,0:0|0:0,0:0:0:0:
488,192,191100,6,0,P|468:164|428:164,1,77.0000023498536,2|0,1:0|0:0,0:0:0:0:
344,196,191400,2,0,P|324:224|284:224,1,77.0000023498536,10|0,0:0|0:0,0:0:0:0:
228,152,191700,2,0,L|152:132,1,77.0000023498536,2|2,0:0|1:0,0:0:0:0:
80,188,192000,2,0,L|64:264,1,77.0000023498536,10|2,0:0|0:0,0:0:0:0:
100,336,192300,6,0,P|132:336|148:320,1,56,2|0,0:0|0:0,0:0:0:0:
212,276,192600,2,0,P|240:276|260:296,1,56,2|0,0:0|0:0,0:0:0:0:
316,348,192900,2,0,L|372:332,1,56,2|0,0:0|0:0,0:0:0:0:
412,268,193200,2,0,L|396:212,1,56,2|0,0:0|0:0,0:0:0:0:
304,164,193500,5,6,0:0:0:0:
256,192,193575,12,0,199500,0:0:0:0:
