osu file format v14

[General]
AudioFilename: audio.mp3
AudioLeadIn: 0
PreviewTime: 3500
Countdown: 0
SampleSet: Soft
StackLeniency: 0.7
Mode: 0
LetterboxInBreaks: 0
WidescreenStoryboard: 0

[Editor]
DistanceSpacing: 0.8
BeatDivisor: 4
GridSize: 32
TimelineZoom: 2

[Metadata]
Title:INSIDE
TitleUnicode:INSIDE
Artist:DUSTCELL
ArtistUnicode:DUSTCELL
Creator:SMOKELIND
Version:X
Source:
Tags:EMA EM A Misumi Kamitsubaki Studio 神椿スタジオ Japanese Hip Hop JPop J-Pop Pop Iceluin Pepekcz Kujinn Reform Nymphe Kiyoshi Guarden Kang Sae-byeok
BeatmapID:3472056
BeatmapSetID:1699249

[Difficulty]
HPDrainRate:5.7
CircleSize:4.2
OverallDifficulty:9
ApproachRate:9.4
SliderMultiplier:2.77
SliderTickRate:1

[Events]
//Background and Video events
0,0,"95421472_p0.jpg",0,0
//Break Periods
2,77400,78260
2,144600,145460
//Storyboard Layer 0 (Background)
//Storyboard Layer 1 (Fail)
//Storyboard Layer 2 (Pass)
//Storyboard Layer 3 (Foreground)
//Storyboard Layer 4 (Overlay)
//Storyboard Sound Samples

[TimingPoints]
400,400,4,2,77,27,1,0
400,-370.370370370363,4,2,77,27,0,0
13199,-129.870129870129,4,2,77,57,0,0
15149,-129.870129870129,4,2,77,5,0,0
15200,-129.870129870129,4,2,77,57,0,0
17349,-129.870129870129,4,2,77,5,0,0
17400,-129.870129870129,4,2,77,57,0,0
17749,-129.870129870129,4,2,77,5,0,0
17800,-129.870129870129,4,2,77,57,0,0
25149,-129.870129870129,4,2,77,5,0,0
25200,-129.870129870129,4,2,77,57,0,0
26149,-129.870129870129,4,2,77,5,0,0
26200,-129.870129870129,4,2,77,57,0,0
27149,-129.870129870129,4,2,77,5,0,0
27200,-129.870129870129,4,2,77,57,0,0
29549,-129.870129870129,4,2,77,5,0,0
29600,-129.870129870129,4,2,77,57,0,0
38349,-129.870129870129,4,2,77,5,0,0
38400,-129.870129870129,4,2,77,57,0,0
38799,-114.942528735633,4,2,77,67,0,0
39350,-114.942528735633,4,2,77,5,0,0
39400,-114.942528735633,4,2,77,67,0,0
39750,-114.942528735633,4,2,77,5,0,0
39800,-114.942528735633,4,2,77,67,0,0
40150,-114.942528735633,4,2,77,5,0,0
40200,-114.942528735633,4,2,77,67,0,0
41350,-114.942528735633,4,2,77,5,0,0
41400,-114.942528735633,4,2,77,67,0,0
44150,-114.942528735633,4,2,77,5,0,0
44200,-114.942528735633,4,2,77,67,0,0
44799,-212.765957446811,4,2,77,67,0,0
45199,-114.942528735633,4,2,77,67,0,0
46950,-114.942528735633,4,2,77,5,0,0
47000,-114.942528735633,4,2,77,67,0,0
48399,-103.092783505155,4,2,77,67,0,0
49999,-175.438596491229,4,2,77,47,0,0
51199,-370.370370370374,4,2,77,47,0,0
51599,-85.4700854700855,4,2,77,87,0,0
52399,-129.87012987013,4,2,77,87,0,0
52749,-129.87012987013,4,2,77,5,0,0
52799,-85.4700854700855,4,2,77,87,0,0
53150,-85.4700854700855,4,2,77,5,0,0
53199,-129.87012987013,4,2,77,87,0,0
53449,-129.87012987013,4,2,77,5,0,0
53500,-129.87012987013,4,2,77,87,0,0
53599,-103.092783505155,4,2,77,87,0,0
53750,-103.092783505155,4,2,77,5,0,0
53800,-103.092783505155,4,2,77,87,0,0
54350,-103.092783505155,4,2,77,5,0,0
54400,-103.092783505155,4,2,77,87,0,0
54599,-175.438596491228,4,2,77,87,0,0
54749,-175.438596491228,4,2,77,5,0,0
54799,-85.4700854700855,4,2,77,87,0,0
55150,-85.4700854700855,4,2,77,5,0,0
55199,-129.87012987013,4,2,77,87,0,0
55549,-129.87012987013,4,2,77,5,0,0
55599,-103.092783505155,4,2,77,87,0,0
55999,-85.4700854700855,4,2,77,87,0,0
56350,-85.4700854700855,4,2,77,5,0,0
56398,-129.87012987013,4,2,77,87,0,0
56549,-129.87012987013,4,2,77,5,0,0
56600,-129.87012987013,4,2,77,87,0,0
56799,-85.4700854700855,4,2,77,87,0,0
57199,-103.092783505155,4,2,77,87,0,0
57599,-129.87012987013,4,2,77,87,0,0
57749,-129.87012987013,4,2,77,5,0,0
57800,-129.87012987013,4,2,77,87,0,0
57999,-85.4700854700855,4,2,77,87,0,0
58350,-85.4700854700855,4,2,77,5,0,0
58399,-129.87012987013,4,2,77,87,0,0
58749,-129.87012987013,4,2,77,5,0,0
58799,-103.092783505155,4,2,77,87,0,0
59150,-103.092783505155,4,2,77,5,0,0
59199,-85.4700854700855,4,2,77,87,0,0
59350,-85.4700854700855,4,2,77,5,0,0
59399,-103.092783505155,4,2,77,87,0,0
59450,-103.092783505155,4,2,77,5,0,0
59500,-103.092783505155,4,2,77,87,0,0
59598,-129.87012987013,4,2,77,87,0,0
59998,-103.092783505155,4,2,77,87,0,0
60150,-103.092783505155,4,2,77,5,0,0
60200,-103.092783505155,4,2,77,87,0,0
60998,-175.438596491228,4,2,77,87,0,0
61198,-85.4700854700855,4,2,77,87,0,0
61598,-129.87012987013,4,2,77,87,0,0
61998,-103.092783505155,4,2,77,87,0,0
62398,-68.0272108843537,4,2,77,87,0,0
62797,-129.87012987013,4,2,77,87,0,0
63198,-85.4700854700855,4,2,77,87,0,0
63598,-103.092783505155,4,2,77,87,0,0
63998,-129.87012987013,4,2,77,87,0,0
64398,-85.4700854700855,4,2,77,87,0,0
65198,-129.87012987013,4,2,77,87,0,0
65549,-129.87012987013,4,2,77,5,0,0
65598,-85.4700854700855,4,2,77,87,0,0
65950,-85.4700854700855,4,2,77,5,0,0
65998,-129.87012987013,4,2,77,87,0,0
66249,-129.87012987013,4,2,77,5,0,0
66300,-129.87012987013,4,2,77,87,0,0
66398,-103.092783505155,4,2,77,87,0,0
67150,-103.092783505155,4,2,77,5,0,0
67200,-103.092783505155,4,2,77,87,0,0
67398,-175.438596491228,4,2,77,87,0,0
67549,-175.438596491228,4,2,77,5,0,0
67598,-85.4700854700855,4,2,77,87,0,0
67950,-85.4700854700855,4,2,77,5,0,0
67998,-129.87012987013,4,2,77,87,0,0
68398,-103.092783505155,4,2,77,87,0,0
68798,-85.4700854700855,4,2,77,87,0,0
69150,-85.4700854700855,4,2,77,5,0,0
69197,-129.87012987013,4,2,77,87,0,0
69598,-85.4700854700855,4,2,77,87,0,0
69998,-103.092783505155,4,2,77,87,0,0
70398,-129.87012987013,4,2,77,87,0,0
70549,-129.87012987013,4,2,77,5,0,0
70600,-129.87012987013,4,2,77,87,0,0
70798,-85.4700854700855,4,2,77,87,0,0
71150,-85.4700854700855,4,2,77,5,0,0
71198,-129.87012987013,4,2,77,87,0,0
71598,-103.092783505155,4,2,77,87,0,0
71950,-103.092783505155,4,2,77,5,0,0
71998,-85.4700854700855,4,2,77,87,0,0
72150,-85.4700854700855,4,2,77,5,0,0
72198,-103.092783505155,4,2,77,87,0,0
72250,-103.092783505155,4,2,77,5,0,0
72300,-103.092783505155,4,2,77,87,0,0
72398,-129.87012987013,4,2,77,87,0,0
72798,-103.092783505155,4,2,77,87,0,0
72950,-103.092783505155,4,2,77,5,0,0
73000,-103.092783505155,4,2,77,87,0,0
73798,-175.438596491228,4,2,77,87,0,0
73998,-85.4700854700855,4,2,77,87,0,0
74350,-85.4700854700855,4,2,77,5,0,0
74398,-129.87012987013,4,2,77,87,0,0
74798,-103.092783505155,4,2,77,87,0,0
75198,-85.4700854700855,4,2,77,87,0,0
75597,-129.87012987013,4,2,77,87,0,0
75998,-85.4700854700855,4,2,77,87,0,0
76398,-103.092783505155,4,2,77,87,0,0
76798,-129.87012987013,4,2,77,87,0,0
76949,-129.87012987013,4,2,77,5,0,0
77000,-129.87012987013,4,2,77,87,0,0
77198,-85.4700854700855,4,2,77,87,0,0
78800,-370.37037037037,4,2,77,27,0,0
80400,-175.438596491226,4,2,77,47,0,0
92800,-370.370370370361,4,2,77,47,0,0
93150,-370.370370370361,4,2,77,5,0,0
93200,-175.438596491226,4,2,77,47,0,0
104400,-370.370370370361,4,2,77,27,0,0
105999,-114.942528735633,4,2,77,67,0,0
106550,-114.942528735633,4,2,77,5,0,0
106600,-114.942528735633,4,2,77,67,0,0
106950,-114.942528735633,4,2,77,5,0,0
107000,-114.942528735633,4,2,77,67,0,0
107350,-114.942528735633,4,2,77,5,0,0
107400,-114.942528735633,4,2,77,67,0,0
111750,-114.942528735633,4,2,77,5,0,0
111800,-114.942528735633,4,2,77,67,0,0
111999,-212.765957446811,4,2,77,67,0,0
112399,-114.942528735633,4,2,77,67,0,0
114150,-114.942528735633,4,2,77,5,0,0
114200,-114.942528735633,4,2,77,67,0,0
115599,-103.092783505155,4,2,77,67,0,0
117199,-175.438596491229,4,2,77,47,0,0
118399,-370.370370370374,4,2,77,47,0,0
118799,-85.4700854700855,4,2,77,87,0,0
119599,-129.87012987013,4,2,77,87,0,0
119999,-85.4700854700855,4,2,77,87,0,0
120150,-85.4700854700855,4,2,77,5,0,0
120200,-85.4700854700855,4,2,77,87,0,0
120399,-129.87012987013,4,2,77,87,0,0
120649,-129.87012987013,4,2,77,5,0,0
120700,-129.87012987013,4,2,77,87,0,0
120799,-103.092783505155,4,2,77,87,0,0
120950,-103.092783505155,4,2,77,5,0,0
121000,-103.092783505155,4,2,77,87,0,0
121550,-103.092783505155,4,2,77,5,0,0
121600,-103.092783505155,4,2,77,87,0,0
121799,-175.438596491228,4,2,77,87,0,0
121949,-175.438596491228,4,2,77,5,0,0
121999,-85.4700854700855,4,2,77,87,0,0
122399,-129.87012987013,4,2,77,87,0,0
122749,-129.87012987013,4,2,77,5,0,0
122799,-103.092783505155,4,2,77,87,0,0
123199,-85.4700854700855,4,2,77,87,0,0
123350,-85.4700854700855,4,2,77,5,0,0
123400,-85.4700854700855,4,2,77,87,0,0
123598,-129.87012987013,4,2,77,87,0,0
123749,-129.87012987013,4,2,77,5,0,0
123800,-129.87012987013,4,2,77,87,0,0
123999,-85.4700854700855,4,2,77,87,0,0
124399,-103.092783505155,4,2,77,87,0,0
124799,-129.87012987013,4,2,77,87,0,0
124949,-129.87012987013,4,2,77,5,0,0
125000,-129.87012987013,4,2,77,87,0,0
125199,-85.4700854700855,4,2,77,87,0,0
125550,-85.4700854700855,4,2,77,5,0,0
125599,-129.87012987013,4,2,77,87,0,0
125949,-129.87012987013,4,2,77,5,0,0
125999,-103.092783505155,4,2,77,87,0,0
126399,-85.4700854700855,4,2,77,87,0,0
126550,-85.4700854700855,4,2,77,5,0,0
126599,-103.092783505155,4,2,77,87,0,0
126650,-103.092783505155,4,2,77,5,0,0
126700,-103.092783505155,4,2,77,87,0,0
126798,-129.87012987013,4,2,77,87,0,0
127198,-103.092783505155,4,2,77,87,0,0
128198,-175.438596491228,4,2,77,87,0,0
128398,-85.4700854700855,4,2,77,87,0,0
128798,-129.87012987013,4,2,77,87,0,0
129198,-103.092783505155,4,2,77,87,0,0
129598,-85.4700854700855,4,2,77,87,0,0
129997,-129.87012987013,4,2,77,87,0,0
130398,-85.4700854700855,4,2,77,87,0,0
130798,-103.092783505155,4,2,77,87,0,0
131198,-129.87012987013,4,2,77,87,0,0
131349,-129.87012987013,4,2,77,5,0,0
131400,-129.87012987013,4,2,77,87,0,0
131598,-85.4700854700855,4,2,77,87,0,0
132398,-129.87012987013,4,2,77,87,0,0
132749,-129.87012987013,4,2,77,5,0,0
132798,-85.4700854700855,4,2,77,87,0,0
133198,-129.87012987013,4,2,77,87,0,0
133598,-103.092783505155,4,2,77,87,0,0
134350,-103.092783505155,4,2,77,5,0,0
134400,-103.092783505155,4,2,77,87,0,0
134598,-175.438596491228,4,2,77,87,0,0
134749,-175.438596491228,4,2,77,5,0,0
134798,-85.4700854700855,4,2,77,87,0,0
135198,-129.87012987013,4,2,77,87,0,0
135598,-103.092783505155,4,2,77,87,0,0
135998,-85.4700854700855,4,2,77,87,0,0
136397,-129.87012987013,4,2,77,87,0,0
136549,-129.87012987013,4,2,77,5,0,0
136600,-129.87012987013,4,2,77,87,0,0
136798,-85.4700854700855,4,2,77,87,0,0
137198,-103.092783505155,4,2,77,87,0,0
137550,-103.092783505155,4,2,77,5,0,0
137598,-129.87012987013,4,2,77,87,0,0
137749,-129.87012987013,4,2,77,5,0,0
137800,-129.87012987013,4,2,77,87,0,0
137998,-85.4700854700855,4,2,77,87,0,0
138398,-129.87012987013,4,2,77,87,0,0
138798,-103.092783505155,4,2,77,87,0,0
139198,-85.4700854700855,4,2,77,87,0,0
139350,-85.4700854700855,4,2,77,5,0,0
139398,-103.092783505155,4,2,77,87,0,0
139450,-103.092783505155,4,2,77,5,0,0
139500,-103.092783505155,4,2,77,87,0,0
139598,-129.87012987013,4,2,77,87,0,0
139998,-103.092783505155,4,2,77,87,0,0
140150,-103.092783505155,4,2,77,5,0,0
140200,-103.092783505155,4,2,77,87,0,0
140998,-175.438596491228,4,2,77,87,0,0
141198,-85.4700854700855,4,2,77,87,0,0
141550,-85.4700854700855,4,2,77,5,0,0
141598,-129.87012987013,4,2,77,87,0,0
141998,-103.092783505155,4,2,77,87,0,0
142398,-85.4700854700855,4,2,77,87,0,0
142797,-129.87012987013,4,2,77,87,0,0
143198,-85.4700854700855,4,2,77,87,0,0
143598,-103.092783505155,4,2,77,87,0,0
143998,-129.87012987013,4,2,77,87,0,0
144149,-129.87012987013,4,2,77,5,0,0
144200,-129.87012987013,4,2,77,87,0,0
144398,-85.4700854700855,4,2,77,87,0,0
146000,-158.795734791067,4,2,77,27,0,0
147600,-175.438596491226,4,2,77,47,0,0
160000,-370.370370370361,4,2,77,47,0,0
171600,-370.370370370361,4,2,77,27,0,0

[Colours]
Combo1 : 151,255,255
Combo2 : 233,233,233

[HitObjects]
25,287,13200,5,2,1:0:0:0:
17,209,13300,1,2,0:0:0:0:
117,235,13400,1,2,1:0:0:0:
97,237,13500,1,0,0:0:0:0:
136,352,13600,2,0,P|111:335|99:304,1,53.3224989422722,2|0,0:0|0:0,0:0:0:0:
201,240,13800,1,2,0:0:0:0:
196,260,13900,1,0,0:0:0:0:
259,351,14000,2,0,P|314:332|373:320,1,106.644997884544,8|0,0:0|0:0,0:0:0:0:
483,120,14400,5,2,0:0:0:0:
488,99,14500,1,0,0:0:0:0:
403,156,14600,1,2,0:0:0:0:
398,135,14700,1,0,0:0:0:0:
460,228,14800,1,2,0:0:0:0:
465,207,14900,1,0,0:0:0:0:
349,269,15000,2,0,P|344:235|330:187,1,79.9837484134083,2|0,0:0|0:0,0:0:0:0:
326,185,15200,2,0,P|295:166|237:206,1,106.644997884544,2|2,0:0|0:0,0:0:0:0:
239,197,15500,1,0,0:0:0:0:
119,136,15600,1,10,0:0:0:0:
119,136,15800,6,0,P|125:107|136:69,1,53.3224989422722,0|0,1:0|0:0,0:0:0:0:
50,200,16000,2,0,P|22:210|-15:221,1,53.3224989422722,0|0,1:0|0:0,0:0:0:0:
144,240,16200,2,0,P|167:258|196:284,1,53.3224989422722,10|0,1:2|0:0,0:0:0:0:
404,340,16400,6,0,P|375:294|399:248,1,106.644997884544,2|2,1:0|0:0,0:0:0:0:
395,250,16700,1,0,0:0:0:0:
290,351,16800,2,0,P|259:343|229:337,1,53.3224989422722,2|0,0:0|0:0,0:0:0:0:
256,202,17000,2,0,P|265:231|276:261,1,53.3224989422722,2|0,1:0|0:0,0:0:0:0:
425,121,17200,6,0,P|384:128|351:106,1,79.9837484134083,10|0,0:0|0:0,0:0:0:0:
345,113,17400,2,0,P|329:80|334:43,1,53.3224989422722,2|0,0:0|0:0,0:0:0:0:
140,133,17600,6,0,P|181:140|214:118,1,79.9837484134083,2|0,0:0|0:0,0:0:0:0:
220,125,17800,2,0,P|236:92|231:55,1,53.3224989422722,2|0,0:0|0:0,0:0:0:0:
287,183,18000,5,2,0:0:0:0:
148,56,18200,1,2,0:0:0:0:
15,190,18400,5,2,1:0:0:0:
81,236,18500,1,2,0:0:0:0:
81,236,18800,6,0,P|108:243|139:254,1,53.3224989422722,2|0,1:0|0:0,0:0:0:0:
205,205,19000,2,0,P|219:228|234:258,1,53.3224989422722,0|0,1:0|0:0,0:0:0:0:
304,350,19200,6,0,P|277:357|246:368,1,53.3224989422722,2|0,1:0|0:0,0:0:0:0:
180,319,19400,2,0,P|165:342|150:372,1,53.3224989422722,10|0,1:2|0:0,0:0:0:0:
319,264,19600,6,0,P|333:214|326:155,1,106.644997884544,2|2,1:0|1:0,0:0:0:0:
327,160,19900,1,0,0:0:0:0:
420,226,20000,1,2,0:0:0:0:
440,221,20100,1,0,0:0:0:0:
502,110,20200,1,2,0:0:0:0:
502,110,20400,6,0,P|496:142|493:182,1,53.3224989422722,10|0,0:0|0:0,0:0:0:0:
493,162,20600,1,2,0:0:0:0:
383,61,20700,2,0,B|335:66|323:100|275:106,1,106.644997884544,2|0,0:0|0:0,0:0:0:0:
217,57,21000,6,0,P|220:32|227:4,1,53.3224989422722,2|0,0:0|0:0,0:0:0:0:
136,90,21200,1,2,0:0:0:0:
282,191,21400,5,2,0:0:0:0:
277,181,21500,2,0,P|229:168|163:161,1,106.644997884544,2|0,0:0|0:0,0:0:0:0:
58,205,21800,2,0,P|43:233|48:269,1,53.3224989422722,2|0,0:0|0:0,0:0:0:0:
128,325,22000,1,10,0:0:0:0:
128,325,22200,6,0,P|156:313|192:306,1,53.3224989422722,2|0,1:0|0:0,0:0:0:0:
250,190,22400,2,0,P|245:220|232:254,1,53.3224989422722,0|0,1:0|0:0,0:0:0:0:
307,371,22600,2,0,P|283:351|261:321,1,53.3224989422722,10|0,1:2|0:0,0:0:0:0:
427,259,22800,5,2,1:0:0:0:
429,233,22900,1,0,0:0:0:0:
330,158,23000,2,0,P|356:162|382:170,1,53.3224989422722,2|0,0:0|0:0,0:0:0:0:
442,114,23200,1,2,0:0:0:0:
444,88,23300,1,0,0:0:0:0:
314,2,23400,2,0,P|324:62|371:79,2,106.644997884544,2|10|2,1:0|0:0|0:0,0:0:0:0:
171,111,24000,1,2,0:0:0:0:
113,56,24100,2,0,P|79:50|47:40,1,53.3224989422722,2|0,0:0|0:0,0:0:0:0:
60,44,24300,1,2,0:0:0:0:
34,206,24400,6,0,P|60:181|87:170,1,53.3224989422722,2|0,0:0|0:0,0:0:0:0:
197,224,24600,1,2,0:0:0:0:
193,202,24700,1,0,0:0:0:0:
111,296,24800,1,2,1:0:0:0:
169,345,24900,1,0,0:0:0:0:
241,329,25000,2,0,P|273:308|326:297,1,79.9837484134083,2|0,0:0|0:0,0:0:0:0:
319,294,25200,6,0,P|334:273|343:237,1,53.3224989422722,10|0,1:2|0:0,0:0:0:0:
435,227,25400,2,0,P|432:201|413:168,1,53.3224989422722,2|0,1:0|0:0,0:0:0:0:
260,222,25600,6,0,P|244:201|235:165,1,53.3224989422722,2|0,1:0|0:0,0:0:0:0:
144,154,25800,2,0,P|146:128|165:95,1,53.3224989422722,10|0,1:2|0:0,0:0:0:0:
294,25,26000,6,0,P|336:37|376:51,1,79.9837484134083,2|0,1:0|0:0,0:0:0:0:
383,45,26200,2,0,P|345:32|315:24,1,53.3224989422722,2|0,1:0|0:0,0:0:0:0:
239,85,26400,5,2,0:0:0:0:
327,242,26600,1,2,0:0:0:0:
163,315,26800,1,10,0:0:0:0:
142,320,26900,1,0,0:0:0:0:
236,346,27000,2,0,P|247:314|225:264,1,79.9837484134083,2|0,0:0|0:0,0:0:0:0:
227,268,27200,6,0,P|222:240|218:207,1,53.3224989422722,2|0,0:0|0:0,0:0:0:0:
59,137,27400,2,0,P|62:163|67:189,1,53.3224989422722,2|0,0:0|0:0,0:0:0:0:
179,83,27600,5,2,0:0:0:0:
201,87,27700,1,0,0:0:0:0:
285,137,27800,2,0,P|307:125|336:114,1,53.3224989422722,2|0,0:0|0:0,0:0:0:0:
474,68,28000,5,2,0:0:0:0:
471,89,28100,1,0,0:0:0:0:
415,169,28200,1,2,0:0:0:0:
412,148,28300,1,0,0:0:0:0:
498,267,28400,5,10,0:0:0:0:
428,245,28500,1,0,0:0:0:0:
368,291,28600,6,0,P|363:320|356:349,1,53.3224989422722,2|0,1:0|0:0,0:0:0:0:
231,231,28800,2,0,P|258:219|286:210,1,53.3224989422722,2|0,1:0|0:0,0:0:0:0:
248,377,29000,2,0,P|224:359|201:340,1,53.3224989422722,10|0,1:2|0:0,0:0:0:0:
281,299,29200,5,2,1:0:0:0:
77,222,29400,2,0,P|68:184|66:143,1,79.9837484134083,2|0,0:0|0:0,0:0:0:0:
71,137,29600,2,0,P|94:121|121:120,1,53.3224989422722,2|0,0:0|0:0,0:0:0:0:
221,205,29800,2,0,P|195:193|180:171,1,53.3224989422722,2|0,1:0|0:0,0:0:0:0:
340,53,30000,2,0,B|368:139|282:110|311:197,1,159.967496826817,10|0,0:0|0:0,0:0:0:0:
421,262,30400,1,2,0:0:0:0:
441,255,30500,1,0,0:0:0:0:
343,350,30600,2,0,P|317:337|279:323,1,53.3224989422722,2|0,0:0|0:0,0:0:0:0:
136,371,30800,2,0,P|160:361|184:349,1,53.3224989422722,2|0,0:0|0:0,0:0:0:0:
226,266,31000,5,2,0:0:0:0:
222,244,31100,1,0,0:0:0:0:
93,261,31200,2,0,P|116:273|141:282,2,53.3224989422722,2|0|2,1:0|0:0|0:0,0:0:0:0:
93,261,31500,1,0,0:0:0:0:
25,102,31600,6,0,P|39:125|47:154,1,53.3224989422722,10|0,1:2|0:0,0:0:0:0:
149,67,31800,2,0,P|143:93|128:119,1,53.3224989422722,2|0,1:0|0:0,0:0:0:0:
340,168,32000,6,0,P|326:191|318:220,1,53.3224989422722,2|0,1:0|0:0,0:0:0:0:
216,133,32200,2,0,P|221:159|236:185,1,53.3224989422722,10|0,1:2|0:0,0:0:0:0:
317,47,32400,5,2,1:0:0:0:
317,47,32600,2,0,B|360:50|373:80|417:83,1,106.644997884544,2|0,1:0|0:0,0:0:0:0:
470,317,33200,1,10,0:0:0:0:
470,317,33600,6,0,P|444:304|406:296,1,53.3224989422722,2|0,0:0|0:0,0:0:0:0:
312,349,33800,1,2,0:0:0:0:
307,369,33900,1,0,0:0:0:0:
343,268,34000,2,0,P|334:240|329:203,1,53.3224989422722,2|0,0:0|0:0,0:0:0:0:
227,303,34200,1,2,0:0:0:0:
227,303,34400,6,0,P|166:283|116:276,1,106.644997884544,2|0,0:0|0:0,0:0:0:0:
52,14,34800,6,0,P|69:34|74:69,1,53.3224989422722,10|0,0:0|0:0,0:0:0:0:
155,60,35000,2,0,P|153:86|132:114,1,53.3224989422722,2|0,1:0|0:0,0:0:0:0:
30,268,35200,6,0,P|37:242|64:220,1,53.3224989422722,2|0,1:0|0:0,0:0:0:0:
14,156,35400,2,0,P|37:143|72:145,1,53.3224989422722,10|0,1:2|0:0,0:0:0:0:
188,265,35600,6,0,P|240:273|290:291,1,106.644997884544,2|0,1:0|0:0,0:0:0:0:
290,291,35900,1,0,0:0:0:0:
406,242,36000,2,0,P|386:216|378:182,1,53.3224989422722,2|0,0:0|0:0,0:0:0:0:
462,104,36200,1,2,1:0:0:0:
466,83,36300,1,0,0:0:0:0:
327,113,36400,2,0,P|355:118|387:127,1,53.3224989422722,10|0,0:0|0:0,0:0:0:0:
267,14,36600,2,0,P|239:19|207:28,1,53.3224989422722,2|0,0:0|0:0,0:0:0:0:
123,113,36800,1,2,0:0:0:0:
121,91,36900,1,0,0:0:0:0:
207,182,37000,2,0,P|232:175|259:170,1,53.3224989422722,2|0,0:0|0:0,0:0:0:0:
361,272,37200,5,2,1:0:0:0:
358,293,37300,1,0,0:0:0:0:
283,329,37400,1,10,0:0:0:0:
280,308,37500,1,0,0:0:0:0:
351,370,37600,2,0,P|377:373|402:381,1,53.3224989422722,2|0,1:0|0:0,0:0:0:0:
212,265,37800,5,0,0:0:0:0:
153,311,37900,1,0,0:0:0:0:
169,383,38000,1,2,1:0:0:0:
56,202,38200,6,0,P|94:207|142:222,1,79.9837484134083,2|0,1:0|0:0,0:0:0:0:
145,212,38400,5,0,1:0:0:0:
194,85,38533,5,0,1:0:0:0:
325,61,38666,5,0,1:0:0:0:
489,164,38800,6,0,P|424:173|376:208,1,120.495001011234,14|0,1:2|0:0,0:0:0:0:
339,356,39100,1,0,3:0:0:0:
277,321,39200,2,0,P|313:283|367:290,1,90.3712507584257,8|0,1:0|0:0,0:0:0:0:
348,281,39400,2,0,P|315:302|294:304,1,60.2475005056171,2|0,3:0|0:0,0:0:0:0:
188,197,39600,2,0,B|192:160|168:144|173:107,1,90.3712507584257,10|0,0:2|0:0,0:0:0:0:
173,108,39800,2,0,P|208:87|228:86,1,60.2475005056171,0|0,3:0|0:0,0:0:0:0:
173,205,40000,2,0,P|136:187|79:179,1,90.3712507584257,10|0,1:0|0:0,0:0:0:0:
80,189,40200,1,2,3:0:0:0:
186,384,40400,6,0,P|164:335|204:281,1,120.495001011234,10|0,1:2|0:0,0:0:0:0:
198,283,40700,1,0,3:0:0:0:
382,250,40800,2,0,P|324:232|264:223,1,120.495001011234,10|0,1:0|3:0,0:0:0:0:
456,33,41200,6,0,P|464:62|480:128,1,90.3712507584257,10|0,0:0|0:0,0:0:0:0:
474,132,41400,2,0,P|466:102|459:73,1,60.2475005056171,0|0,3:0|0:0,0:0:0:0:
356,12,41600,1,10,1:0:0:0:
356,12,42000,6,0,P|295:29|238:52,1,120.495001011234,10|0,1:2|0:0,0:0:0:0:
112,165,42300,1,0,3:0:0:0:
175,208,42400,2,0,P|180:171|189:137,1,60.2475005056171,8|0,1:0|0:0,0:0:0:0:
40,268,42600,1,2,3:0:0:0:
40,268,42800,6,0,P|104:287|154:315,2,120.495001011234,10|0|8,0:0|3:0|1:0,0:0:0:0:
233,371,43400,6,0,P|249:345|251:306,1,60.2475005056171,2|0,3:0|0:0,0:0:0:0:
220,139,43600,2,0,B|226:188|195:208|201:258,1,120.495001011234,10|0,1:2|0:0,0:0:0:0:
200,256,43900,1,0,3:0:0:0:
368,267,44000,2,0,P|327:250|282:236,1,90.3712507584257,10|0,1:0|0:0,0:0:0:0:
284,227,44200,2,0,P|308:234|345:249,1,60.2475005056171,0|0,3:0|0:0,0:0:0:0:
408,99,44400,2,0,P|389:115|357:139,1,60.2475005056171,10|0,0:0|0:0,0:0:0:0:
481,219,44600,1,0,3:0:0:0:
481,219,44800,6,0,L|487:179,3,32.5474995033646,2|0|0|0,1:0|0:0|0:0|0:0,0:0:0:0:
512,297,45200,6,0,P|469:251|412:271,1,120.495001011234,10|0,1:2|1:0,0:0:0:0:
283,338,45500,1,0,3:0:0:0:
341,383,45600,2,0,P|354:352|356:323,1,60.2475005056171,8|0,1:0|0:0,0:0:0:0:
263,198,45800,1,10,1:0:0:0:
260,209,45900,1,0,3:0:0:0:
204,265,46000,2,0,P|169:268|138:275,1,60.2475005056171,10|0,1:2|0:0,0:0:0:0:
83,77,46200,2,0,P|104:105|126:127,1,60.2475005056171,8|0,1:0|0:0,0:0:0:0:
0,279,46400,2,0,P|12:246|19:215,1,60.2475005056171,8|0,1:0|0:0,0:0:0:0:
100,205,46600,1,10,1:0:0:0:
260,40,46800,6,0,P|307:45|371:57,1,90.3712507584257,10|0,1:2|0:0,0:0:0:0:
354,60,47000,1,0,1:0:0:0:
402,126,47100,1,0,3:0:0:0:
479,104,47200,1,8,1:0:0:0:
388,319,47400,5,10,1:0:0:0:
391,307,47500,1,0,3:0:0:0:
324,219,47600,6,0,P|302:245|303:280,1,60.2475005056171,10|0,1:2|0:0,0:0:0:0:
476,336,47800,2,0,P|498:310|497:275,1,60.2475005056171,8|0,1:0|0:0,0:0:0:0:
437,182,48000,5,10,1:0:0:0:
230,345,48200,1,0,1:0:0:0:
54,170,48400,5,10,0:0:0:0:
52,163,48500,1,0,1:0:0:0:
99,106,48600,1,8,0:1:0:0:
172,101,48700,1,8,0:1:0:0:
214,162,48800,6,0,P|206:196|199:235,1,67.1725015887051,10|0,0:0|1:0,0:0:0:0:
328,344,49000,5,8,0:1:0:0:
330,337,49100,1,8,1:1:0:0:
393,299,49200,1,10,0:0:0:0:
386,225,49300,1,8,0:1:0:0:
322,169,49400,5,8,0:1:0:0:
310,167,49500,1,0,1:0:0:0:
244,116,49600,1,10,0:0:0:0:
216,126,49700,1,0,1:0:0:0:
165,180,49800,1,8,0:1:0:0:
100,144,49900,1,8,1:1:0:0:
98,134,50000,6,0,L|95:124,4,9.86812487953949,2|0|0|0|0,3:0|0:0|0:0|0:0|0:0,0:0:0:0:
68,224,50200,2,0,L|72:241,4,9.86812487953949,0|0|0|0|0,3:0|0:0|0:0|0:0|0:0,0:0:0:0:
143,270,50400,6,0,L|139:287,4,9.86812487953949,0|0|0|0|0,3:0|0:0|0:0|0:0|0:0,0:0:0:0:
77,337,50600,2,0,L|73:354,4,9.86812487953949,0|0|0|0|0,3:0|0:0|0:0|0:0|0:0,0:0:0:0:
306,178,50800,5,2,3:0:0:0:
237,150,50933,5,0,3:0:0:0:
167,125,51066,5,0,3:0:0:0:
101,166,51200,6,0,L|71:174,2,24.9300006086426,10|8|8,0:3|0:3|0:3,0:0:0:0:
100,91,51600,6,0,B|65:99|65:99|31:91|31:-13|134:-46|220:56|168:125,1,324.090001236305,4|0,1:0|0:0,0:0:0:0:
76,350,52300,1,0,0:0:0:0:
141,321,52400,2,0,B|160:301|160:263|121:243|121:243|83:224|83:186|102:166,1,186.628746297953,8|0,0:0|0:0,0:0:0:0:
110,167,52800,6,0,L|205:178,1,81.0225003090763,4|0,1:0|0:0,0:0:0:0:
395,133,53000,2,0,B|411:101|379:69|379:69|395:101|379:133,1,121.533750463614,0|0,1:0|0:0,0:0:0:0:
337,186,53200,6,0,B|310:165|278:155|278:155|299:128|309:96,1,133.306247355681
306,89,53500,1,0,0:0:0:0:
414,214,53600,2,0,P|447:193|510:177,1,100.758752383058
512,183,53800,1,2,0:0:0:0:
343,340,54000,5,10,0:0:0:0:
359,267,54100,1,0,0:0:0:0:
141,324,54200,2,0,L|248:348,1,100.758752383058,8|0,0:1|0:0,0:0:0:0:
250,348,54400,2,0,P|272:316|269:269,1,67.1725015887051,2|0,0:0|0:0,0:0:0:0:
69,110,54600,6,0,L|75:172,1,59.2087492772369,8|0,0:1|0:0,0:0:0:0:
83,178,54800,6,0,B|185:165|185:165|253:157|241:54|172:62|172:62|138:67,1,283.578751081767,6|0,1:0|0:0,0:0:0:0:
145,66,55200,5,0,0:0:0:0:
247,167,55300,1,0,0:0:0:0:
335,14,55400,2,0,P|301:44|306:87,1,79.9837484134083,2|0,0:0|0:0,0:0:0:0:
306,85,55600,2,0,P|374:93|441:118,1,134.34500317741,10|0,0:0|0:0,0:0:0:0:
435,115,55850,1,0,0:0:0:0:
435,115,55900,1,0,0:0:0:0:
382,266,56000,6,0,P|365:227|357:184,1,81.0225003090763,4|0,1:0|0:0,0:0:0:0:
239,384,56200,2,0,B|161:374|161:374|187:371|200:359,1,121.533750463614,0|0,1:0|0:0,0:0:0:0:
157,300,56400,6,0,L|72:291,1,79.9837484134083
67,289,56600,1,0,0:0:0:0:
120,216,56700,1,0,0:0:0:0:
71,4,56800,6,0,B|97:27|101:77|53:105|53:105|4:133|8:183|35:206,1,243.067500927229,0|0,1:0|0:0,0:0:0:0:
323,90,57200,2,0,B|371:60|327:-11|240:7|223:116|289:143,1,201.517504766115,10|0,0:0|0:0,0:0:0:0:
422,278,57600,2,0,P|444:244|429:202,1,79.9837484134083,2|0,1:0|0:0,0:0:0:0:
365,177,57800,5,0,0:0:0:0:
354,178,57850,1,0,0:0:0:0:
343,180,57900,1,0,0:0:0:0:
332,181,57950,1,0,0:0:0:0:
321,183,58000,2,0,B|280:219|222:196|222:196|263:260|241:327|241:327|245:331|245:331|255:400,1,283.578751081767,6|0,1:0|0:0,0:0:0:0:
261,371,58400,1,0,0:0:0:0:
61,224,58600,6,0,B|38:224|29:252|29:252|44:236|65:233,1,79.9837484134083,2|0,0:0|0:0,0:0:0:0:
86,310,58800,2,0,B|61:285|61:237|110:213|110:213|158:189|158:140|134:116,1,235.103755560468,10|0,0:0|0:0,0:0:0:0:
127,107,59200,6,0,B|186:114|186:114|190:118|190:118|246:125,1,121.533750463614,4|0,1:0|0:0,0:0:0:0:
306,91,59400,2,0,P|313:104|316:128,1,33.5862507943526,2|0,0:0|0:0,0:0:0:0:
280,193,59500,1,0,0:0:0:0:
279,203,59550,1,0,0:0:0:0:
279,213,59600,2,0,P|330:152|400:175,1,159.967496826817,2|0,0:0|0:0,0:0:0:0:
480,364,60000,6,0,P|484:316|500:257,1,100.758752383058,0|0,1:0|0:0,0:0:0:0:
492,258,60200,2,0,P|482:293|475:338,1,67.1725015887051,2|0,0:0|0:0,0:0:0:0:
232,363,60400,5,10,0:0:0:0:
220,267,60600,5,0,0:0:0:0:
208,172,60800,5,0,0:0:0:0:
208,172,61000,1,2,0:0:0:0:
1,296,61200,6,0,P|102:313|245:370,1,243.067500927229,6|0,1:0|0:0,0:0:0:0:
393,371,61600,2,0,P|372:350|335:345,1,53.3224989422722
303,211,61800,2,0,P|295:239|311:273,1,53.3224989422722,2|0,0:0|0:0,0:0:0:0:
133,195,62000,6,0,P|165:134|154:64,1,134.34500317741,10|0,0:0|0:0,0:0:0:0:
157,71,62250,1,0,0:0:0:0:
157,71,62300,1,0,0:0:0:0:
348,239,62400,6,0,B|360:242|360:242|364:225|351:222|337:219|334:234|334:234|330:251|343:254|357:257|360:242|360:242|360:242,1,101.797495262415,4|0,1:0|0:0,0:0:0:0:
260,125,62600,2,0,B|272:119|272:119|267:104|253:108|241:113|246:129|246:129|251:144|265:140|277:135|272:119|272:119|272:119,1,101.797495262415,2|0,1:0|0:0,0:0:0:0:
195,256,62800,6,0,B|178:272|145:272|129:239|129:239|113:206|80:206|63:223,1,159.967496826817,2|0,0:0|0:0,0:0:0:0:
401,336,63200,6,0,P|420:259|472:166,1,162.045000618153,2|0,1:0|0:0,0:0:0:0:
457,185,63450,1,8,0:1:0:0:
457,185,63500,1,8,0:1:0:0:
312,313,63600,5,10,1:2:0:0:
339,215,63733,1,8,0:1:0:0:
238,180,63866,1,8,0:1:0:0:
155,313,64000,6,0,P|119:307|84:302,1,71.0966652563629,14|0,0:3|0:0,0:0:0:0:
21,201,64200,2,0,L|28:167,3,26.6612494711361,8|0|0|0,0:1|0:0|0:0|0:0,0:0:0:0:
98,197,64400,6,0,B|116:93|116:93|120:53|90:26|39:45|35:85|65:113|65:113|119:151,1,324.090001236305,4|0,1:0|0:0,0:0:0:0:
434,159,65100,1,0,0:0:0:0:
376,109,65200,2,0,L|189:155,1,186.628746297953,8|0,0:0|0:0,0:0:0:0:
192,166,65600,6,0,L|181:249,1,81.0225003090763,4|0,1:0|0:0,0:0:0:0:
421,337,65800,2,0,P|386:290|328:314,1,121.533750463614,0|0,1:0|0:0,0:0:0:0:
322,317,66000,6,0,P|284:363|205:354,1,133.306247355681
212,349,66300,1,0,0:0:0:0:
78,271,66400,2,0,P|85:222|102:136,1,134.34500317741
385,332,66800,5,10,0:1:0:0:
455,310,66900,1,0,0:0:0:0:
398,162,67000,2,0,P|387:206|403:265,1,100.758752383058,8|0,0:1|0:0,0:0:0:0:
407,258,67200,2,0,P|394:222|396:185,1,67.1725015887051,2|0,0:0|0:0,0:0:0:0:
500,44,67400,6,0,P|474:60|431:53,1,59.2087492772369,8|0,0:1|0:0,0:0:0:0:
439,55,67600,6,0,B|407:23|343:23|311:87|311:87|279:151|215:151|183:119,1,283.578751081767,6|0,1:0|0:0,0:0:0:0:
202,121,68000,5,0,0:0:0:0:
147,21,68100,1,0,0:0:0:0:
84,107,68200,2,0,P|52:111|20:119,1,53.3224989422722,2|0,0:0|0:0,0:0:0:0:
91,318,68400,2,0,P|69:265|78:181,1,134.34500317741,10|0,0:0|0:0,0:0:0:0:
74,189,68650,1,0,0:0:0:0:
74,189,68700,1,0,0:0:0:0:
207,296,68800,6,0,P|248:308|289:325,1,81.0225003090763,4|0,1:0|0:0,0:0:0:0:
441,205,69000,2,0,P|405:256|434:306,1,121.533750463614,2|0,1:0|0:0,0:0:0:0:
428,315,69200,6,0,P|399:281|395:267,1,53.3224989422722,2|0,0:0|0:0,0:0:0:0:
444,194,69400,1,0,0:0:0:0:
403,81,69500,1,0,0:0:0:0:
265,144,69600,6,0,B|204:143|203:54|293:21|370:110|332:173,1,243.067500927229,0|0,1:0|0:0,0:0:0:0:
92,376,70000,2,0,B|126:272|-11:307|23:203,1,201.517504766115,10|0,0:0|0:0,0:0:0:0:
141,7,70400,2,0,P|163:42|143:95,1,79.9837484134083,2|0,1:0|0:0,0:0:0:0:
102,147,70600,5,0,0:0:0:0:
110,153,70650,1,0,0:0:0:0:
119,159,70700,1,0,0:0:0:0:
129,163,70750,1,0,0:0:0:0:
139,165,70800,2,0,B|171:133|235:133|267:197|267:197|299:261|363:261|395:229,1,283.578751081767,6|0,1:0|0:0,0:0:0:0:
376,234,71200,2,0,P|299:232|212:266,1,159.967496826817,2|0,0:0|0:0,0:0:0:0:
436,384,71600,2,0,P|442:306|482:148,1,235.103755560468,10|0,0:0|0:0,0:0:0:0:
489,149,72000,6,0,P|454:105|383:114,1,121.533750463614,6|0,1:0|0:0,0:0:0:0:
339,153,72200,2,0,P|329:139|324:123,1,33.5862507943526
346,49,72300,1,0,0:0:0:0:
347,39,72350,1,0,0:0:0:0:
348,28,72400,2,0,P|272:7|216:58,1,159.967496826817,2|0,0:0|0:0,0:0:0:0:
142,221,72800,6,0,P|94:234|37:255,1,100.758752383058,2|0,1:0|0:0,0:0:0:0:
42,243,73000,2,0,P|81:231|110:222,1,67.1725015887051
237,202,73200,5,10,0:0:0:0:
164,344,73400,5,0,0:0:0:0:
329,329,73600,5,0,0:0:0:0:
329,329,73800,1,0,0:0:0:0:
512,113,74000,6,0,B|477:83|414:87|386:153|386:153|359:219|295:224|261:194,1,283.578751081767,6|0,1:0|0:0,0:0:0:0:
280,197,74400,2,0,P|272:165|275:142,1,53.3224989422722,2|0,0:0|0:0,0:0:0:0:
192,108,74600,2,0,P|208:79|226:64,1,53.3224989422722
179,215,74800,6,0,P|109:231|46:270,1,134.34500317741,10|0,0:0|0:0,0:0:0:0:
55,262,75050,1,0,0:0:0:0:
55,262,75100,1,0,0:0:0:0:
194,374,75200,6,0,P|200:328|216:295,1,81.0225003090763,6|0,1:0|0:0,0:0:0:0:
367,201,75400,2,0,P|324:220|288:223,1,81.0225003090763,0|0,1:0|0:0,0:0:0:0:
205,57,75600,6,0,P|190:125|178:229,1,159.967496826817,2|0,0:0|0:0,0:0:0:0:
79,65,76000,2,0,B|32:48|-6:97|-6:97|34:70|81:87,1,162.045000618153,2|2,1:0|0:0,0:0:0:0:
53,80,76250,1,8,0:1:0:0:
53,80,76300,1,8,0:1:0:0:
136,162,76400,5,10,1:2:0:0:
256,137,76533,1,8,0:1:0:0:
300,58,76666,1,8,0:1:0:0:
380,65,76800,6,0,L|394:148,1,79.9837484134083,14|0,0:3|0:0,0:0:0:0:
463,183,77000,2,0,L|456:219,3,26.6612494711361,8|0|0|0,0:1|0:0|0:0|0:0,0:0:0:0:
466,174,77200,5,2,0:0:0:0:
40,115,78800,6,0,B|45:117|50:118|50:118|53:116|53:116|52:120|52:120|54:119|54:119|59:120|65:121|65:121|66:119|66:119|66:123|66:123|67:121|67:121|73:122|78:123|78:123|80:121|80:121|80:125|80:125|81:123|81:123|88:124|92:124|92:124|94:122|94:122|94:127|94:127|95:124|95:124|102:124|107:123|107:123|108:121|108:121|108:125|108:125|111:123|111:123|116:122|122:121|122:121|122:119|122:119|123:122|123:122|124:120|124:120|129:118|135:116|135:116|135:113|135:113|137:117|137:117|137:115|137:115|143:109|143:109|143:113|146:116|146:116|148:115|148:115|146:118|146:118|148:118|148:118|152:121|157:124|157:124|159:123|159:123|157:127|157:127|160:125|160:125|164:129|170:131|170:131|172:130|172:130|170:134|170:134|172:132|172:132|178:134|183:136|183:136|185:134|185:134|184:139|184:139|186:136|186:136|192:139|197:139|197:139|199:136|199:136|198:141|198:141|200:140|200:140|206:140|211:140|211:140|213:137|213:137|213:142|213:142|215:140|215:140|219:140|221:140,1,280.462506847229,0|0,3:0|0:0,0:0:0:0:
287,110,80400,6,0,P|295:81|300:44,1,52.629999357544,10|0,1:3|0:0,0:0:0:0:
298,58,80666,1,2,0:0:0:0:
383,169,80800,2,0,P|322:188|284:212,1,105.259998715088,10|2,1:3|0:0,0:0:0:0:
260,289,81200,1,8,0:0:0:0:
500,358,81466,5,2,0:0:0:0:
433,319,81600,1,2,0:0:0:0:
426,314,81700,2,0,L|432:279,2,19.736249759079,0|0|2,0:0|0:0|1:0,0:0:0:0:
315,372,82000,6,0,P|287:362|232:351,1,78.9449990363159,2|0,0:0|1:0,0:0:0:0:
234,359,82266,1,2,0:0:0:0:
94,259,82400,2,0,P|89:230|82:200,1,52.629999357544,2|0,1:0|0:0,0:0:0:0:
83,207,82666,1,2,0:0:0:0:
186,260,82800,2,0,P|181:231|174:201,1,52.629999357544,10|0,0:0|0:0,0:0:0:0:
268,273,83066,1,2,0:0:0:0:
278,276,83200,2,0,P|273:247|266:217,1,52.629999357544,2|0,0:0|0:0,0:0:0:0:
179,117,83466,5,0,0:0:0:0:
182,106,83600,2,0,P|207:90|251:87,1,52.629999357544,2|0,1:0|0:0,0:0:0:0:
344,161,83866,1,2,0:0:0:0:
333,164,84000,2,0,P|306:151|280:115,1,52.629999357544,2|0,1:0|0:0,0:0:0:0:
357,9,84266,1,2,0:0:0:0:
301,58,84400,1,10,0:0:0:0:
471,155,84666,1,2,0:0:0:0:
464,163,84800,2,0,P|442:228|436:274,1,105.259998715088,2|0,0:0|0:0,0:0:0:0:
328,313,85200,6,0,P|309:298|275:290,2,52.629999357544,2|2|2,0:0|0:0|0:0,0:0:0:0:
246,219,85600,1,2,0:0:0:0:
227,229,85733,1,2,0:0:0:0:
212,244,85866,1,2,0:0:0:0:
135,337,86000,2,0,P|109:330|88:314,1,52.629999357544,10|0,0:0|0:0,0:0:0:0:
71,313,86200,2,0,P|62:288|63:262,1,52.629999357544,0|0,1:0|0:0,0:0:0:0:
78,246,86400,1,2,0:0:0:0:
177,106,86600,2,0,L|150:111,1,26.314999678772,2|0,1:0|0:0,0:0:0:0:
79,120,86800,6,0,P|57:87|67:39,1,78.9449990363159,10|0,1:3|0:0,0:0:0:0:
259,87,87200,2,0,P|262:48|240:16,1,78.9449990363159,10|0,1:3|0:0,0:0:0:0:
229,18,87466,1,2,0:0:0:0:
330,109,87600,2,0,P|368:112|398:120,1,52.629999357544,10|0,0:0|0:0,0:0:0:0:
389,124,87800,1,2,0:0:0:0:
454,222,88000,1,2,0:0:0:0:
447,226,88100,2,0,L|444:255,2,19.736249759079,0|0|2,0:0|0:0|1:0,0:0:0:0:
291,339,88400,6,0,P|282:303|262:265,1,78.9449990363159,2|2,0:0|1:0,0:0:0:0:
248,267,88666,1,2,0:0:0:0:
129,158,88800,2,0,P|154:166|180:169,1,52.629999357544,2|0,1:0|0:0,0:0:0:0:
188,179,89000,2,0,P|211:167|232:152,1,52.629999357544,2|0,0:0|0:0,0:0:0:0:
230,142,89200,1,10,0:0:0:0:
49,40,89600,5,2,0:0:0:0:
66,184,89800,1,0,1:0:0:0:
214,41,90000,5,2,1:0:0:0:
136,98,90200,1,0,0:0:0:0:
314,168,90400,5,2,1:0:0:0:
222,136,90600,1,0,0:0:0:0:
437,17,90800,5,10,0:0:0:0:
295,90,91000,1,2,0:0:0:0:
332,244,91200,1,2,0:0:0:0:
414,238,91400,5,2,0:0:0:0:
414,230,91500,1,2,0:0:0:0:
415,222,91600,1,2,0:0:0:0:
268,290,91800,1,2,1:0:0:0:
269,298,91900,1,2,0:0:0:0:
269,306,92000,1,2,0:0:0:0:
377,359,92200,5,2,1:0:0:0:
277,187,92400,1,10,0:0:0:0:
162,349,92600,1,2,1:0:0:0:
95,312,92800,2,0,P|90:279|88:241,1,65.4412515976868,2|0,0:0|0:0,0:0:0:0:
94,238,93200,6,0,P|100:213|103:183,1,52.629999357544,10|0,1:3|0:0,0:0:0:0:
103,186,93466,1,2,0:0:0:0:
182,88,93600,2,0,P|186:142|198:200,1,105.259998715088,10|2,1:3|0:0,0:0:0:0:
83,78,94000,1,10,0:0:0:0:
281,205,94400,1,2,0:0:0:0:
283,197,94500,2,0,L|321:193,2,19.736249759079,0|0|0,0:0|0:0|1:0,0:0:0:0:
443,50,94800,6,0,P|417:75|411:128,1,78.9449990363159,2|0,0:0|1:0,0:0:0:0:
418,124,95066,1,2,0:0:0:0:
382,250,95200,2,0,P|404:241|435:233,1,52.629999357544,2|0,1:0|0:0,0:0:0:0:
431,233,95466,1,2,0:0:0:0:
353,363,95600,2,0,P|330:318|259:309,1,105.259998715088,10|0,0:0|0:0,0:0:0:0:
122,358,96000,2,0,P|158:372|194:345,1,78.9449990363159,2|0,0:0|1:0,0:0:0:0:
190,343,96266,5,2,0:0:0:0:
98,284,96400,2,0,P|94:255|94:226,1,52.629999357544,2|2,1:0|0:0,0:0:0:0:
93,231,96666,1,2,0:0:0:0:
186,130,96800,1,2,1:0:0:0:
196,111,96933,1,2,0:0:0:0:
198,90,97066,1,2,0:0:0:0:
127,49,97200,1,10,0:0:0:0:
127,49,97600,6,0,B|170:54|188:78|231:83,2,105.259998715088,2|2|2,0:0|0:0|0:0,0:0:0:0:
117,58,98200,1,0,1:0:0:0:
285,135,98400,1,2,0:0:0:0:
298,118,98533,1,2,0:0:0:0:
305,98,98666,1,2,0:0:0:0:
209,162,98800,2,0,P|220:201|226:261,1,78.9449990363159,10|0,0:0|1:0,0:0:0:0:
487,350,99200,6,0,P|466:340|439:336,1,39.472499518158,2|0,0:0|0:0,0:0:0:0:
344,376,99400,2,0,P|363:363|381:342,1,39.472499518158,0|0,1:0|0:0,0:0:0:0:
401,272,99600,6,0,P|395:233|388:172,1,78.9449990363159,10|0,1:3|0:0,0:0:0:0:
243,355,100000,2,0,P|237:316|230:255,1,78.9449990363159,10|0,1:3|0:0,0:0:0:0:
226,271,100266,1,2,0:0:0:0:
107,222,100400,1,10,0:0:0:0:
88,232,100533,1,2,0:0:0:0:
77,250,100666,1,2,0:0:0:0:
155,317,100800,1,2,0:0:0:0:
145,310,100900,2,0,L|143:274,2,19.736249759079,0|0|2,0:0|0:0|1:0,0:0:0:0:
58,124,101200,6,0,P|80:115|121:111,1,52.629999357544,2|0,0:0|0:0,0:0:0:0:
121,118,101400,1,2,1:0:0:0:
258,35,101600,1,2,1:0:0:0:
243,50,101733,1,2,0:0:0:0:
236,70,101866,1,2,0:0:0:0:
309,169,102000,2,0,P|354:182|414:216,1,105.259998715088,10|2,0:0|0:0,0:0:0:0:
458,82,102400,2,0,P|417:91|381:123,1,78.9449990363159,2|0,0:0|1:0,0:0:0:0:
262,240,102800,5,2,1:0:0:0:
263,254,102900,1,2,0:0:0:0:
265,269,103000,1,2,0:0:0:0:
98,343,103200,2,0,P|72:337|49:325,2,52.629999357544,2|2|2,1:0|0:0|0:0,0:0:0:0:
165,261,103600,1,10,0:0:0:0:
62,47,104000,5,2,0:0:0:0:
62,47,104400,2,0,L|149:62,2,74.7900018259278,2|0|0,0:0|0:0|0:0,0:0:0:0:
438,33,105600,6,0,L|436:49,1,12.4650003043213
438,33,106000,2,0,L|419:173,1,120.495001011234,14|0,1:2|0:0,0:0:0:0:
279,240,106300,1,0,3:0:0:0:
329,301,106400,2,0,P|375:306|432:327,1,90.3712507584257,8|0,1:0|0:0,0:0:0:0:
426,313,106600,2,0,P|400:304|361:295,1,60.2475005056171,2|0,3:0|0:0,0:0:0:0:
180,370,106800,2,0,P|215:338|212:281,1,90.3712507584257,10|0,0:2|0:0,0:0:0:0:
210,294,107000,2,0,P|211:327|194:351,1,60.2475005056171,0|0,3:0|0:0,0:0:0:0:
48,277,107200,2,0,P|37:213|41:184,1,90.3712507584257,10|0,1:0|0:0,0:0:0:0:
47,184,107400,1,2,3:0:0:0:
204,46,107600,6,0,B|250:51|271:78|318:83,1,120.495001011234,10|0,1:2|0:0,0:0:0:0:
379,24,107900,1,0,3:0:0:0:
204,120,108000,2,0,P|198:169|214:240,1,120.495001011234,10|0,1:0|3:0,0:0:0:0:
463,287,108400,6,0,P|439:267|397:262,1,60.2475005056171,10|0,0:0|0:0,0:0:0:0:
222,380,108600,2,0,P|251:370|278:337,1,60.2475005056171,0|0,3:0|0:0,0:0:0:0:
287,189,108800,1,10,1:0:0:0:
287,189,109200,6,0,P|319:235|335:302,1,120.495001011234,10|0,1:2|0:0,0:0:0:0:
442,145,109500,1,0,3:0:0:0:
382,97,109600,2,0,P|354:106|312:117,1,60.2475005056171,8|0,1:0|0:0,0:0:0:0:
144,27,109800,1,2,3:0:0:0:
144,27,110000,6,0,P|189:27|211:98,2,120.495001011234,10|0|8,0:0|3:0|1:0,0:0:0:0:
18,160,110600,2,0,P|26:189|32:219,1,60.2475005056171,2|0,3:0|0:0,0:0:0:0:
190,273,110800,2,0,P|168:229|96:245,1,120.495001011234,10|0,1:2|0:0,0:0:0:0:
56,300,111100,1,0,3:0:0:0:
205,269,111200,2,0,P|232:278|262:290,1,60.2475005056171,10|0,1:0|0:0,0:0:0:0:
214,108,111400,2,0,P|192:126|165:145,1,60.2475005056171,0|0,3:0|0:0,0:0:0:0:
352,211,111600,2,0,P|338:167|328:116,1,90.3712507584257,10|0,0:0|0:0,0:0:0:0:
334,113,111800,1,0,3:0:0:0:
96,29,112000,6,0,L|58:23,3,32.5474995033646,2|0|0|0,1:0|0:0|0:0|0:0,0:0:0:0:
169,41,112400,6,0,L|182:165,1,120.495001011234,10|0,1:2|1:0,0:0:0:0:
351,46,112700,1,0,3:0:0:0:
310,107,112800,2,0,L|242:90,1,60.2475005056171,8|0,1:0|0:0,0:0:0:0:
367,200,113000,1,10,1:0:0:0:
370,189,113100,1,0,3:0:0:0:
283,206,113200,2,0,P|291:235|296:275,1,60.2475005056171,10|0,1:2|0:0,0:0:0:0:
153,315,113400,2,0,P|170:290|184:264,1,60.2475005056171,8|0,1:0|0:0,0:0:0:0:
26,234,113600,2,0,P|56:229|85:220,1,60.2475005056171,8|0,1:0|0:0,0:0:0:0:
168,73,113800,1,10,1:0:0:0:
352,339,114000,6,0,P|390:350|426:305,1,90.3712507584257,10|0,1:2|0:0,0:0:0:0:
418,303,114200,1,0,1:0:0:0:
360,225,114300,1,0,3:0:0:0:
405,131,114400,1,8,1:0:0:0:
172,48,114600,5,10,1:0:0:0:
174,61,114700,1,0,3:0:0:0:
82,111,114800,6,0,P|50:104|15:100,1,60.2475005056171,10|0,1:2|0:0,0:0:0:0:
249,138,115000,2,0,P|278:141|308:148,1,60.2475005056171,8|0,1:0|0:0,0:0:0:0:
150,224,115200,5,10,1:0:0:0:
307,59,115400,1,0,1:0:0:0:
460,216,115600,5,10,0:0:0:0:
462,223,115700,1,0,1:0:0:0:
416,281,115800,1,8,0:1:0:0:
342,288,115900,1,8,0:1:0:0:
281,245,116000,6,0,P|273:201|273:173,1,67.1725015887051,10|0,0:0|1:0,0:0:0:0:
159,302,116200,5,8,0:1:0:0:
150,302,116300,1,8,1:1:0:0:
80,270,116400,1,10,0:0:0:0:
67,197,116500,1,8,0:1:0:0:
146,163,116600,5,8,0:1:0:0:
148,151,116700,1,0,1:0:0:0:
93,89,116800,1,10,0:0:0:0:
86,59,116900,1,0,1:0:0:0:
142,11,117000,1,8,0:1:0:0:
211,36,117100,1,8,1:1:0:0:
217,40,117200,6,0,L|227:37,14,9.86812487953949,0|0|0|0|0|0|0|0|0|0|0|0|0|0|0,3:0|0:0|0:0|0:0|0:0|0:0|0:0|0:0|0:0|0:0|0:0|0:0|0:0|0:0|0:0,0:0:0:0:
255,113,117600,5,8,0:1:0:0:
238,195,117733,5,8,0:1:0:0:
289,261,117866,5,8,0:1:0:0:
238,328,118000,5,8,0:1:0:0:
238,328,118200,1,8,0:1:0:0:
434,203,118400,6,0,L|464:208,2,24.9300006086426,10|8|8,0:3|0:3|0:3,0:0:0:0:
388,141,118800,6,0,B|363:116|310:116|283:168|283:168|257:221|204:221|178:195|178:195|223:209|251:186,1,324.090001236305,4|0,1:0|0:0,0:0:0:0:
116,42,119500,1,0,0:0:0:0:
68,99,119600,2,0,P|145:72|208:134,1,159.967496826817,8|0,0:0|0:0,0:0:0:0:
38,212,120000,6,0,L|17:338,1,121.533750463614,4|0,1:0|0:0,0:0:0:0:
23,337,120200,2,0,L|38:252,1,81.0225003090763,0|0,1:0|0:0,0:0:0:0:
190,333,120400,6,0,P|262:346|333:372,1,133.306247355681
327,359,120700,1,0,0:0:0:0:
351,184,120800,2,0,P|297:197|281:250,1,100.758752383058
286,244,121000,1,2,0:0:0:0:
454,313,121200,5,10,0:0:0:0:
403,254,121300,1,0,0:0:0:0:
447,144,121400,2,0,P|478:186|476:236,1,100.758752383058,8|0,0:1|0:0,0:0:0:0:
486,236,121600,2,0,P|489:195|480:168,1,67.1725015887051,2|0,0:0|0:0,0:0:0:0:
247,69,121800,6,0,P|275:90|277:123,1,59.2087492772369,8|0,0:1|0:0,0:0:0:0:
280,113,122000,6,0,B|246:166|167:117|187:20|309:1|339:74,1,243.067500927229,6|0,1:0|0:0,0:0:0:0:
342,181,122400,5,0,0:0:0:0:
251,221,122500,1,0,0:0:0:0:
136,188,122600,2,0,P|129:147|119:104,1,79.9837484134083,2|0,0:0|0:0,0:0:0:0:
127,98,122800,2,0,P|138:149|149:240,1,134.34500317741,10|0,0:0|0:0,0:0:0:0:
148,230,123050,1,0,0:0:0:0:
148,230,123100,1,0,0:0:0:0:
346,325,123200,6,0,P|382:277|462:284,1,121.533750463614,4|0,1:0|0:0,0:0:0:0:
439,271,123400,2,0,P|415:307|377:303,1,81.0225003090763,0|0,1:0|0:0,0:0:0:0:
267,182,123600,6,0,L|277:95,1,79.9837484134083
276,92,123800,1,0,0:0:0:0:
362,205,123900,1,0,0:0:0:0:
486,132,124000,6,0,B|463:106|413:102|385:150|385:150|357:199|307:195|284:168,1,243.067500927229,0|0,1:0|0:0,0:0:0:0:
67,20,124400,2,0,B|45:39|41:81|82:104|82:104|123:128|119:170|97:189,1,201.517504766115,10|0,0:0|0:0,0:0:0:0:
15,335,124800,2,0,P|0:298|23:261,1,79.9837484134083,2|0,1:0|0:0,0:0:0:0:
101,272,125000,5,0,0:0:0:0:
112,271,125050,1,0,0:0:0:0:
123,269,125100,1,0,0:0:0:0:
134,268,125150,1,0,0:0:0:0:
146,266,125200,2,0,B|240:254|240:254|264:251|291:272|293:295|296:319|276:346|252:349|252:349|175:310,1,283.578751081767,6|0,1:0|0:0,0:0:0:0:
208,326,125600,1,0,0:0:0:0:
390,160,125800,6,0,B|410:145|436:164|436:164|412:156|391:171,1,79.9837484134083,2|0,0:0|0:0,0:0:0:0:
376,231,126000,2,0,P|355:137|321:29,1,201.517504766115,10|0,0:0|0:0,0:0:0:0:
211,163,126400,6,0,P|168:185|113:133,1,121.533750463614,4|0,1:0|0:0,0:0:0:0:
71,85,126600,2,0,P|88:80|109:71,1,33.5862507943526,2|0,0:0|0:0,0:0:0:0:
35,156,126700,1,0,0:0:0:0:
34,166,126750,1,0,0:0:0:0:
32,176,126800,2,0,P|47:229|52:285,1,106.644997884544,2|0,0:0|0:0,0:0:0:0:
411,332,127200,6,0,P|386:312|350:298,1,67.1725015887051,0|0,1:0|0:0,0:0:0:0:
264,100,127400,2,0,P|260:131|267:169,1,67.1725015887051,2|0,0:0|0:0,0:0:0:0:
206,310,127600,5,10,0:0:0:0:
348,212,127800,5,0,0:0:0:0:
343,132,128000,5,0,0:0:0:0:
343,132,128200,1,2,0:0:0:0:
505,43,128400,6,0,B|554:161|389:132|438:251,1,243.067500927229,6|0,1:0|0:0,0:0:0:0:
283,69,128800,2,0,P|256:76|226:82,1,53.3224989422722
56,117,129000,2,0,P|82:111|107:104,1,53.3224989422722,2|0,0:0|0:0,0:0:0:0:
218,263,129200,6,0,P|170:235|182:157,1,134.34500317741,10|0,0:0|0:0,0:0:0:0:
175,163,129450,1,0,0:0:0:0:
175,163,129500,1,0,0:0:0:0:
41,330,129600,6,0,P|83:338|129:345,1,81.0225003090763,4|0,1:0|0:0,0:0:0:0:
376,384,129800,2,0,P|335:377|295:369,1,81.0225003090763,2|0,1:0|0:0,0:0:0:0:
450,236,130000,6,0,B|515:198|498:132|433:127|430:171,1,159.967496826817,2|0,0:0|0:0,0:0:0:0:
319,281,130400,2,0,B|253:243|270:177|335:172|338:216,1,162.045000618153,2|0,1:0|0:0,0:0:0:0:
337,213,130650,1,8,0:1:0:0:
337,213,130700,1,8,0:1:0:0:
215,269,130800,5,10,1:2:0:0:
173,167,130933,1,8,0:1:0:0:
218,90,131066,1,8,0:1:0:0:
114,19,131200,6,0,P|98:54|116:106,1,79.9837484134083,14|0,0:3|0:0,0:0:0:0:
106,93,131400,2,0,L|138:88,3,26.6612494711361,8|0|0|0,0:1|0:0|0:0|0:0,0:0:0:0:
98,189,131600,6,0,B|71:232|71:232|44:276|-25:252|-16:179|34:174|34:174|151:160,1,324.090001236305,4|0,1:0|0:0,0:0:0:0:
164,329,132300,1,0,0:0:0:0:
110,383,132400,2,0,B|91:362|94:323|134:306|134:306|175:289|177:250|159:230,1,186.628746297953,8|0,0:0|0:0,0:0:0:0:
161,232,132800,6,0,L|247:221,1,81.0225003090763,4|0,1:0|0:0,0:0:0:0:
498,194,133000,2,0,L|417:204,1,81.0225003090763,0|0,1:0|0:0,0:0:0:0:
305,333,133200,6,0,P|347:359|381:313,1,106.644997884544
331,214,133500,1,0,0:0:0:0:
320,205,133600,2,0,P|327:131|337:64,1,134.34500317741
162,74,134000,5,10,0:1:0:0:
221,27,134100,1,0,0:0:0:0:
205,133,134200,2,0,P|171:122|92:106,1,100.758752383058,8|0,0:1|0:0,0:0:0:0:
101,112,134400,2,0,P|73:137|68:170,1,67.1725015887051,2|0,0:0|0:0,0:0:0:0:
117,358,134600,6,0,L|183:346,1,59.2087492772369,8|0,0:1|0:0,0:0:0:0:
238,315,134800,6,0,B|293:248|212:142|108:170|102:273|136:283|136:283|171:277,1,324.090001236305,6|0,1:0|0:0,0:0:0:0:
171,276,135300,1,0,0:0:0:0:
268,155,135400,2,0,P|293:157|326:163,1,53.3224989422722,2|0,0:0|0:0,0:0:0:0:
373,341,135600,2,0,P|342:312|368:229,1,134.34500317741,10|0,0:0|0:0,0:0:0:0:
363,231,135850,1,0,0:0:0:0:
363,231,135900,1,0,0:0:0:0:
420,86,136000,6,0,P|426:129|398:165,1,81.0225003090763,4|0,1:0|0:0,0:0:0:0:
154,107,136200,2,0,P|148:64|176:28,1,81.0225003090763,2|0,1:0|0:0,0:0:0:0:
271,170,136400,6,0,L|252:262,1,79.9837484134083,2|0,0:0|0:0,0:0:0:0:
252,262,136600,1,0,0:0:0:0:
159,343,136700,1,0,0:0:0:0:
16,254,136800,6,0,B|-11:229|-15:177|34:147|34:147|85:117|81:65|53:41,1,243.067500927229,0|0,1:0|0:0,0:0:0:0:
466,253,137200,2,0,B|491:230|495:181|448:154|448:154|401:126|405:77|431:55,1,235.103755560468,10|0,0:0|0:0,0:0:0:0:
307,210,137600,2,0,P|346:217|391:240,1,79.9837484134083,2|0,1:0|0:0,0:0:0:0:
406,305,137800,5,0,0:0:0:0:
398,311,137850,1,0,0:0:0:0:
389,317,137900,1,0,0:0:0:0:
379,321,137950,1,0,0:0:0:0:
370,322,138000,2,0,P|266:273|137:271,1,243.067500927229,6|0,1:0|0:0,0:0:0:0:
33,92,138400,2,0,B|33:47|99:47|121:114|55:158,1,159.967496826817,2|0,0:0|0:0,0:0:0:0:
256,211,138800,2,0,B|252:263|172:258|151:177|235:129,1,201.517504766115,10|0,0:0|0:0,0:0:0:0:
464,42,139200,6,0,L|452:167,1,121.533750463614,6|0,1:0|0:0,0:0:0:0:
457,173,139400,2,0,L|462:134,1,33.5862507943526
385,129,139500,1,0,0:0:0:0:
383,142,139550,1,0,0:0:0:0:
382,153,139600,2,0,L|376:218,1,53.3224989422722,2|0,0:0|0:0,0:0:0:0:
491,309,139800,2,0,L|439:269,1,53.3224989422722
264,349,140000,6,0,P|314:352|351:302,1,100.758752383058,2|0,1:0|0:0,0:0:0:0:
343,311,140200,2,0,P|319:340|287:349,1,67.1725015887051
95,300,140400,5,10,0:0:0:0:
179,177,140600,5,0,0:0:0:0:
121,101,140800,5,0,0:0:0:0:
121,101,141000,1,0,0:0:0:0:
331,184,141200,6,0,B|363:202|359:248|359:248|287:212|287:103|337:67,1,283.578751081767,6|0,1:0|0:0,0:0:0:0:
345,73,141600,2,0,L|410:83,1,53.3224989422722,2|0,0:0|0:0,0:0:0:0:
466,197,141800,2,0,L|440:135,1,53.3224989422722
238,248,142000,6,0,P|176:223|91:210,1,134.34500317741,10|0,0:0|0:0,0:0:0:0:
109,211,142250,1,0,0:0:0:0:
109,211,142300,1,0,0:0:0:0:
60,359,142400,6,0,P|95:326|100:282,1,81.0225003090763,6|0,1:0|0:0,0:0:0:0:
5,109,142600,2,0,P|14:156|49:183,1,81.0225003090763,0|0,1:0|0:0,0:0:0:0:
125,222,142800,6,0,P|190:238|271:281,1,159.967496826817,2|0,0:0|0:0,0:0:0:0:
460,187,143200,2,0,B|479:147|440:107|440:107|460:147|440:187,1,162.045000618153,2|2,1:0|0:0,0:0:0:0:
444,177,143450,1,8,0:1:0:0:
444,177,143500,1,8,0:1:0:0:
363,218,143600,5,10,1:2:0:0:
260,155,143733,1,8,0:1:0:0:
183,146,143866,1,8,0:1:0:0:
126,202,144000,6,0,L|115:281,1,79.9837484134083,14|0,0:3|0:0,0:0:0:0:
39,290,144200,2,0,L|44:260,3,26.6612494711361,8|0|0|0,0:1|0:0|0:0|0:0,0:0:0:0:
38,298,144400,5,2,0:0:0:0:
387,79,146000,6,0,B|383:75|383:75|389:74|389:74|383:68|383:68|388:68|388:68|383:62|383:62|388:63|388:63|384:56|384:56|390:57|390:57|386:49|386:49|391:52|391:52|389:44|389:44|394:47|394:47|393:38|393:38|398:43|398:43|399:34|399:34|402:39|402:39|404:31|404:31|407:36|407:36|411:29|411:29|412:35|412:35|417:28|417:28|418:34|418:34|424:28|424:28|423:34|423:34|430:29|430:29|429:35|429:35|436:31|436:31|434:36|434:36|442:33|442:33|439:39|439:39|448:37|448:37|444:42|444:42|453:41|453:41|448:46|448:46|457:46|457:46|452:50|452:50|461:51|461:51|455:55|455:55|463:57|463:57|458:60|458:60|466:63|466:63|460:65|460:65|468:69|468:69|462:71|462:71|469:76|469:76|462:76|462:76|469:82|469:82|463:82|463:82|468:89|468:89|463:88|463:88|468:95|468:95|462:94|462:94|466:101|466:101|461:100|461:100|464:107|464:107|459:105|459:105|461:113|461:113|457:111|457:111|459:119|459:119|454:116|454:116|456:124|456:124|450:121|450:121|451:129|451:129|447:126|447:126|447:134|447:134|443:130|443:130|443:139|443:139|439:134|439:134|438:143|438:143|434:138|434:138|433:147|433:147|429:141|429:141|427:150|427:150|424:145|424:145|421:153|421:153|419:147|419:147|416:155|416:155|413:150|413:150|409:157|409:157|408:152|408:152|404:159|404:159|402:153|402:153|397:160|397:160|396:154|396:154|391:160|391:160|390:155|390:155|384:161|384:161|384:155|384:155|378:161|378:161|378:155|378:155|372:160|372:160|372:154|372:154|365:159|365:159|366:153|366:153|359:157|359:157|360:152|360:152|354:153,1,697.751755428831,0|4,3:0|1:0,0:0:0:0:
