osu file format v14

[General]
AudioFilename: audio.mp3
AudioLeadIn: 0
PreviewTime: 3500
Countdown: 0
SampleSet: Soft
StackLeniency: 0.7
Mode: 0
LetterboxInBreaks: 0
WidescreenStoryboard: 1

[Editor]
DistanceSpacing: 0.9
BeatDivisor: 4
GridSize: 32
TimelineZoom: 1.599999

[Metadata]
Title:INSIDE
TitleUnicode:INSIDE
Artist:DUSTCELL
ArtistUnicode:DUSTCELL
Creator:SMOKELIND
Version:Pepekcz's HARD
Source:
Tags:EMA EM A Misumi Kamitsubaki Studio 神椿スタジオ Japanese Hip Hop JPop J-Pop Pop Iceluin Pepekcz Kujinn Reform Nymphe Kiyoshi Guarden Kang Sae-byeok
BeatmapID:3731499
BeatmapSetID:1699249

[Difficulty]
HPDrainRate:4.5
CircleSize:4
OverallDifficulty:7
ApproachRate:8
SliderMultiplier:1.4
SliderTickRate:1

[Events]
//Background and Video events
0,0,"95421472_p0.jpg",0,0
//Break Periods
//Storyboard Layer 0 (Background)
//Storyboard Layer 1 (Fail)
//Storyboard Layer 2 (Pass)
//Storyboard Layer 3 (Foreground)
//Storyboard Layer 4 (Overlay)
//Storyboard Sound Samples

[TimingPoints]
400,400,4,2,77,27,1,0
400,-125,4,2,77,27,0,0
13199,-125,4,2,77,57,0,0
38799,-111.111111111111,4,2,77,67,0,0
49999,-125,4,2,77,47,0,0
51599,-100,4,2,77,87,0,0
78800,-111.028643968802,4,2,77,27,0,0
80400,-125,4,2,77,47,0,0
104400,-125,4,2,77,27,0,0
105999,-111.111111111111,4,2,77,67,0,0
117199,-125,4,2,77,47,0,0
118799,-100,4,2,77,87,0,0
146000,-142.857142857143,4,2,77,27,0,0
147600,-111.111111111111,4,2,77,47,0,0
171600,-111.111111111111,4,2,77,27,0,0

[Colours]
Combo1 : 151,255,255
Combo2 : 233,233,233

[HitObjects]
1,22,13200,6,0,L|12:57,3,28,2|2|2|0,1:0|0:0|1:0|0:0,0:0:0:0:
14,62,13600,1,2,0:0:0:0:
61,124,13800,1,2,0:0:0:0:
57,137,13900,1,0,0:0:0:0:
52,150,14000,2,0,L|32:212,1,56,8|0,0:0|0:0,0:0:0:0:
63,276,14400,2,0,L|104:260,3,28,2|0|2|0,0:0|0:0|0:0|0:0,0:0:0:0:
102,269,14800,6,0,P|129:278|168:292,1,56,2|2,0:0|0:0,0:0:0:0:
217,334,15200,1,2,0:0:0:0:
281,289,15400,1,2,0:0:0:0:
288,277,15500,1,0,0:0:0:0:
291,263,15600,2,0,P|297:229|289:205,1,56,10|0,0:0|1:0,0:0:0:0:
228,162,16000,2,0,P|222:128|230:104,1,56,0|10,1:0|1:2,0:0:0:0:
292,64,16400,5,2,1:0:0:0:
359,24,16600,1,2,0:0:0:0:
371,30,16700,1,0,0:0:0:0:
384,35,16800,2,0,L|450:64,1,56,2|2,0:0|1:0,0:0:0:0:
490,112,17200,1,10,0:0:0:0:
490,112,17400,1,2,0:0:0:0:
441,173,17600,1,2,0:0:0:0:
441,173,17800,1,2,0:0:0:0:
491,232,18000,6,0,P|474:284|455:353,1,112,2|2,0:0|1:0,0:0:0:0:
302,355,18800,2,0,P|271:353|244:334,1,56,2|0,1:0|1:0,0:0:0:0:
274,266,19200,2,0,P|305:268|332:287,1,56,2|10,1:0|1:2,0:0:0:0:
382,334,19600,5,2,1:0:0:0:
425,268,19800,1,2,1:0:0:0:
428,254,19900,1,0,0:0:0:0:
431,240,20000,2,0,P|437:207|446:173,1,56,2|2,0:0|0:0,0:0:0:0:
388,128,20400,2,0,P|426:128|447:60,1,112,10|0,0:0|0:0,0:0:0:0:
394,12,21000,5,2,0:0:0:0:
394,12,21200,2,0,L|328:33,1,56,2|2,0:0|0:0,0:0:0:0:
330,32,21500,1,2,0:0:0:0:
319,36,21600,1,0,0:0:0:0:
260,86,21800,1,2,0:0:0:0:
260,86,22000,2,0,L|206:69,1,56,10|2,0:0|1:0,0:0:0:0:
146,18,22400,2,0,L|92:34,1,56,0|10,1:0|1:2,0:0:0:0:
80,41,22700,5,0,0:0:0:0:
67,47,22800,1,2,1:0:0:0:
27,114,23000,1,2,0:0:0:0:
27,114,23200,2,0,L|40:155,3,28,2|0|2|0,0:0|0:0|1:0|0:0,0:0:0:0:
42,152,23600,2,0,L|25:222,1,56,10|2,0:0|0:0,0:0:0:0:
65,281,24000,1,2,0:0:0:0:
65,281,24200,1,0,0:0:0:0:
16,342,24400,5,2,0:0:0:0:
84,380,24600,1,2,0:0:0:0:
96,374,24700,1,0,0:0:0:0:
109,369,24800,2,0,L|164:343,1,56,2|2,1:0|0:0,0:0:0:0:
218,292,25200,1,10,1:2:0:0:
218,292,25400,1,2,1:0:0:0:
287,328,25600,1,2,1:0:0:0:
287,328,25800,1,10,1:2:0:0:
342,272,26000,6,0,P|359:246|358:215,1,56,2|2,1:0|1:0,0:0:0:0:
428,182,26400,2,0,P|413:154|386:139,1,56,2|2,0:0|0:0,0:0:0:0:
315,151,26800,1,10,0:0:0:0:
302,157,26900,1,0,0:0:0:0:
289,163,27000,1,2,0:0:0:0:
233,218,27200,2,0,L|174:202,1,56,2|2,0:0|0:0,0:0:0:0:
109,240,27600,6,0,L|54:254,1,56,2|2,0:0|0:0,0:0:0:0:
1,196,28000,2,0,L|15:140,1,56,2|2,0:0|0:0,0:0:0:0:
11,62,28400,2,0,P|24:54|42:51,3,28,10|0|2|0,0:0|0:0|1:0|0:0,0:0:0:0:
48,57,28800,2,0,P|61:65|79:68,3,28,2|0|10|0,1:0|0:0|1:2|0:0,0:0:0:0:
87,67,29200,6,0,P|114:52|154:50,1,56,2|2,1:0|0:0,0:0:0:0:
204,91,29600,2,0,P|231:106|271:108,1,56,2|2,0:0|1:0,0:0:0:0:
321,67,30000,2,0,P|374:48|442:31,1,112,10|2,0:0|0:0,0:0:0:0:
441,30,30500,1,0,0:0:0:0:
454,26,30600,1,2,0:0:0:0:
498,90,30800,6,0,L|486:135,3,28,2|0|2|0,0:0|0:0|0:0|0:0,0:0:0:0:
493,130,31200,2,0,L|481:175,3,28,2|0|2|0,1:0|0:0|0:0|0:0,0:0:0:0:
478,168,31600,2,0,L|491:234,1,56,10|2,1:2|1:0,0:0:0:0:
467,298,32000,1,2,1:0:0:0:
454,303,32100,1,0,0:0:0:0:
441,308,32200,1,10,1:2:0:0:
366,282,32400,5,2,1:0:0:0:
366,282,32600,1,2,1:0:0:0:
296,317,32800,2,0,P|267:293|273:223,1,112,0|10,0:0|0:0,0:0:0:0:
385,115,33600,1,2,0:0:0:0:
351,43,33800,5,2,0:0:0:0:
337,39,33900,1,0,0:0:0:0:
323,34,34000,2,0,P|295:42|255:58,1,56,2|2,0:0|0:0,0:0:0:0:
204,96,34400,2,0,B|144:104|160:56|92:64,1,112,2|10,0:0|0:0,0:0:0:0:
36,107,35000,1,2,1:0:0:0:
73,175,35200,1,2,1:0:0:0:
70,188,35300,1,0,0:0:0:0:
67,201,35400,1,10,1:2:0:0:
17,261,35600,6,0,L|27:301,3,28,2|0|0|0,1:0|0:0|0:0|0:0,0:0:0:0:
27,301,36000,2,0,L|86:320,1,56,2|2,0:0|1:0,0:0:0:0:
150,282,36400,2,0,L|203:264,1,56,10|2,0:0|0:0,0:0:0:0:
273,300,36800,2,0,L|308:312,3,28,2|0|2|0,0:0|0:0|0:0|0:0,0:0:0:0:
312,303,37200,2,0,L|380:284,1,56,2|10,1:0|0:0,0:0:0:0:
439,317,37600,6,0,L|428:354,2,37.3333333333333,2|0|0,1:0|3:0|3:0,0:0:0:0:
494,259,38000,6,0,P|486:229|474:191,1,56,2|2,1:0|1:0,0:0:0:0:
437,138,38400,6,0,L|447:102,2,37.3333333333333,0|0|0,1:0|1:0|1:0,0:0:0:0:
356,193,38800,6,0,P|311:194|301:121,1,125.999996154785,14|8,1:2|1:0,0:0:0:0:
356,61,39400,1,2,3:0:0:0:
356,61,39600,2,0,P|324:46|280:30,1,62.9999980773926,10|0,0:2|3:0,0:0:0:0:
222,77,40000,1,10,1:0:0:0:
222,77,40200,1,2,3:0:0:0:
120,29,40400,6,0,P|80:27|50:67,1,94.499997116089,10|0,1:2|3:0,0:0:0:0:
47,80,40800,2,0,P|70:141|94:211,1,125.999996154785,10|10,1:0|0:0,0:0:0:0:
47,275,41400,1,0,3:0:0:0:
47,275,41600,1,10,1:0:0:0:
203,356,42000,6,0,P|216:313|235:256,1,94.499997116089,10|0,1:2|3:0,0:0:0:0:
236,250,42400,1,8,1:0:0:0:
184,185,42600,1,2,3:0:0:0:
184,185,42800,2,0,P|173:149|163:119,1,62.9999980773926,10|0,0:0|3:0,0:0:0:0:
211,51,43200,1,8,1:0:0:0:
211,51,43400,1,2,3:0:0:0:
297,114,43600,6,0,P|337:148|393:137,1,94.499997116089,10|0,1:2|3:0,0:0:0:0:
390,137,44000,2,0,P|422:112|450:111,1,62.9999980773926,10|0,1:0|3:0,0:0:0:0:
501,183,44400,1,10,0:0:0:0:
501,183,44600,1,0,3:0:0:0:
439,246,44800,2,0,P|427:287|413:345,1,94.499997116089,2|0,1:0|0:0,0:0:0:0:
409,352,45200,6,0,P|361:338|300:324,1,94.499997116089,10|0,1:2|3:0,0:0:0:0:
302,325,45600,1,8,1:0:0:0:
224,293,45800,1,10,1:0:0:0:
224,293,46000,2,0,P|192:302|159:314,1,62.9999980773926,10|8,1:2|1:0,0:0:0:0:
91,362,46400,1,8,1:0:0:0:
91,362,46600,1,10,1:0:0:0:
16,275,46800,6,0,P|27:227|43:170,1,94.499997116089,10|0,1:2|3:0,0:0:0:0:
45,168,47200,1,8,1:0:0:0:
9,87,47400,1,10,1:0:0:0:
9,87,47600,2,0,P|31:61|67:57,1,62.9999980773926,10|8,1:2|1:0,0:0:0:0:
124,113,48000,2,0,P|146:139|182:143,1,62.9999980773926,10|0,1:0|1:0,0:0:0:0:
243,91,48400,6,0,L|278:77,3,31.4999990386963,10|0|8|8,0:0|1:0|0:1|0:1,0:0:0:0:
288,77,48800,2,0,L|323:63,3,31.4999990386963,10|0|8|8,0:0|1:0|0:1|1:1,0:0:0:0:
331,58,49200,6,0,L|366:72,3,31.4999990386963,10|8|8|0,0:0|0:1|0:1|1:0,0:0:0:0:
376,72,49600,2,0,L|411:86,3,31.4999990386963,10|0|8|8,0:0|1:0|0:1|1:1,0:0:0:0:
417,90,50000,5,2,3:0:0:0:
490,360,51600,6,0,P|447:315|396:316,1,105,4|0,1:0|0:0,0:0:0:0:
392,322,52000,2,0,P|349:367|298:366,1,105
293,360,52400,2,0,P|257:346|221:333,1,70,8|0,0:0|0:0,0:0:0:0:
108,368,52800,1,4,1:0:0:0:
43,294,53000,6,0,P|26:232|4:155,1,140,0|0,1:0|0:0,0:0:0:0:
53,73,53600,2,0,P|86:53|119:55,1,70,0|2,0:0|0:0,0:0:0:0:
201,113,54000,1,10,0:0:0:0:
201,113,54200,1,8,0:1:0:0:
282,59,54400,1,2,0:0:0:0:
298,53,54500,1,0,0:0:0:0:
314,47,54600,1,8,0:1:0:0:
330,42,54700,1,0,0:0:0:0:
346,36,54800,1,6,1:0:0:0:
433,79,55000,6,0,P|414:146|395:221,1,140,0|2,0:0|0:0,0:0:0:0:
366,307,55600,2,0,P|336:326|286:312,1,70,10|0,0:0|0:0,0:0:0:0:
210,243,56000,1,4,1:0:0:0:
277,172,56200,6,0,P|304:137|258:61,1,140,0|0,1:0|0:0,0:0:0:0:
170,95,56800,1,0,1:0:0:0:
152,95,56900,1,0,0:0:0:0:
136,87,57000,1,2,0:0:0:0:
52,36,57200,2,0,P|36:85|20:147,1,105,10|0,0:0|0:0,0:0:0:0:
25,154,57600,2,0,P|40:203|57:265,1,105,2|0,1:0|0:0,0:0:0:0:
59,271,58000,5,6,1:0:0:0:
41,367,58200,2,0,B|117:379|97:319|181:331,1,140,0|2,0:0|0:0,0:0:0:0:
264,359,58800,2,0,P|298:349|345:338,1,70,10|0,0:0|0:0,0:0:0:0:
452,370,59200,1,4,1:0:0:0:
452,370,59400,1,2,0:0:0:0:
509,290,59600,6,0,P|472:265|493:182,1,140,2|0,0:0|1:0,0:0:0:0:
498,84,60200,1,2,0:0:0:0:
498,84,60400,2,0,P|462:73|426:65,1,70,10|0,0:0|0:0,0:0:0:0:
340,26,60800,2,0,P|306:34|272:44,1,70,0|2,0:0|0:0,0:0:0:0:
188,134,61200,6,0,B|112:146|132:86|48:98,1,140,6|0,1:0|0:0,0:0:0:0:
8,182,61800,1,2,0:0:0:0:
80,247,62000,2,0,P|110:266|159:263,1,70,10|0,0:0|0:0,0:0:0:0:
218,204,62400,2,0,P|248:184|297:188,1,70,4|2,1:0|1:0,0:0:0:0:
367,230,62800,6,0,P|417:212|468:196,1,105,2|0,0:0|0:0,0:0:0:0:
482,204,63200,2,0,P|503:245|498:273,1,70,2|0,1:0|0:0,0:0:0:0:
429,335,63600,6,0,P|435:359|443:388,2,46.6666666666667,10|8|8,1:2|0:1|0:1,0:0:0:0:
350,307,64000,6,0,P|316:316|279:329,1,70,14|8,0:3|0:1,0:0:0:0:
172,379,64400,2,0,P|121:364|64:350,1,105,4|0,1:0|0:0,0:0:0:0:
54,344,64800,2,0,P|81:305|52:252,1,105
43,248,65200,2,0,P|21:210|26:183,1,70,8|0,0:0|0:0,0:0:0:0:
113,102,65600,1,4,1:0:0:0:
201,144,65800,6,0,P|267:121|334:101,1,140,0|0,1:0|0:0,0:0:0:0:
400,28,66400,2,0,P|433:37|469:48,1,70
512,139,66800,1,10,0:1:0:0:
512,139,67000,1,8,0:1:0:0:
438,203,67200,1,2,0:0:0:0:
430,218,67300,1,0,0:0:0:0:
428,235,67400,1,8,0:1:0:0:
432,251,67500,1,0,0:0:0:0:
442,265,67600,1,6,1:0:0:0:
500,334,67800,6,0,B|424:322|444:382|360:370,1,140,0|2,0:0|0:0,0:0:0:0:
294,319,68400,2,0,P|262:293|232:293,1,70,10|0,0:0|0:0,0:0:0:0:
125,347,68800,1,4,1:0:0:0:
125,347,69000,1,2,1:0:0:0:
65,278,69200,6,0,P|73:241|82:208,1,70,2|0,0:0|0:0,0:0:0:0:
85,192,69500,1,0,0:0:0:0:
90,175,69600,1,0,1:0:0:0:
49,85,69800,1,2,0:0:0:0:
49,85,70000,2,0,P|79:65|113:64,1,70,10|0,0:0|0:0,0:0:0:0:
188,124,70400,2,0,P|218:144|252:145,1,70,2|0,1:0|0:0,0:0:0:0:
334,92,70800,5,6,1:0:0:0:
334,92,71000,1,0,0:0:0:0:
420,137,71200,2,0,P|450:183|434:245,1,105,2|0,0:0|0:0,0:0:0:0:
433,245,71600,2,0,P|398:257|360:272,1,70,10|0,0:0|0:0,0:0:0:0:
255,219,72000,2,0,P|201:201|143:185,1,105,6|0,1:0|0:0,0:0:0:0:
137,190,72400,6,0,P|113:223|110:253,1,70,2|0,0:0|0:0,0:0:0:0:
186,312,72800,2,0,P|236:326|286:342,1,105,2|0,1:0|0:0,0:0:0:0:
303,348,73200,1,10,0:0:0:0:
403,366,73400,1,0,0:0:0:0:
403,366,73600,2,0,P|421:335|414:296,1,70
338,209,74000,6,0,P|305:172|322:113,1,105,6|0,1:0|0:0,0:0:0:0:
329,111,74400,2,0,P|362:74|345:15,1,105,2|0,0:0|0:0,0:0:0:0:
336,15,74800,2,0,P|301:21|264:31,1,70,10|0,0:0|0:0,0:0:0:0:
186,83,75200,1,6,1:0:0:0:
186,83,75400,1,0,1:0:0:0:
93,51,75600,6,0,P|81:101|66:176,1,105,2|0,0:0|0:0,0:0:0:0:
75,170,76000,2,0,P|68:204|61:238,1,70,2|2,1:0|0:0,0:0:0:0:
52,336,76400,6,0,P|29:350|2:352,2,46.6666666666667,10|8|8,1:2|0:1|0:1,0:0:0:0:
119,293,76800,6,0,P|146:272|190:271,1,70,14|8,0:3|0:1,0:0:0:0:
260,325,77200,1,2,0:0:0:0:
260,325,78800,6,0,B|250:329|239:328|239:328|238:326|238:326|237:328|237:328|226:328|217:323|217:323|215:324|215:324|216:322|216:322|207:317|202:309|202:309|203:307|203:307|201:307|201:307|195:298|194:288|194:288|192:288|192:288|194:286|194:286|193:276|196:266|196:266|199:266|199:266|197:265|197:265|200:255|207:247|207:247|206:246|206:246|208:246|208:246|215:238|224:234|224:234|226:236|226:236|226:233|226:233|236:229|246:228|246:228|247:227|247:227|248:229|248:229|258:228|267:230|267:230|268:232|268:232|269:231|269:231|280:233|288:237|288:237|290:236|290:236|290:238|290:238|299:243|307:249|307:249|306:251|306:251|309:250|309:250|316:256|323:264|323:264|325:264|325:264|324:266|324:266|330:274|334:283|334:283|333:284|333:284|336:284|336:284|340:294|343:302|343:302|346:303|346:303|344:304|344:304|346:314|348:324|348:324|346:326|346:326|348:326|348:326|349:329|348:331,1,378.280761600597,0|0,3:0|0:0,0:0:0:0:
498,374,80400,6,0,P|485:328|471:280,1,84,10|0,1:3|0:0,0:0:0:0:
465,281,80800,2,0,P|479:227|495:174,1,112,10|8,1:3|0:0,0:0:0:0:
435,34,81600,5,2,0:0:0:0:
435,34,81800,2,0,L|368:53,1,56,2|2,1:0|0:0,0:0:0:0:
319,97,82200,1,0,1:0:0:0:
319,97,82400,2,0,P|265:82|200:65,1,112,2|10,1:0|0:0,0:0:0:0:
54,84,83200,2,0,L|67:143,1,56,2|2,0:0|1:0,0:0:0:0:
29,208,83600,6,0,P|65:213|85:267,1,84,2|0,1:0|0:0,0:0:0:0:
85,265,84000,2,0,P|136:284|208:315,1,112,2|10,1:0|0:0,0:0:0:0:
342,271,84800,1,2,0:0:0:0:
475,353,85200,6,0,P|504:315|491:255,1,112,2|2,0:0|0:0,0:0:0:0:
445,198,85800,1,0,1:0:0:0:
445,198,86000,2,0,L|376:179,1,56,10|0,0:0|1:0,0:0:0:0:
313,194,86400,2,0,L|259:208,1,56,2|2,0:0|1:0,0:0:0:0:
200,260,86800,6,0,P|159:248|116:238,1,84,10|0,1:3|0:0,0:0:0:0:
104,236,87200,2,0,P|125:208|86:149,1,112,10|10,1:3|0:0,0:0:0:0:
10,154,87800,1,2,0:0:0:0:
92,20,88200,6,0,L|154:39,1,56,2|2,1:0|0:0,0:0:0:0:
211,87,88600,1,2,1:0:0:0:
211,87,88800,2,0,B|271:95|255:47|323:55,1,112,2|10,1:0|0:0,0:0:0:0:
455,123,89600,2,0,L|435:181,1,56,2|0,0:0|1:0,0:0:0:0:
495,227,90000,6,0,P|450:232|433:293,1,112,2|2,1:0|1:0,0:0:0:0:
445,371,90600,1,0,0:0:0:0:
445,371,90800,2,0,P|393:357|315:336,1,112,10|2,0:0|0:0,0:0:0:0:
259,357,91400,6,0,L|222:370,2,28,2|2|2,0:0|0:0|0:0,0:0:0:0:
212,294,91800,2,0,L|238:284,2,28,2|2|2,1:0|0:0|0:0,0:0:0:0:
154,347,92200,1,2,1:0:0:0:
154,347,92400,2,0,L|91:333,1,56,10|2,0:0|1:0,0:0:0:0:
58,267,92800,2,0,L|71:204,1,56,2|0,0:0|0:0,0:0:0:0:
39,139,93200,6,0,P|68:110|123:115,1,84,10|0,1:3|0:0,0:0:0:0:
116,119,93600,2,0,P|145:148|200:143,1,84,10|0,1:3|0:0,0:0:0:0:
199,145,94000,2,0,P|251:123|320:98,1,112,10|2,0:0|0:0,0:0:0:0:
368,59,94600,2,0,L|432:84,1,56,0|2,1:0|0:0,0:0:0:0:
488,117,95000,5,0,1:0:0:0:
488,117,95200,2,0,P|436:129|426:181,1,112,2|10,1:0|0:0,0:0:0:0:
455,335,96000,2,0,L|396:318,1,56,2|0,0:0|1:0,0:0:0:0:
322,312,96400,6,0,L|313:363,2,37.3333333333333,2|2|2,1:0|0:0|0:0,0:0:0:0:
254,287,96800,6,0,L|245:338,2,37.3333333333333,2|2|2,1:0|0:0|0:0,0:0:0:0:
313,238,97200,5,10,0:0:0:0:
221,110,97600,2,0,L|237:41,1,56,2|0,0:0|0:0,0:0:0:0:
166,14,98000,6,0,P|144:4|112:3,2,37.3333333333333,2|2|0,0:0|0:0|0:0,0:0:0:0:
106,71,98400,6,0,P|128:81|160:82,2,37.3333333333333,2|2|2,0:0|0:0|0:0,0:0:0:0:
38,26,98800,6,0,P|23:52|21:88,1,56,10|0,0:0|1:0,0:0:0:0:
56,147,99200,1,2,0:0:0:0:
38,302,99600,6,0,L|-5:291,2,37.3333333333333,10|0|0,1:3|0:0|0:0,0:0:0:0:
102,263,100000,6,0,P|157:244|218:228,1,112,10|10,1:3|0:0,0:0:0:0:
349,301,100800,2,0,L|411:323,1,56,2|2,0:0|1:0,0:0:0:0:
471,283,101200,6,0,P|488:299|503:328,2,37.3333333333333,2|0|0,0:0|0:0|0:0,0:0:0:0:
440,215,101600,6,0,P|462:208|494:209,2,37.3333333333333,2|2|2,1:0|0:0|0:0,0:0:0:0:
369,202,102000,6,0,P|373:179|390:152,2,37.3333333333333,10|2|2,0:0|0:0|0:0,0:0:0:0:
310,252,102400,5,2,0:0:0:0:
190,353,102800,6,0,L|148:342,2,37.3333333333333,2|0|0,1:0|0:0|0:0,0:0:0:0:
153,270,103200,6,0,L|189:279,2,37.3333333333333,2|2|2,1:0|0:0|0:0,0:0:0:0:
81,296,103600,6,0,P|46:263|63:194,1,112,10|2,0:0|0:0,0:0:0:0:
179,109,104400,1,2,0:0:0:0:
179,109,106000,6,0,B|248:120|228:60|304:72,1,125.999996154785,14|8,1:2|1:0,0:0:0:0:
382,98,106600,1,2,3:0:0:0:
382,98,106800,2,0,L|400:173,1,62.9999980773926,10|0,0:2|3:0,0:0:0:0:
466,221,107200,1,10,1:0:0:0:
466,221,107400,1,2,3:0:0:0:
394,304,107600,6,0,P|351:290|297:274,1,94.499997116089,10|0,1:2|3:0,0:0:0:0:
289,281,108000,2,0,P|232:299|169:322,1,125.999996154785,10|10,1:0|0:0,0:0:0:0:
89,352,108600,1,0,3:0:0:0:
89,352,108800,1,10,1:0:0:0:
8,195,109200,6,0,P|18:150|34:94,1,94.499997116089,10|0,1:2|3:0,0:0:0:0:
39,90,109600,1,8,1:0:0:0:
106,33,109800,1,2,3:0:0:0:
106,33,110000,2,0,P|143:37|166:60,1,62.9999980773926,10|0,0:0|3:0,0:0:0:0:
221,125,110400,1,8,1:0:0:0:
221,125,110600,1,2,3:0:0:0:
158,219,110800,6,0,P|170:264|181:310,1,94.499997116089,10|0,1:2|3:0,0:0:0:0:
188,324,111200,2,0,P|232:343|254:337,1,62.9999980773926,10|0,1:0|3:0,0:0:0:0:
319,290,111600,1,10,0:0:0:0:
319,290,111800,1,0,3:0:0:0:
395,334,112000,2,0,P|432:345|481:308,1,94.499997116089,2|0,1:0|0:0,0:0:0:0:
484,303,112400,6,0,L|463:232,1,62.9999980773926,10|0,1:2|1:0,0:0:0:0:
504,162,112800,1,8,1:0:0:0:
442,99,113000,1,10,1:0:0:0:
426,97,113100,1,0,3:0:0:0:
410,94,113200,2,0,L|345:115,1,62.9999980773926,10|8,1:2|1:0,0:0:0:0:
276,159,113600,1,8,1:0:0:0:
276,159,113800,1,10,1:0:0:0:
201,111,114000,6,0,L|141:91,1,62.9999980773926,10|0,1:2|1:0,0:0:0:0:
55,68,114400,1,8,1:0:0:0:
8,143,114600,1,10,1:0:0:0:
12,157,114700,1,0,3:0:0:0:
17,171,114800,2,0,L|-2:244,1,62.9999980773926,10|8,1:2|1:0,0:0:0:0:
54,302,115200,2,0,L|113:321,1,62.9999980773926,10|0,1:0|1:0,0:0:0:0:
195,287,115600,6,0,P|208:279|230:273,3,31.4999990386963,10|0|8|8,0:0|1:0|0:1|0:1,0:0:0:0:
237,266,116000,2,0,P|250:273|266:289,3,31.4999990386963,10|0|8|8,0:0|1:0|0:1|1:1,0:0:0:0:
271,296,116400,6,0,P|284:304|306:310,3,31.4999990386963,10|8|8|0,0:0|0:1|0:1|1:0,0:0:0:0:
313,317,116800,2,0,P|326:310|342:294,3,31.4999990386963,10|0|8|8,0:0|1:0|0:1|1:1,0:0:0:0:
347,288,117200,5,0,3:0:0:0:
388,221,117400,1,0,0:0:0:0:
388,221,117600,2,0,P|360:170|393:111,1,112,8|8,0:1|0:1,0:0:0:0:
437,70,118200,1,8,0:1:0:0:
437,70,118400,6,0,L|478:80,2,37.3333333333333,10|8|8,0:3|0:3|0:3,0:0:0:0:
374,23,118800,6,0,P|328:38|264:61,1,105,4|0,1:0|0:0,0:0:0:0:
263,70,119200,2,0,P|217:85|153:108,1,105
153,118,119600,2,0,L|81:147,1,70,8|0,0:0|0:0,0:0:0:0:
22,246,120000,1,4,1:0:0:0:
99,305,120200,6,0,B|175:317|155:257|239:269,1,140,0|0,1:0|0:0,0:0:0:0:
314,317,120800,2,0,P|342:336|378:334,1,70,0|2,0:0|0:0,0:0:0:0:
459,279,121200,1,10,0:0:0:0:
459,279,121400,1,8,0:1:0:0:
428,186,121600,1,2,0:0:0:0:
412,180,121700,1,0,0:0:0:0:
396,175,121800,1,8,0:1:0:0:
380,169,121900,1,0,0:0:0:0:
364,163,122000,1,6,1:0:0:0:
276,207,122200,6,0,P|213:227|131:254,1,140,0|2,0:0|0:0,0:0:0:0:
51,286,122800,2,0,P|21:255|20:222,1,70,10|0,0:0|0:0,0:0:0:0:
93,132,123200,1,4,1:0:0:0:
45,46,123400,6,0,P|111:25|179:5,1,140,0|0,1:0|0:0,0:0:0:0:
260,60,124000,1,0,1:0:0:0:
276,65,124100,1,0,0:0:0:0:
292,70,124200,1,2,0:0:0:0:
383,34,124400,2,0,P|424:12|480:20,1,105,10|0,0:0|0:0,0:0:0:0:
494,30,124800,2,0,P|481:79|466:140,1,105,2|0,1:0|0:0,0:0:0:0:
463,148,125200,5,6,1:0:0:0:
501,237,125400,2,0,P|454:232|423:311,1,140,0|2,0:0|0:0,0:0:0:0:
351,376,126000,2,0,P|317:366|270:355,1,70,10|0,0:0|0:0,0:0:0:0:
179,292,126400,1,4,1:0:0:0:
179,292,126600,1,2,0:0:0:0:
92,337,126800,6,0,P|31:315|43:242,1,140,2|0,0:0|1:0,0:0:0:0:
124,204,127400,1,2,0:0:0:0:
124,204,127600,2,0,P|139:171|130:137,1,70,10|0,0:0|0:0,0:0:0:0:
43,94,128000,2,0,P|28:61|37:27,1,70,0|2,0:0|0:0,0:0:0:0:
157,18,128400,6,0,P|225:33|305:55,1,140,6|0,1:0|0:0,0:0:0:0:
378,98,129000,1,2,0:0:0:0:
466,55,129200,2,0,P|475:89|486:125,1,70,10|0,0:0|0:0,0:0:0:0:
435,206,129600,2,0,P|425:240|415:276,1,70,4|2,1:0|1:0,0:0:0:0:
459,361,130000,2,0,P|401:372|358:339,1,105,2|0,0:0|0:0,0:0:0:0:
353,334,130400,2,0,P|317:306|291:306,1,70,2|0,1:0|0:0,0:0:0:0:
199,333,130800,6,0,P|205:357|213:386,2,46.6666666666667,10|8|8,1:2|0:1|0:1,0:0:0:0:
235,262,131200,6,0,P|246:227|260:190,1,70,14|8,0:3|0:1,0:0:0:0:
326,94,131600,2,0,P|291:57|232:57,1,105,4|0,1:0|0:0,0:0:0:0:
227,67,132000,2,0,P|192:104|133:104,1,105
124,98,132400,2,0,P|86:69|61:68,1,70,8|0,0:0|0:0,0:0:0:0:
0,170,132800,1,4,1:0:0:0:
38,260,133000,6,0,P|105:277|187:300,1,140,0|0,1:0|0:0,0:0:0:0:
255,241,133600,2,0,P|288:230|322:221,1,70
410,274,134000,1,10,0:1:0:0:
410,274,134200,1,8,0:1:0:0:
485,211,134400,1,2,0:0:0:0:
493,196,134500,1,0,0:0:0:0:
495,179,134600,1,8,0:1:0:0:
491,163,134700,1,0,0:0:0:0:
481,149,134800,1,6,1:0:0:0:
416,75,135000,6,0,B|340:63|360:123|276:111,1,140,0|2,0:0|0:0,0:0:0:0:
198,68,135600,2,0,L|123:47,1,70,10|0,0:0|0:0,0:0:0:0:
32,124,136000,1,4,1:0:0:0:
32,124,136200,1,2,1:0:0:0:
77,210,136400,6,0,L|94:280,1,70,2|0,0:0|0:0,0:0:0:0:
97,296,136700,1,0,0:0:0:0:
102,313,136800,1,0,1:0:0:0:
194,358,137000,1,2,0:0:0:0:
194,358,137200,2,0,L|275:333,1,70,10|0,0:0|0:0,0:0:0:0:
301,248,137600,2,0,L|284:179,1,70,2|0,1:0|0:0,0:0:0:0:
264,60,138000,5,6,1:0:0:0:
264,60,138200,1,0,0:0:0:0:
349,11,138400,2,0,P|397:23|459:41,1,105,2|0,0:0|0:0,0:0:0:0:
464,48,138800,2,0,P|483:83|482:114,1,70,10|0,0:0|0:0,0:0:0:0:
416,184,139200,2,0,P|391:227|406:283,1,105,6|0,1:0|0:0,0:0:0:0:
412,293,139600,6,0,L|333:323,1,70,2|0,0:0|0:0,0:0:0:0:
259,363,140000,2,0,P|209:346|158:332,1,105,2|0,1:0|0:0,0:0:0:0:
141,328,140400,1,10,0:0:0:0:
51,362,140600,1,0,0:0:0:0:
51,362,140800,2,0,P|33:331|40:292,1,70
125,214,141200,6,0,P|111:159|96:100,1,105,6|0,1:0|0:0,0:0:0:0:
91,96,141600,2,0,P|121:54|176:56,1,105,2|0,0:0|0:0,0:0:0:0:
185,63,142000,2,0,P|215:82|250:83,1,70,10|0,0:0|0:0,0:0:0:0:
336,36,142400,1,6,1:0:0:0:
336,36,142600,1,0,1:0:0:0:
425,76,142800,6,0,P|457:119|448:175,1,105,2|0,0:0|0:0,0:0:0:0:
440,181,143200,2,0,P|415:205|365:202,1,70,2|2,1:0|0:0,0:0:0:0:
290,169,143600,6,0,L|305:111,2,46.6666666666667,10|8|8,1:2|0:1|0:1,0:0:0:0:
213,199,144000,6,0,P|178:195|151:174,1,70,14|8,0:3|0:1,0:0:0:0:
85,102,144400,1,2,0:0:0:0:
85,102,146000,6,0,B|21:186|71:227|65:295|148:332|201:293|234:237|206:186|157:174,1,391.99998803711,0|4,3:0|1:0,0:0:0:0:
