osu file format v14

[General]
AudioFilename: audio.mp3
AudioLeadIn: 0
PreviewTime: 3500
Countdown: 0
SampleSet: Soft
StackLeniency: 0.7
Mode: 0
LetterboxInBreaks: 0
WidescreenStoryboard: 1

[Editor]
Bookmarks: 26000,38800,51600,64400,77200,93200,106000,118850,131600,144400
DistanceSpacing: 0.9
BeatDivisor: 3
GridSize: 32
TimelineZoom: 2.399999

[Metadata]
Title:INSIDE
TitleUnicode:INSIDE
Artist:DUSTCELL
ArtistUnicode:DUSTCELL
Creator:SMOKELIND
Version:Nymphjinn's INSANE
Source:
Tags:EMA EM A Misumi Kamitsubaki Studio 神椿スタジオ Japanese Hip Hop JPop J-Pop Pop Iceluin Pepekcz Kujinn Reform Nymphe Kiyoshi Guarden Kang Sae-byeok
BeatmapID:3731498
BeatmapSetID:1699249

[Difficulty]
HPDrainRate:5.4
CircleSize:4
OverallDifficulty:8
ApproachRate:9
SliderMultiplier:2.22
SliderTickRate:1

[Events]
//Background and Video events
0,0,"95421472_p0.jpg",0,0
//Break Periods
//Storyboard Layer 0 (Background)
//Storyboard Layer 1 (Fail)
//Storyboard Layer 2 (Pass)
//Storyboard Layer 3 (Foreground)
//Storyboard Layer 4 (Overlay)
//Storyboard Sound Samples

[TimingPoints]
400,400,4,2,77,27,1,0
13200,-100,4,2,77,57,0,0
38800,-90.9090909090909,4,2,77,67,0,0
50000,-90.9090909090909,4,2,77,47,0,0
50150,-90.9090909090909,4,2,77,5,0,0
50200,-90.9090909090909,4,2,77,47,0,0
50550,-90.9090909090909,4,2,77,5,0,0
50600,-90.9090909090909,4,2,77,47,0,0
51200,-66.6666666666667,4,2,77,47,0,0
51600,-83.3333333333333,4,2,77,87,0,0
51949,-83.3333333333333,4,2,77,5,0,0
52000,-62.5,4,2,77,87,0,0
52350,-62.5,4,2,77,5,0,0
52400,-125,4,2,77,87,0,0
52800,-71.4285714285714,4,2,77,87,0,0
53000,-83.3333333333333,4,2,77,87,0,0
53149,-83.3333333333333,4,2,77,5,0,0
53200,-83.3333333333333,4,2,77,87,0,0
53600,-125,4,2,77,87,0,0
54000,-83.3333333333333,4,2,77,87,0,0
55600,-100,4,2,77,87,0,0
55750,-100,4,2,77,5,0,0
55800,-100,4,2,77,87,0,0
56000,-66.6666666666667,4,2,77,87,0,0
56400,-80,4,2,77,87,0,0
57200,-125,4,2,77,87,0,0
57800,-83.3333333333333,4,2,77,87,0,0
59349,-83.3333333333333,4,2,77,5,0,0
59400,-83.3333333333333,4,2,77,87,0,0
60000,-71.4285714285714,4,2,77,87,0,0
60400,-125,4,2,77,87,0,0
61200,-71.4285714285714,4,2,77,87,0,0
61600,-83.3333333333333,4,2,77,87,0,0
62149,-83.3333333333333,4,2,77,5,0,0
62200,-83.3333333333333,4,2,77,87,0,0
62400,-66.6666666666667,4,2,77,87,0,0
62800,-125,4,2,77,87,0,0
63200,-66.6666666666667,4,2,77,87,0,0
64400,-83.3333333333333,4,2,77,87,0,0
64749,-83.3333333333333,4,2,77,5,0,0
64800,-62.5,4,2,77,87,0,0
65150,-62.5,4,2,77,5,0,0
65200,-125,4,2,77,87,0,0
65550,-125,4,2,77,5,0,0
65600,-71.4285714285714,4,2,77,87,0,0
65800,-83.3333333333333,4,2,77,87,0,0
66400,-125,4,2,77,87,0,0
66800,-83.3333333333333,4,2,77,87,0,0
68600,-100,4,2,77,87,0,0
68800,-66.6666666666667,4,2,77,87,0,0
69200,-80,4,2,77,87,0,0
70000,-125,4,2,77,87,0,0
70600,-83.3333333333333,4,2,77,87,0,0
72800,-71.4285714285714,4,2,77,87,0,0
74400,-83.3333333333333,4,2,77,87,0,0
75200,-66.6666666666667,4,2,77,87,0,0
75600,-125,4,2,77,87,0,0
76000,-66.6666666666667,4,2,77,87,0,0
77200,-83.3333333333333,4,2,77,87,0,0
78800,-105.263157894737,4,2,77,27,0,0
79149,-105.263157894737,4,2,77,5,0,0
79200,-76.8998392142002,4,2,77,27,0,0
80000,-54.628935587238,4,2,77,27,0,0
80350,-54.628935587238,4,2,77,5,0,0
80400,-54.628935587238,4,2,77,47,0,0
80800,-95.2380952380952,4,2,77,47,0,0
84800,-133.333333333333,4,2,77,47,0,0
85200,-95.2380952380952,4,2,77,47,0,0
86800,-117.647058823529,4,2,77,47,0,0
93200,-64.5161290322581,4,2,77,47,0,0
93600,-86.9565217391304,4,2,77,47,0,0
99600,-64.5161290322581,4,2,77,47,0,0
100000,-86.9565217391304,4,2,77,47,0,0
102000,-105.263157894737,4,2,77,47,0,0
104399,-105.263157894737,4,2,77,27,0,0
105600,-133.333333333334,4,2,77,27,0,0
106000,-90.9090909090909,4,2,77,67,0,0
117200,-90.9090909090909,4,2,77,47,0,0
118400,-66.6666666666667,4,2,77,47,0,0
118800,-83.3333333333333,4,2,77,87,0,0
119149,-83.3333333333333,4,2,77,5,0,0
119200,-62.5,4,2,77,87,0,0
119550,-62.5,4,2,77,5,0,0
119600,-125,4,2,77,87,0,0
120000,-71.4285714285714,4,2,77,87,0,0
120200,-83.3333333333333,4,2,77,87,0,0
120800,-125,4,2,77,87,0,0
121200,-83.3333333333333,4,2,77,87,0,0
123000,-100,4,2,77,87,0,0
123200,-66.6666666666667,4,2,77,87,0,0
123600,-80,4,2,77,87,0,0
124400,-125,4,2,77,87,0,0
125000,-83.3333333333333,4,2,77,87,0,0
127200,-71.4285714285714,4,2,77,87,0,0
127600,-125,4,2,77,87,0,0
128400,-71.4285714285714,4,2,77,87,0,0
129000,-83.3333333333333,4,2,77,87,0,0
129600,-66.6666666666667,4,2,77,87,0,0
130000,-125,4,2,77,87,0,0
130400,-66.6666666666667,4,2,77,87,0,0
131600,-83.3333333333333,4,2,77,87,0,0
131949,-83.3333333333333,4,2,77,5,0,0
132000,-62.5,4,2,77,87,0,0
132350,-62.5,4,2,77,5,0,0
132400,-125,4,2,77,87,0,0
132800,-71.4285714285714,4,2,77,87,0,0
133000,-83.3333333333333,4,2,77,87,0,0
133149,-83.3333333333333,4,2,77,5,0,0
133200,-83.3333333333333,4,2,77,87,0,0
133600,-125,4,2,77,87,0,0
134000,-83.3333333333333,4,2,77,87,0,0
135600,-100,4,2,77,87,0,0
135750,-100,4,2,77,5,0,0
135800,-100,4,2,77,87,0,0
136000,-66.6666666666667,4,2,77,87,0,0
136400,-80,4,2,77,87,0,0
137200,-125,4,2,77,87,0,0
137800,-83.3333333333333,4,2,77,87,0,0
139349,-83.3333333333333,4,2,77,5,0,0
139400,-83.3333333333333,4,2,77,87,0,0
140000,-71.4285714285714,4,2,77,87,0,0
140400,-125,4,2,77,87,0,0
141200,-71.4285714285714,4,2,77,87,0,0
141600,-83.3333333333333,4,2,77,87,0,0
142149,-83.3333333333333,4,2,77,5,0,0
142200,-83.3333333333333,4,2,77,87,0,0
142400,-66.6666666666667,4,2,77,87,0,0
142800,-125,4,2,77,87,0,0
143200,-66.6666666666667,4,2,77,87,0,0
144150,-66.6666666666667,4,2,77,5,0,0
144200,-66.6666666666667,4,2,77,87,0,0
146000,-142.857142857143,4,2,77,27,0,0
147599,-142.857142857143,4,2,77,47,0,0

[Colours]
Combo1 : 151,255,255
Combo2 : 233,233,233

[HitObjects]
59,346,13200,5,2,1:0:0:0:
59,346,13300,1,2,2:0:0:0:
59,346,13400,2,0,P|51:299|44:264,1,55.5,2|0,1:0|2:0,2:0:0:0:
1,228,13600,2,0,P|51:213|118:255,1,111,2|2,2:0|2:0,2:0:0:0:
148,301,13900,1,0,2:0:0:0:
156,305,14000,2,0,P|205:327|258:312,1,111,8|0,2:0|2:0,2:0:0:0:
464,80,14400,5,2,2:0:0:0:
455,76,14500,1,0,2:0:0:0:
445,73,14600,2,0,P|415:81|390:89,1,55.5,2|0,2:0|2:0,2:0:0:0:
319,132,14800,2,0,P|292:123|265:116,2,55.5,2|0|2,2:0|2:0|2:0,2:0:0:0:
402,193,15100,1,0,2:0:0:0:
413,197,15200,2,0,P|398:121|379:36,1,111,2|2,2:0|2:0,2:0:0:0:
329,38,15500,1,0,2:0:0:0:
332,28,15600,5,10,2:0:0:0:
224,65,15800,1,0,1:0:0:0:
200,171,16000,1,0,1:0:0:0:
276,248,16200,1,10,1:2:0:0:
280,241,16300,1,0,2:0:0:0:
284,234,16400,6,0,P|304:299|321:366,1,111,2|2,1:0|2:0,2:0:0:0:
323,347,16700,1,0,2:0:0:0:
330,354,16800,1,2,2:0:0:0:
403,314,17000,1,2,1:0:0:0:
512,262,17200,5,10,2:0:0:0:
439,222,17400,1,2,2:0:0:0:
355,152,17600,6,0,P|366:109|377:78,1,55.5,2|0,2:0|2:0,2:0:0:0:
304,26,17800,2,0,P|293:69|282:100,1,55.5,2|0,2:0|2:0,2:0:0:0:
358,185,18000,2,0,P|376:111|395:58,1,111,2|2,2:0|2:0,2:0:0:0:
165,276,18400,5,2,1:0:0:0:
169,270,18500,2,0,P|150:196|131:143,1,111,2|0,2:0|2:0,2:0:0:0:
133,160,18800,6,0,P|109:151|85:148,4,27.75,2|0|0|0|0,1:0|2:0|2:0|0:0|1:0,2:0:0:0:
204,112,19200,6,0,P|228:104|253:100,3,27.75,2|0|0|0,1:0|2:0|2:0|2:0,2:0:0:0:
179,44,19400,2,0,P|194:37|211:33,3,27.75,10|0|0|0,1:2|2:0|2:0|2:0,2:0:0:0:
286,9,19600,6,0,P|346:34|412:48,1,111,2|2,1:0|1:0,2:0:0:0:
481,77,19900,1,0,2:0:0:0:
476,71,20000,2,0,P|417:68|396:144,1,111,2|2,2:0|2:0,2:0:0:0:
377,362,20400,6,0,P|361:296|340:220,1,111,10|2,2:0|2:0,2:0:0:0:
354,246,20700,1,2,2:0:0:0:
359,238,20800,1,0,2:0:0:0:
263,188,21000,1,2,2:0:0:0:
151,317,21200,6,0,P|96:345|49:385,1,111,2|2,2:0|2:0,2:0:0:0:
0,279,21500,1,2,2:0:0:0:
0,287,21600,2,0,P|52:275|98:331,1,111,0|2,2:0|2:0,2:0:0:0:
345,353,22000,6,0,P|381:362|414:382,1,55.5,10|0,2:0|2:0,2:0:0:0:
300,286,22200,2,0,P|325:274|352:268,1,55.5,2|0,1:0|2:0,2:0:0:0:
331,196,22400,6,0,P|295:205|262:225,1,55.5,0|0,1:0|2:0,2:0:0:0:
376,129,22600,2,0,P|350:117|323:111,1,55.5,10|0,1:2|2:0,2:0:0:0:
192,27,22800,6,0,P|211:102|223:152,1,111,2|2,1:0|2:0,2:0:0:0:
171,202,23100,1,0,2:0:0:0:
171,210,23200,2,0,P|132:199|97:194,2,55.5,2|0|2,2:0|2:0|1:0,2:0:0:0:
244,283,23500,1,0,2:0:0:0:
249,289,23600,2,0,P|288:278|323:273,1,55.5,10|0,2:0|2:0,2:0:0:0:
370,313,23800,1,2,2:0:0:0:
490,229,24000,6,0,P|463:220|436:215,1,55.5,2|2,2:0|2:0,2:0:0:0:
350,109,24200,2,0,P|376:117|403:122,1,55.5,0|2,2:0|2:0,2:0:0:0:
512,248,24400,6,0,P|454:230|395:218,1,111,2|2,2:0|2:0,2:0:0:0:
327,83,24700,1,0,2:0:0:0:
329,91,24800,2,0,P|386:108|445:120,1,111,2|2,1:0|2:0,2:0:0:0:
161,195,25200,6,0,L|151:145,2,27.75,10|0|0,1:2|2:0|2:0,2:0:0:0:
177,273,25400,1,2,1:0:0:0:
319,357,25600,2,0,L|309:409,2,27.75,2|0|0,1:0|2:0|2:0,2:0:0:0:
335,273,25800,1,10,1:2:0:0:
471,205,26000,6,0,P|467:177|457:142,1,55.5,2|0,1:0|2:0,2:0:0:0:
386,168,26200,2,0,P|390:196|400:231,1,55.5,2|0,1:0|2:0,2:0:0:0:
508,222,26400,2,0,P|482:169|471:111,1,111,2|2,2:0|2:0,2:0:0:0:
382,49,26800,1,10,2:0:0:0:
373,39,26900,1,0,2:0:0:0:
360,32,27000,2,0,P|331:40|298:52,1,55.5,2|0,2:0|2:0,2:0:0:0:
290,122,27200,2,0,P|261:114|228:102,1,55.5,2|0,2:0|2:0,2:0:0:0:
211,36,27400,1,2,2:0:0:0:
32,124,27600,6,0,P|53:161|70:247,1,111,2|2,2:0|2:0,2:0:0:0:
34,372,28000,1,2,2:0:0:0:
45,361,28100,1,0,2:0:0:0:
59,354,28200,1,2,2:0:0:0:
76,355,28300,1,0,2:0:0:0:
90,357,28400,2,0,P|117:365|149:381,1,55.5,10|0,2:0|2:0,2:0:0:0:
186,306,28600,2,0,P|159:298|127:282,1,55.5,2|0,1:0|2:0,2:0:0:0:
285,365,28800,6,0,P|310:359|326:359,3,27.75,2|0|0|0,1:0|2:0|2:0|2:0,2:0:0:0:
323,285,29000,2,0,P|341:287|359:287,3,27.75,10|0|0|0,1:2|2:0|2:0|2:0,2:0:0:0:
436,279,29200,6,0,P|447:249|450:214,1,55.5,2|0,1:0|2:0,2:0:0:0:
503,319,29400,2,0,P|525:260|522:205,1,111,2|2,2:0|2:0,2:0:0:0:
510,193,29700,1,0,2:0:0:0:
506,182,29800,1,2,1:0:0:0:
402,21,30000,6,0,B|376:3|342:7|327:35|331:40|334:48|319:74|281:84|257:55,1,166.5,10|0,2:0|2:0,2:0:0:0:
198,17,30400,1,2,2:0:0:0:
188,23,30500,1,0,2:0:0:0:
177,33,30600,2,0,P|190:67|191:103,1,55.5,2|0,2:0|2:0,2:0:0:0:
35,175,30800,6,0,P|97:176|134:231,1,111,2|2,2:0|2:0,2:0:0:0:
218,295,31200,1,2,1:0:0:0:
214,308,31300,1,0,2:0:0:0:
209,319,31400,1,2,2:0:0:0:
206,329,31500,1,0,2:0:0:0:
201,342,31600,2,0,L|162:351,4,27.75,10|0|0|0|2,1:2|2:0|2:0|0:0|1:0,2:0:0:0:
365,338,32000,6,0,P|346:329|326:324,2,37,2|0|0,1:0|2:0|2:0,2:0:0:0:
415,279,32200,2,0,P|396:270|376:265,2,37,10|0|0,1:2|2:0|2:0,2:0:0:0:
508,192,32400,6,0,P|508:161|514:133,1,55.5,2|0,1:0|2:0,2:0:0:0:
442,116,32600,2,0,P|455:87|472:65,1,55.5,2|0,1:0|2:0,2:0:0:0:
368,148,32800,2,0,P|329:115|257:118,1,111,0|0,2:0|2:0,2:0:0:0:
0,248,33200,6,0,B|22:274|60:264|68:239|72:241|66:238|81:209|108:197|142:217,1,166.5,10|0,2:0|2:0,2:0:0:0:
195,268,33600,2,0,P|177:290|172:328,1,55.5,2|0,2:0|2:0,2:0:0:0:
261,216,33800,1,2,2:0:0:0:
268,203,33900,1,0,2:0:0:0:
273,192,34000,6,0,P|256:142|237:66,1,111,2|2,2:0|2:0,2:0:0:0:
379,256,34400,2,0,P|362:306|343:382,1,111,2|0,2:0|2:0,2:0:0:0:
499,197,34800,6,0,P|491:167|469:152,1,55.5,10|0,2:0|2:0,2:0:0:0:
494,81,35000,2,0,P|464:72|440:84,1,55.5,2|0,1:0|2:0,2:0:0:0:
365,15,35200,1,2,1:0:0:0:
353,9,35300,1,0,2:0:0:0:
340,7,35400,2,0,P|318:28|316:55,1,55.5,10|0,1:2|2:0,2:0:0:0:
339,173,35600,5,2,1:0:0:0:
327,182,35700,2,0,B|278:173|278:173|271:174|271:174|216:164,1,111,0|0,2:0|2:0,2:0:0:0:
154,208,36000,2,0,P|166:221|182:229,3,37,2|0|0|2,2:0|2:0|2:0|1:0,2:0:0:0:
24,51,36400,2,0,P|81:64|93:122,1,111,10|2,2:0|2:0,2:0:0:0:
37,248,36800,2,0,P|53:276|80:283,1,55.5,2|0,2:0|2:0,2:0:0:0:
76,358,37000,2,0,P|108:358|127:338,1,55.5,2|0,2:0|2:0,2:0:0:0:
233,272,37200,6,0,P|288:282|313:336,1,111,2|10,1:0|2:0,2:0:0:0:
423,225,37600,1,2,1:0:0:0:
425,212,37700,1,0,2:0:0:0:
427,200,37800,1,0,2:0:0:0:
429,190,37900,1,0,2:0:0:0:
431,180,38000,6,0,L|469:188,3,27.75,2|0|0|0,1:0|2:0|2:0|2:0,2:0:0:0:
436,108,38200,2,0,P|475:119|500:130,1,55.5,2|0,1:0|2:0,2:0:0:0:
318,72,38400,6,0,L|283:81,3,27.75,0|0|0|0,1:0|2:0|2:0|2:0,2:0:0:0:
304,0,38600,2,0,P|265:11|240:22,1,55.5,0|0,2:0|2:0,2:0:0:0:
124,116,38800,6,0,P|146:189|172:306,1,183.150005589295,14|0,1:2|3:0,2:0:0:0:
97,352,39200,2,0,P|102:293|166:288,1,122.100003726196,8|2,1:0|3:0,2:0:0:0:
233,361,39600,5,10,2:0:0:0:
246,279,39800,1,0,3:0:0:0:
335,255,40000,1,10,1:0:0:0:
408,303,40200,1,2,3:0:0:0:
427,384,40400,6,0,P|446:294|472:206,1,183.150005589295,10|0,1:2|3:0,2:0:0:0:
512,120,40800,2,0,P|507:179|443:184,1,122.100003726196,10|0,1:0|3:0,2:0:0:0:
266,50,41200,6,0,P|226:40|200:26,1,61.0500018630982,10|0,2:0|2:0,2:0:0:0:
99,73,41400,2,0,P|139:83|165:97,1,61.0500018630982,0|0,3:0|2:0,2:0:0:0:
210,161,41600,1,10,1:0:0:0:
41,374,42000,6,0,P|103:349|245:324,1,183.150005589295,10|0,1:2|3:0,2:0:0:0:
297,375,42400,2,0,P|251:383|229:299,1,122.100003726196,8|2,1:0|3:0,2:0:0:0:
288,264,42800,1,10,2:0:0:0:
223,205,43000,1,0,3:0:0:0:
289,146,43200,1,8,1:0:0:0:
224,80,43400,1,2,3:0:0:0:
360,72,43600,6,0,P|269:55|184:23,1,183.150005589295,10|0,1:2|3:0,2:0:0:0:
82,21,44000,2,0,P|137:12|152:95,1,122.100003726196,10|0,1:0|3:0,2:0:0:0:
59,161,44400,6,0,P|71:197|80:231,1,61.0500018630982,10|0,2:0|2:0,2:0:0:0:
29,288,44600,2,0,P|48:264|68:241,1,61.0500018630982,0|0,3:0|2:0,2:0:0:0:
150,256,44800,1,2,1:0:0:0:
511,377,45200,6,0,P|494:369|371:340,1,122.100003726196,10|0,1:2|1:0,2:0:0:0:
385,339,45500,1,0,3:0:0:0:
374,337,45600,1,8,1:0:0:0:
271,192,45800,1,10,1:0:0:0:
282,190,45900,1,0,3:0:0:0:
292,189,46000,2,0,P|300:223|311:270,1,61.0500018630982,10|0,1:2|2:0,2:0:0:0:
263,332,46200,1,8,1:0:0:0:
413,213,46400,5,8,1:0:0:0:
459,301,46600,1,10,1:0:0:0:
512,173,46800,6,0,P|457:183|413:115,1,122.100003726196,10|0,1:2|1:0,2:0:0:0:
423,138,47100,1,0,3:0:0:0:
432,137,47200,2,0,P|444:74|454:-1,1,122.100003726196,8|10,1:0|1:0,2:0:0:0:
452,16,47500,1,0,3:0:0:0:
452,16,47600,1,10,1:2:0:0:
306,110,47800,1,8,1:0:0:0:
486,254,48000,2,0,P|423:242|348:232,1,122.100003726196,10|0,1:0|1:0,2:0:0:0:
160,358,48400,5,10,2:0:0:0:
153,350,48500,1,0,1:0:0:0:
147,340,48600,1,8,2:1:0:0:
139,329,48700,1,8,2:1:0:0:
133,320,48800,2,0,P|140:287|147:254,3,61.0500018630982,10|0|8|8,2:0|1:0|2:1|1:0,2:0:0:0:
44,184,49200,2,0,P|39:158|30:111,3,61.0500018630982,10|8|8|0,2:0|2:1|2:1|1:0,2:0:0:0:
85,53,49600,1,10,2:0:0:0:
102,46,49700,1,0,1:0:0:0:
119,39,49800,1,8,2:1:0:0:
136,32,49900,1,8,1:0:0:0:
154,29,50000,6,0,P|224:39|271:52,1,91.5750027946473,2|0,3:0|0:0,2:0:0:0:
319,48,50200,2,0,P|311:23|312:2,3,30.5250009315491,0|0|0|0,3:0|2:0|2:0|2:0,2:0:0:0:
370,122,50400,6,0,P|300:132|253:145,1,91.5750027946473,0|0,3:0|0:0,2:0:0:0:
205,141,50600,2,0,P|213:116|212:95,3,30.5250009315491,0|0|0|0,3:0|2:0|2:0|2:0,2:0:0:0:
166,241,50800,5,2,3:0:0:0:
7,246,50933,5,0,3:0:0:0:
86,384,51066,5,0,3:0:0:0:
89,296,51200,6,0,P|63:314|27:318,1,55.5000021171571,10|0,2:3|2:0,2:0:0:0:
85,288,51333,6,0,P|113:302|135:331,1,55.5000021171571,8|0,2:3|2:0,2:0:0:0:
88,283,51466,6,0,P|85:252|99:219,1,55.5000021171571,8|0,2:3|2:0,2:0:0:0:
259,294,51600,6,0,B|291:324|343:299|341:254|338:251|334:247|341:203|390:180|434:224,1,233.099992886353,4|0,1:0|0:0,2:0:0:0:
449,233,52000,2,0,B|403:278|333:244|336:184|340:180|345:175|336:116|271:86|212:145,1,310.8,0|0,2:0|0:0,2:0:0:0:
215,156,52400,6,0,P|259:110|231:42,1,133.2,8|0,2:0|2:0,2:0:0:0:
123,118,52800,2,0,P|117:78|148:44,1,77.6999976287843,4|0,1:0|2:0,2:0:0:0:
56,364,53000,6,0,P|55:314|13:289,1,99.899996951294,0|0,1:0|0:0,2:0:0:0:
0,289,53200,6,0,P|54:308|126:209,1,199.799993902588,0|0,2:0|2:0,2:0:0:0:
194,315,53600,6,0,P|230:371|295:369,1,133.2,0|0,2:0|2:0,2:0:0:0:
430,321,54000,6,0,P|448:296|439:255,1,66.5999979675294,10|0,2:0|2:0,2:0:0:0:
347,302,54200,2,0,P|342:269|360:242,1,66.5999979675294,8|0,2:1|2:0,2:0:0:0:
441,87,54400,5,2,2:0:0:0:
422,79,54500,1,0,2:0:0:0:
408,70,54600,1,8,2:1:0:0:
399,57,54700,1,0,2:0:0:0:
396,39,54800,6,0,P|380:120|274:118,1,199.799993902588,6|0,1:0|2:0,2:0:0:0:
230,56,55200,2,0,P|241:32|244:3,2,44.3999986450196,0|0|0,2:0|2:0|2:0,2:0:0:0:
157,41,55400,2,0,P|168:17|171:-12,2,44.3999986450196,2|0|0,2:0|2:0|2:0,2:0:0:0:
86,89,55600,6,0,P|93:147|101:185,1,83.25,10|0,2:0|0:0,2:0:0:0:
111,189,55800,2,0,L|103:223,2,27.75,0|0|0,2:0|2:0|2:0,2:0:0:0:
129,372,56000,6,0,P|154:341|151:297,1,83.2500031757356,4|0,1:0|2:0,2:0:0:0:
12,337,56200,2,0,P|9:296|35:264,1,83.2500031757356,0|0,1:0|2:0,2:0:0:0:
215,211,56400,6,0,B|230:232|263:236|283:216|279:210|277:208|299:193|333:195|356:225,1,138.75,0|0,2:0|2:0,2:0:0:0:
483,342,56800,1,0,1:0:0:0:
471,339,56900,1,0,2:0:0:0:
461,332,57000,2,0,P|466:294|486:263,1,69.375,2|0,2:0|2:0,2:0:0:0:
512,126,57200,6,0,P|486:179|410:170,1,133.2,10|0,2:0|2:0,2:0:0:0:
410,162,57600,1,2,1:0:0:0:
345,42,57800,2,0,P|350:24|353:5,3,33.2999989837647,0|0|0|0,2:0|2:0|2:0|2:0,2:0:0:0:
423,76,58000,6,0,P|359:74|324:128,1,133.2,6|0,1:0|2:0,2:0:0:0:
167,326,58400,6,0,B|163:288|133:264|96:275|95:279|95:285|63:300|22:286|17:239,1,199.799993902588,0|0,2:0|2:0,2:0:0:0:
123,384,58800,2,0,P|106:301|73:180,1,199.799993902588,10|0,2:0|2:0,2:0:0:0:
44,44,59200,2,0,P|81:83|133:76,1,99.899996951294,4|0,1:0|0:0,2:0:0:0:
149,91,59400,2,0,P|171:93|186:104,2,33.2999989837647,2|0|0,2:0|2:0|2:0,2:0:0:0:
163,218,59600,6,0,P|184:149|302:158,1,199.799993902588,2|0,2:0|2:0,2:0:0:0:
381,93,60000,2,0,P|409:59|396:15,1,77.6999976287843,0|0,1:0|2:0,2:0:0:0:
307,67,60200,2,0,P|305:29|331:1,1,77.6999976287843,2|0,2:0|2:0,2:0:0:0:
469,129,60400,6,0,P|407:124|374:184,1,133.2,10|0,2:0|2:0,2:0:0:0:
379,198,60800,1,0,2:0:0:0:
472,264,61000,1,2,2:0:0:0:
85,284,61200,6,0,B|37:295|20:357|67:397|130:391|168:346|163:301,1,233.099992886353,6|0,1:0|2:0,2:0:0:0:
222,269,61600,2,0,P|216:240|221:210,2,44.3999986450196,0|0|0,2:0|2:0|2:0,2:0:0:0:
301,279,61800,2,0,P|291:242|300:199,1,66.5999979675294,2|0,2:0|2:0,2:0:0:0:
205,146,62000,6,0,P|155:128|99:134,1,99.899996951294,10|0,2:0|0:0,2:0:0:0:
98,148,62200,2,0,P|73:149|56:144,2,33.2999989837647,0|0|0,2:0|2:0|2:0,2:0:0:0:
342,94,62400,6,0,P|370:57|357:16,1,83.2500031757356,4|0,1:0|2:0,2:0:0:0:
257,70,62600,2,0,P|251:29|277:0,1,83.2500031757356,2|0,1:0|2:0,2:0:0:0:
343,175,62800,6,0,P|401:186|423:256,1,133.2,2|0,2:0|2:0,2:0:0:0:
300,358,63200,2,0,B|276:377|239:369|228:340|230:336|234:331|227:297|183:286|153:313,1,166.500006351471,2|0,1:0|2:0,2:0:0:0:
158,323,63450,2,0,P|185:312|198:297,2,41.6250015878678,8|8|8,2:1|2:1|2:1,2:0:0:0:
99,279,63600,5,10,1:2:0:0:
153,130,63733,5,8,2:1:0:0:
0,154,63866,5,8,2:1:0:0:
85,190,64000,6,0,P|82:158|62:128,1,55.5000021171571,14|0,2:3|2:0,2:0:0:0:
76,193,64133,6,0,P|104:205|141:203,1,55.5000021171571,8|8,2:3|2:1,2:0:0:0:
75,198,64266,6,0,P|49:215|33:247,1,55.5000021171571,8|0,2:3|2:0,2:0:0:0:
136,35,64400,6,0,B|210:-2|264:101|185:65|248:168|320:132,1,233.099992886353,4|0,1:0|0:0,2:0:0:0:
338,124,64800,2,0,B|238:71|163:203|272:163|190:299|97:237,1,310.8,0|0,2:0|0:0,2:0:0:0:
98,227,65200,6,0,P|186:251|251:296,1,155.4,8|0,2:0|0:0,2:0:0:0:
253,372,65600,6,0,P|214:371|183:324,1,77.6999976287843,4|0,1:0|2:0,2:0:0:0:
341,264,65800,2,0,P|375:278|402:307,1,66.5999979675294,0|0,1:0|2:0,2:0:0:0:
403,384,66000,6,0,P|412:324|461:186,1,199.799993902588,0|0,2:0|2:0,2:0:0:0:
491,114,66400,6,0,P|482:155|402:158,1,133.2,0|0,2:0|2:0,2:0:0:0:
331,58,66800,6,0,P|299:54|261:35,1,66.5999979675294,10|0,2:1|2:0,2:0:0:0:
140,72,67000,2,0,P|172:76|210:95,1,66.5999979675294,8|0,2:1|2:0,2:0:0:0:
260,172,67200,5,2,2:0:0:0:
263,181,67300,1,0,2:0:0:0:
267,188,67400,2,0,P|276:148|292:107,1,66.5999979675294,8|0,2:1|2:0,2:0:0:0:
265,38,67600,6,0,P|285:96|317:241,1,199.799993902588,6|0,1:0|2:0,2:0:0:0:
205,340,68000,6,0,P|243:344|273:311,1,66.5999979675294,0|0,2:0|2:0,2:0:0:0:
315,230,68200,2,0,P|353:226|383:259,1,66.5999979675294,2|0,2:0|2:0,2:0:0:0:
462,307,68400,1,10,2:0:0:0:
466,192,68600,2,0,L|476:160,2,27.75,0|0|0,2:0|2:0|2:0,2:0:0:0:
442,308,68800,6,0,P|397:319|350:350,1,83.2500031757356,4|0,1:0|2:0,2:0:0:0:
238,259,69000,2,0,P|283:248|330:217,1,83.2500031757356,2|0,1:0|2:0,2:0:0:0:
304,384,69200,6,0,P|315:308|357:170,1,208.125,2|0,2:0|2:0,2:0:0:0:
256,68,69600,1,0,1:0:0:0:
251,75,69700,1,0,2:0:0:0:
246,82,69800,2,0,P|270:109|320:108,1,69.375,0|0,2:0|2:0,2:0:0:0:
485,89,70000,6,0,P|440:81|352:41,1,133.2,10|0,2:0|2:0,2:0:0:0:
342,31,70400,1,2,1:0:0:0:
194,163,70600,2,0,P|173:167|148:183,2,33.2999989837647,0|0|0,2:0|2:0|2:0,2:0:0:0:
256,59,70800,6,0,P|283:126|295:208,1,133.199995935059,6|0,1:0|2:0,2:0:0:0:
413,255,71200,6,0,B|359:223|311:270|325:300|330:299|317:357|253:340,1,199.799993902588,2|0,2:0|2:0,2:0:0:0:
430,345,71600,2,0,P|368:310|226:268,1,199.799993902588,10|0,2:0|2:0,2:0:0:0:
180,310,72000,1,6,1:0:0:0:
125,161,72200,6,0,L|115:122,2,33.2999989837647,0|0|0,2:0|2:0|2:0,2:0:0:0:
106,252,72400,2,0,P|127:173|166:60,1,199.799993902588,2|0,2:0|2:0,2:0:0:0:
54,48,72800,6,0,B|86:97|146:83|158:53|153:51|162:12|234:5|264:59,1,233.099992886353,2|0,1:0|2:0,2:0:0:0:
294,109,73200,1,10,2:0:0:0:
473,298,73400,5,0,2:0:0:0:
398,270,73600,1,0,2:0:0:0:
325,246,73800,1,0,2:0:0:0:
466,221,74000,6,0,B|516:203|504:139|444:124|390:157|376:214|404:263,1,233.099992886353,6|0,1:0|2:0,2:0:0:0:
333,340,74400,6,0,P|302:349|273:383,1,66.5999979675294,2|0,2:0|2:0,2:0:0:0:
165,231,74600,2,0,P|198:239|220:280,1,66.5999979675294,0|0,2:0|2:0,2:0:0:0:
138,348,74800,1,10,2:0:0:0:
37,224,75000,6,0,P|44:197|53:173,2,33.2999989837647,0|0|0,2:0|2:0|2:0,2:0:0:0:
25,324,75200,2,0,P|11:240|-26:141,1,166.500006351471,6|0,1:0|1:0,2:0:0:0:
83,28,75600,6,0,P|88:73|171:87,1,133.2,2|0,2:0|2:0,2:0:0:0:
319,43,76000,2,0,P|274:38|241:85,1,83.2500031757356,2|0,1:0|2:0,2:0:0:0:
232,143,76200,2,0,P|242:173|248:194,2,41.6250015878678,2|8|8,2:0|2:1|2:1,2:0:0:0:
143,202,76400,5,10,1:2:0:0:
242,263,76533,5,8,2:1:0:0:
142,325,76666,5,8,2:1:0:0:
244,373,76800,5,14,2:3:0:0:
256,379,76900,1,0,2:0:0:0:
271,383,77000,2,0,P|305:369|329:368,3,41.6250015878678,8|0|0|0,2:1|2:0|2:0|2:0,2:0:0:0:
420,331,77200,6,0,B|430:385|381:405|334:396|317:346|317:295|342:251|404:246,1,266.399991870117,2|0,2:0|2:0,2:0:0:0:
454,152,78800,6,0,B|428:170|387:157|384:122|387:120|391:118|389:84|353:61|310:84,1,184.537495072317,0|0,3:0|0:0,2:0:0:0:
305,93,79200,6,0,B|308:95|311:96|311:96|313:95|313:95|313:98|313:98|316:99|318:100|318:100|319:102|319:102|321:100|321:100|323:101|326:101|326:101|327:100|327:100|329:102|329:102|331:102|334:102|334:102|335:104|335:104|337:102|337:102|339:102|342:102|342:102|343:99|343:99|345:101|345:101|347:101|350:100|350:100|351:101|351:101|352:99|352:99|355:98|357:97|357:97|358:95|358:95|360:96|360:96|362:95|364:94|364:94|366:95|366:95|367:92|367:92|369:91|371:89|371:89|371:87|371:87|373:87|373:87|375:86|377:84|377:84|379:84|379:84|379:82|379:82|381:80|382:78|382:78|382:76|382:76|384:76|384:76|386:74|387:72|387:72|390:72|390:72|389:69|389:69|390:67|391:65|391:65|390:63|390:63|393:62|393:62|394:60|395:58|395:58|397:57|397:57|396:55|396:55|397:53|398:50|398:50|397:48|397:48|399:48|399:48|400:45|401:43|401:43|403:42|403:42|402:40|402:40|403:38|404:35|404:35|402:33|402:33|405:33|405:33|406:31|407:28|407:28|410:28|410:28|409:26|409:26|410:24|411:22|411:22|411:19|411:19|413:19|413:19|415:17|417:16|417:16|419:16|419:16|419:13|419:13|421:12|423:10|423:10|423:8|423:8|425:8|425:8|427:7|429:6|429:6|431:7|431:7|432:4|432:4|434:3|436:2|436:2|437:0|437:0|439:1|439:1|441:0|444:-1|444:-1|446:1|446:1|447:-2|447:-2|449:-2|451:-3|451:-3|453:-5|453:-5|454:-3|454:-3|457:-3|459:-3|459:-3|461:-1|461:-1|462:-3|462:-3|465:-3|467:-3|467:-3|469:-5|469:-5|470:-3|470:-3|473:-2|475:-2|475:-2|476:1|476:1|478:-1|478:-1|485:2|481:0|483:1|483:1|485:0|485:0|485:2,1,288.687200771291,0|0,2:0|2:0,2:0:0:0:
498,9,80000,6,0,B|491:10|491:10|490:13|490:13|488:11|488:11|483:12|483:12|481:10|481:10|480:13|480:13|476:14|476:14|474:16|474:16|473:14|473:14|468:15|468:15|466:14|466:14|465:16|465:16|460:17|460:17|459:19|459:19|457:18|457:18|452:19|452:19|450:17|450:17|449:19|449:19|444:21|444:21|443:23|443:23|441:21|441:21|436:22|436:22|435:21|435:21|434:23|434:23|429:24|429:24|428:26|428:26|426:24|426:24|421:26|421:26|419:24|419:24|418:26|418:26|413:27|413:27|412:29|412:29|410:28|410:28|405:29|405:29|403:27|403:27|402:30|402:30|397:31|397:31|396:33|396:33|394:31|394:31|390:32|390:32|388:31|388:31|387:33|387:33|382:34|382:34|381:36|381:36|379:35|379:35|374:36|374:36|372:34|372:34|371:36|371:36|366:37|366:37|365:40|365:40|363:38|363:38|358:39|358:39|356:37|356:37|355:40|355:40|351:41|351:41|349:43|349:43|348:41|348:41|343:42|343:42|341:41|341:41|340:43|340:43|335:44|335:44|334:46|334:46|332:45|332:45|327:46|327:46|325:44|325:44|324:46|324:46|319:47|319:47|318:50|318:50|316:48|316:48|311:49|311:49|310:47|310:47|309:50|309:50|304:51|304:51|303:53|303:53|301:51|301:51|296:52|296:52|294:51|294:51|293:53|293:53|288:54|288:54|287:56|287:56|285:55|285:55|280:56|280:56|278:54|278:54|277:56|277:56|272:57|272:57|271:60|271:60|269:58|269:58|265:59|265:59|263:57|263:57|262:60|262:60|257:61|257:61|256:63|256:63|254:61|254:61|249:62|249:62|247:61|247:61|246:63|246:63|241:64|241:64|240:66|240:66|238:65|238:65|233:66|233:66|231:64|231:64|230:66|230:66|223:68|225:67|225:67|224:70|224:70|223:68,1,355.580799515741,0|0,2:0|0:0,2:0:0:0:
155,39,80400,5,10,1:3:0:0:
0,177,80800,6,0,P|74:179|91:252,1,155.399995257569,10|2,1:3|2:0,2:0:0:0:
83,321,81200,2,0,P|117:274|209:295,1,155.399995257569,8|2,2:0|2:0,2:0:0:0:
264,347,81600,1,2,2:0:0:0:
320,192,81800,5,2,1:0:0:0:
323,185,82000,2,0,P|379:171|483:156,1,155.399995257569,2|2,2:0|2:0,2:0:0:0:
503,87,82400,2,0,P|498:37|402:30,1,155.399995257569,2|2,1:0|2:0,2:0:0:0:
343,69,82800,2,0,P|288:81|199:99,1,116.549996443176,10|0,2:0|2:0,2:0:0:0:
206,102,83066,1,2,2:0:0:0:
143,36,83200,2,0,P|220:20|310:1,1,155.399995257569,2|0,2:0|2:0,2:0:0:0:
175,310,83600,6,0,B|146:326|117:314|108:288|110:287|112:285|105:254|72:244|37:265,1,155.399995257569,2|2,1:0|2:0,2:0:0:0:
27,331,84000,2,0,P|94:285|180:235,1,155.399995257569,2|2,1:0|2:0,2:0:0:0:
228,202,84400,1,10,2:0:0:0:
335,339,84666,5,2,2:0:0:0:
341,345,84800,2,0,P|364:286|423:291,1,111.000004234314,2|0,2:0|2:0,2:0:0:0:
475,315,85200,2,0,P|483:262|495:219,2,77.6999976287843,2|2|2,2:0|2:0|2:0,2:0:0:0:
404,163,85600,1,2,2:0:0:0:
410,146,85733,1,2,2:0:0:0:
416,125,85866,1,2,2:0:0:0:
422,107,86000,6,0,P|375:84|331:173,1,155.399995257569,10|0,2:0|2:0,2:0:0:0:
320,232,86400,2,0,P|289:297|220:279,1,155.399995257569,2|0,2:0|2:0,2:0:0:0:
1,272,86800,6,0,P|65:253|103:290,1,125.800002399445,10|0,1:3|2:0,2:0:0:0:
124,361,87200,2,0,P|131:294|144:224,1,125.800002399445,10|2,1:3|2:0,2:0:0:0:
93,171,87600,5,10,2:0:0:0:
200,139,87800,1,2,2:0:0:0:
258,234,88000,1,2,0:0:0:0:
258,234,88100,2,0,L|265:276,2,23.5875004498959,0|0|2,1:0|1:0|1:0,2:0:0:0:
353,146,88400,6,0,P|392:172|441:152,1,94.3500017995835,2|2,2:0|1:0,2:0:0:0:
444,152,88666,1,0,2:0:0:0:
497,30,88800,2,0,P|510:87|512:133,1,94.3500017995835,2|2,1:0|2:0,2:0:0:0:
342,69,89200,2,0,B|315:83|279:77|267:46|269:44|271:41|257:16|226:3|187:23,1,157.250002999306,10|0,2:0|2:0,2:0:0:0:
194,25,89600,1,2,2:0:0:0:
63,82,89800,5,0,1:0:0:0:
70,86,90000,2,0,P|89:131|108:184,1,94.3500017995835,2|0,1:0|2:0,2:0:0:0:
37,256,90400,2,0,P|67:248|116:297,1,94.3500017995835,2|0,1:0|2:0,2:0:0:0:
184,364,90800,2,0,P|234:344|299:323,1,94.3500017995835,10|2,2:0|2:0,2:0:0:0:
399,368,91200,1,2,2:0:0:0:
481,227,91400,5,2,2:0:0:0:
488,217,91500,1,2,2:0:0:0:
494,209,91600,2,0,P|491:174|496:144,1,47.1750008997917,2|0,2:0|2:0,2:0:0:0:
418,95,91800,1,2,1:0:0:0:
423,84,91900,1,2,2:0:0:0:
428,75,92000,2,0,P|431:40|426:10,1,47.1750008997917,2|0,2:0|2:0,2:0:0:0:
512,10,92200,2,0,P|509:45|514:75,1,47.1750008997917,2|0,1:0|2:0,2:0:0:0:
353,4,92400,5,10,2:0:0:0:
303,63,92600,1,2,1:0:0:0:
228,78,92800,2,0,P|193:65|163:65,1,47.1750008997917,2|0,2:0|2:0,2:0:0:0:
129,15,93000,1,0,2:0:0:0:
58,253,93200,6,0,B|98:208|156:232|177:274|140:250|165:302|226:319|263:261,1,229.400001750183,10|2,1:3|2:0,2:0:0:0:
220,211,93600,6,0,B|178:205|154:242|157:275|171:247|174:287|144:317|103:304,1,170.200003246307,10|2,1:3|2:0,2:0:0:0:
28,314,94000,1,10,2:0:0:0:
272,346,94400,6,0,P|331:353|361:366,1,85.1000016231537,2|0,2:0|2:0,2:0:0:0:
434,316,94666,5,0,2:0:0:0:
429,323,94800,2,0,P|381:329|316:240,1,170.200003246307,2|2,2:0|2:0,2:0:0:0:
360,78,95200,2,0,P|383:177|400:256,1,170.200003246307,2|2,1:0|2:0,2:0:0:0:
473,308,95600,2,0,P|414:291|330:272,1,127.650002434731,10|0,2:0|2:0,2:0:0:0:
89,333,96000,2,0,P|148:350|232:369,1,127.650002434731,2|0,2:0|1:0,2:0:0:0:
163,172,96400,5,2,1:0:0:0:
153,160,96533,2,0,P|162:128|180:73,1,85.1000016231537,2|2,2:0|2:0,2:0:0:0:
98,2,96800,5,2,1:0:0:0:
107,14,96933,2,0,P|98:46|84:104,1,85.1000016231537,2|2,2:0|2:0,2:0:0:0:
12,127,97200,1,10,2:0:0:0:
23,117,97600,6,0,P|77:102|109:226,1,170.200003246307,2|0,2:0|2:0,2:0:0:0:
73,250,98000,2,0,P|55:297|123:340,1,127.650002434731,0|0,2:0|1:0,2:0:0:0:
219,361,98400,5,2,2:0:0:0:
250,344,98533,1,2,2:0:0:0:
281,347,98666,1,2,2:0:0:0:
307,356,98800,6,0,P|280:257|256:185,1,127.650002434731,10|0,2:0|1:0,2:0:0:0:
464,62,99200,5,2,2:0:0:0:
477,42,99333,1,0,2:0:0:0:
495,30,99466,1,0,2:0:0:0:
511,23,99600,6,0,B|456:-14|410:33|411:85|435:42|437:103|405:150|335:120,1,229.400001750183,10|0,1:3|2:0,2:0:0:0:
494,102,100000,6,0,B|463:131|417:107|406:69|433:94|420:49|374:29|337:62,1,170.200003246307,10|2,1:3|2:0,2:0:0:0:
267,91,100400,2,0,P|227:82|182:78,2,85.1000016231537,10|2|2,2:0|2:0|2:0,2:0:0:0:
327,149,100800,1,2,2:0:0:0:
201,230,101000,5,2,1:0:0:0:
195,231,101200,2,0,P|177:245|188:309,2,85.1000016231537,2|0|0,2:0|2:0|2:0,2:0:0:0:
277,250,101600,2,0,P|288:290|262:322,2,85.1000016231537,2|2|2,1:0|2:0|2:0,2:0:0:0:
265,159,102000,6,0,P|275:219|367:216,1,140.599996245575,10|2,2:0|2:0,2:0:0:0:
408,183,102400,2,0,P|394:121|381:60,1,105.449997184181,2|0,2:0|1:0,2:0:0:0:
128,98,102800,5,2,1:0:0:0:
115,91,102900,1,2,2:0:0:0:
102,84,103000,1,2,2:0:0:0:
63,172,103200,2,0,P|33:192|-14:184,2,70.2999981227875,2|2|2,1:0|2:0|2:0,2:0:0:0:
133,9,103600,6,0,P|152:71|173:168,1,140.599996245575,10|0,2:0|2:0,2:0:0:0:
235,215,104000,1,2,2:0:0:0:
228,216,104133,2,0,P|209:278|188:368,1,140.599996245575,2|2,2:0|2:0,2:0:0:0:
187,368,104800,1,0,2:0:0:0:
187,368,105200,1,0,2:0:0:0:
275,313,105600,6,0,P|335:320|367:377,1,124.875004763603,0|0,2:0|2:0,2:0:0:0:
409,275,106000,6,0,P|419:206|427:145,1,122.100003726196,14|0,1:2|2:0,2:0:0:0:
422,137,106300,1,0,3:0:0:0:
417,125,106400,1,8,1:0:0:0:
474,9,106600,1,2,3:0:0:0:
322,116,106800,2,0,P|257:109|228:56,1,122.100003726196,10|0,2:0|3:0,2:0:0:0:
230,46,107100,1,0,2:0:0:0:
237,33,107200,1,10,1:0:0:0:
155,168,107400,1,2,3:0:0:0:
0,56,107600,6,0,P|22:111|41:191,1,122.100003726196,10|0,1:2|2:0,2:0:0:0:
10,243,107900,1,0,3:0:0:0:
7,254,108000,2,0,P|39:260|64:287,1,61.0500018630982,10|0,1:0|2:0,2:0:0:0:
58,354,108200,1,0,3:0:0:0:
187,294,108400,6,0,P|222:289|257:273,1,61.0500018630982,10|0,2:0|2:0,2:0:0:0:
277,355,108600,2,0,P|242:360|207:376,1,61.0500018630982,0|0,3:0|2:0,2:0:0:0:
159,280,108800,2,0,P|219:277|278:234,1,122.100003726196,10|0,1:0|2:0,2:0:0:0:
376,58,109200,6,0,P|430:65|456:133,1,122.100003726196,10|0,1:2|2:0,2:0:0:0:
458,143,109500,1,0,3:0:0:0:
454,157,109600,1,8,1:0:0:0:
385,270,109800,1,2,3:0:0:0:
264,128,110000,2,0,P|233:116|198:114,1,61.0500018630982,10|0,2:0|2:0,2:0:0:0:
194,32,110200,2,0,P|225:44|260:46,1,61.0500018630982,0|0,3:0|2:0,2:0:0:0:
313,2,110400,1,8,1:0:0:0:
118,75,110600,1,2,3:0:0:0:
287,211,110800,6,0,P|272:277|259:344,1,122.100003726196,10|0,1:2|2:0,2:0:0:0:
252,351,111100,1,0,3:0:0:0:
256,367,111200,1,10,1:0:0:0:
134,232,111400,1,0,3:0:0:0:
366,123,111600,6,0,P|378:155|381:189,1,61.0500018630982,10|0,2:0|2:0,2:0:0:0:
458,177,111800,2,0,P|453:207|442:235,1,61.0500018630982,0|0,3:0|2:0,2:0:0:0:
461,368,112000,2,0,P|432:313|359:313,1,122.100003726196,2|0,1:0|2:0,2:0:0:0:
197,368,112400,6,0,P|135:349|70:330,1,122.100003726196,10|0,1:2|1:0,2:0:0:0:
59,343,112700,1,0,3:0:0:0:
47,348,112800,1,8,1:0:0:0:
148,191,113000,1,10,1:0:0:0:
152,172,113100,1,0,3:0:0:0:
154,158,113200,5,10,1:2:0:0:
226,134,113400,1,8,1:0:0:0:
289,178,113600,1,8,1:0:0:0:
295,252,113800,1,10,1:0:0:0:
236,319,114000,6,0,P|301:282|360:325,1,122.100003726196,10|0,1:2|1:0,2:0:0:0:
355,316,114300,1,0,3:0:0:0:
361,330,114400,1,8,1:0:0:0:
497,181,114600,1,10,1:0:0:0:
499,167,114700,1,0,3:0:0:0:
499,154,114800,2,0,P|433:147|398:201,1,122.100003726196,10|8,1:2|1:0,2:0:0:0:
201,94,115200,2,0,B|235:119|279:102|281:72|276:68|272:65|285:31|322:20|363:42,1,183.150005589295,10|0,1:0|2:0,2:0:0:0:
331,119,115600,6,0,P|289:69|240:32,1,122.100003726196,10|8,2:0|2:1,2:0:0:0:
230,13,115900,1,8,2:1:0:0:
216,8,116000,1,10,2:0:0:0:
47,95,116200,1,8,2:1:0:0:
38,107,116300,1,8,1:0:0:0:
27,120,116400,6,0,P|41:143|48:181,1,61.0500018630982,10|0,2:0|2:0,2:0:0:0:
6,249,116600,1,8,2:1:0:0:
148,174,116800,2,0,P|138:201|135:246,1,61.0500018630982,10|0,2:0|1:0,2:0:0:0:
217,217,117000,2,0,P|207:244|204:289,1,61.0500018630982,8|8,2:1|1:0,2:0:0:0:
251,339,117200,5,0,3:0:0:0:
448,287,117600,6,0,P|419:280|392:278,1,40.7000012420655,8|0,2:1|2:0,2:0:0:0:
474,211,117733,2,0,P|445:204|418:202,1,40.7000012420655,8|0,2:1|2:0,2:0:0:0:
501,139,117866,2,0,P|472:132|445:130,1,40.7000012420655,8|0,2:1|2:0,2:0:0:0:
391,103,118000,5,8,2:1:0:0:
378,88,118200,1,8,2:1:0:0:
158,72,118400,6,0,P|132:90|96:94,1,55.5000021171571,10|0,2:3|2:0,2:0:0:0:
176,83,118533,6,0,P|204:97|226:126,1,55.5000021171571,8|0,2:3|2:0,2:0:0:0:
167,55,118666,6,0,P|164:24|178:-9,1,55.5000021171571,8|0,2:3|2:0,2:0:0:0:
0,195,118800,6,0,B|-36:165|-9:100|55:97|99:174|85:228|29:264,1,233.099992886353,4|0,1:0|0:0,2:0:0:0:
51,246,119200,6,0,B|94:191|181:228|181:311|143:249|147:330|184:377|255:368|284:314,1,310.8,0|0,2:0|0:0,2:0:0:0:
281,315,119600,6,0,P|334:328|403:375,1,133.2,8|0,2:0|2:0,2:0:0:0:
512,336,120000,2,0,P|487:336|451:280,1,77.6999976287843,4|0,1:0|2:0,2:0:0:0:
370,191,120200,2,0,P|380:239|385:279,1,66.5999979675294,0|0,1:0|2:0,2:0:0:0:
176,44,120400,6,0,P|212:26|281:133,1,199.799993902588,0|0,2:0|2:0,2:0:0:0:
237,208,120800,2,0,P|185:228|112:277,1,133.2,0|0,2:0|2:0,2:0:0:0:
0,156,121200,6,0,P|27:158|61:192,1,66.5999979675294,10|0,2:0|2:0,2:0:0:0:
102,366,121400,2,0,P|62:348|12:335,1,66.5999979675294,8|0,2:1|2:0,2:0:0:0:
256,363,121600,5,2,2:0:0:0:
272,352,121700,1,0,2:0:0:0:
291,346,121800,1,8,2:1:0:0:
311,342,121900,1,0,2:0:0:0:
330,344,122000,6,0,P|292:339|257:190,1,199.799993902588,6|0,1:0|2:0,2:0:0:0:
396,204,122400,6,0,P|355:187|310:175,1,66.5999979675294,0|0,2:0|2:0,2:0:0:0:
210,72,122600,2,0,P|251:89|296:101,1,66.5999979675294,2|0,2:0|2:0,2:0:0:0:
368,60,122800,1,10,2:0:0:0:
233,186,123000,6,0,L|223:219,2,27.75,0|0|0,2:0|2:0|2:0,2:0:0:0:
372,67,123200,6,0,P|357:105|345:145,1,83.2500031757356,4|0,1:0|2:0,2:0:0:0:
453,282,123400,2,0,P|470:240|484:187,1,83.2500031757356,0|0,1:0|2:0,2:0:0:0:
327,294,123600,6,0,P|281:282|248:366,1,138.75,0|0,2:0|2:0,2:0:0:0:
55,297,124000,5,0,1:0:0:0:
63,291,124100,1,0,2:0:0:0:
71,285,124200,2,0,P|60:240|45:202,1,69.375,2|0,2:0|2:0,2:0:0:0:
0,91,124400,6,0,P|27:135|110:122,1,133.2,10|0,2:0|2:0,2:0:0:0:
108,140,124800,1,2,1:0:0:0:
258,109,125000,6,0,P|263:79|271:52,2,33.2999989837647,0|0|0,2:0|2:0|2:0,2:0:0:0:
218,1,125200,6,0,P|238:78|262:217,1,199.799993902588,6|0,1:0|2:0,2:0:0:0:
177,225,125600,6,0,B|227:201|271:243|257:273|252:272|277:330|329:313,1,199.799993902588,0|0,2:0|2:0,2:0:0:0:
464,355,126000,2,0,P|389:373|361:266,1,199.799993902588,10|0,2:0|2:0,2:0:0:0:
399,213,126400,1,4,1:0:0:0:
263,76,126600,6,0,L|256:43,2,33.2999989837647,2|0|0,2:0|2:0|2:0,2:0:0:0:
360,88,126800,6,0,P|307:74|195:178,1,199.799993902588,2|0,2:0|2:0,2:0:0:0:
76,195,127200,6,0,P|114:194|149:242,1,77.6999976287843,0|0,1:0|2:0,2:0:0:0:
214,293,127400,2,0,P|225:242|236:201,1,77.6999976287843,2|0,2:0|2:0,2:0:0:0:
24,374,127600,6,0,P|11:299|-7:235,1,133.2,10|0,2:0|2:0,2:0:0:0:
12,224,128000,1,0,2:0:0:0:
89,280,128200,1,2,2:0:0:0:
191,63,128400,6,0,B|244:24|182:-44|116:-8|87:69|147:122,1,233.099992886353,6|0,1:0|2:0,2:0:0:0:
173,181,128800,1,0,2:0:0:0:
182,177,128900,1,0,2:0:0:0:
194,172,129000,2,0,P|230:184|272:218,1,66.5999979675294,2|0,2:0|2:0,2:0:0:0:
134,282,129200,1,10,2:0:0:0:
241,375,129400,2,0,L|286:365,2,33.2999989837647,0|0|0,2:0|2:0|2:0,2:0:0:0:
129,278,129600,6,0,P|88:265|32:255,1,83.2500031757356,4|0,1:0|2:0,2:0:0:0:
260,195,129800,2,0,P|301:208|357:218,1,83.2500031757356,2|0,1:0|2:0,2:0:0:0:
232,375,130000,6,0,P|211:299|191:233,1,133.2,2|0,2:0|2:0,2:0:0:0:
94,169,130400,6,0,P|138:172|167:116,1,83.2500031757356,2|0,1:0|2:0,2:0:0:0:
203,71,130600,2,0,L|195:23,2,41.6250015878678,0|8|8,2:0|2:1|2:1,2:0:0:0:
256,147,130800,5,10,1:2:0:0:
328,94,130933,5,8,2:1:0:0:
406,148,131066,5,8,2:1:0:0:
484,77,131200,6,0,P|491:136|499:182,1,83.2500031757356,14|0,2:3|2:0,2:0:0:0:
503,244,131400,2,0,P|506:279|506:298,2,41.6250015878678,8|0|0,2:1|2:0|2:0,2:0:0:0:
428,384,131600,6,0,B|450:337|422:297|381:292|378:298|374:303|328:299|308:247|327:208,1,233.099992886353,4|0,1:0|0:0,2:0:0:0:
332,200,132000,2,0,B|391:184|436:245|391:309|325:326|245:303|226:224|251:162,1,310.8,0|0,2:0|0:0,2:0:0:0:
248,191,132400,6,0,P|215:229|131:201,1,133.2,8|0,2:0|2:0,2:0:0:0:
140,134,132800,2,0,P|180:114|222:124,1,77.6999976287843,4|0,1:0|2:0,2:0:0:0:
75,360,133000,6,0,P|65:305|22:284,1,99.899996951294,0|0,1:0|0:0,2:0:0:0:
8,277,133200,6,0,P|98:297|139:210,1,199.799993902588,0|0,2:0|2:0,2:0:0:0:
76,59,133600,6,0,P|38:112|70:170,1,133.2,0|0,2:0|2:0,2:0:0:0:
218,68,134000,6,0,P|224:33|231:-2,1,66.5999979675294,10|0,2:1|2:0,2:0:0:0:
288,107,134200,2,0,P|294:72|301:37,1,66.5999979675294,8|0,2:1|2:0,2:0:0:0:
408,211,134400,5,2,2:0:0:0:
423,225,134500,1,0,2:0:0:0:
445,231,134600,1,8,2:1:0:0:
468,227,134700,1,0,2:0:0:0:
482,219,134800,6,0,P|406:235|399:352,1,199.799993902588,6|0,1:0|2:0,2:0:0:0:
250,260,135200,2,0,P|275:268|295:287,2,44.3999986450196,0|0|0,2:0|2:0|2:0,2:0:0:0:
210,197,135400,1,2,2:0:0:0:
11,337,135600,6,0,P|36:298|91:290,1,83.25,10|0,2:0|0:0,2:0:0:0:
91,279,135800,2,0,P|112:285|129:289,2,27.75,0|0|0,2:0|2:0|2:0,2:0:0:0:
8,99,136000,6,0,P|3:142|37:179,1,83.2500031757356,4|0,1:0|2:0,2:0:0:0:
131,145,136200,2,0,P|136:102|102:65,1,83.2500031757356,2|0,1:0|2:0,2:0:0:0:
47,0,136400,6,0,P|101:38|175:-5,1,138.75,2|0,2:0|2:0,2:0:0:0:
368,64,136800,1,0,1:0:0:0:
357,55,136900,1,0,2:0:0:0:
344,47,137000,2,0,P|316:68|311:112,1,69.375,2|0,2:0|2:0,2:0:0:0:
386,291,137200,6,0,P|451:290|475:215,1,133.2,10|0,2:0|2:0,2:0:0:0:
468,216,137600,1,2,1:0:0:0:
247,268,137800,2,0,P|258:286|265:308,3,33.2999989837647,0|0|0|0,2:0|2:0|2:0|2:0,2:0:0:0:
301,360,138000,6,0,P|303:291|336:210,1,133.199995935059,6|0,1:0|2:0,2:0:0:0:
214,58,138400,6,0,B|210:96|180:120|143:109|142:105|142:99|110:84|69:98|64:145,1,199.799993902588,2|0,2:0|2:0,2:0:0:0:
128,7,138800,2,0,P|153:83|120:204,1,199.799993902588,10|0,2:0|2:0,2:0:0:0:
44,340,139200,2,0,P|81:301|133:308,1,99.899996951294,6|0,1:0|0:0,2:0:0:0:
149,293,139400,2,0,P|171:291|186:280,2,33.2999989837647,0|0|0,2:0|2:0|2:0,2:0:0:0:
245,162,139600,6,0,P|283:247|391:236,1,199.799993902588,2|0,2:0|2:0,2:0:0:0:
376,167,140000,2,0,P|369:129|402:97,1,77.6999976287843,2|0,1:0|2:0,2:0:0:0:
457,187,140200,2,0,P|480:157|473:120,1,77.6999976287843,0|0,2:0|2:0,2:0:0:0:
421,18,140400,6,0,P|394:59|307:52,1,133.2,10|0,2:0|2:0,2:0:0:0:
299,39,140800,1,0,2:0:0:0:
43,74,141200,6,0,B|-21:64|20:-6|101:12|127:88|103:144|47:177,1,233.099992886353,6|0,1:0|2:0,2:0:0:0:
88,236,141600,2,0,P|63:230|37:235,3,33.2999989837647,2|0|0|0,2:0|2:0|2:0|2:0,2:0:0:0:
96,319,141800,2,0,P|59:309|16:318,1,66.5999979675294,0|0,2:0|2:0,2:0:0:0:
171,366,142000,6,0,P|221:348|277:354,1,99.899996951294,10|0,2:0|0:0,2:0:0:0:
278,368,142200,2,0,P|303:369|320:364,2,33.2999989837647,0|0|0,2:0|2:0|2:0,2:0:0:0:
367,251,142400,6,0,P|378:207|344:179,1,83.2500031757356,6|0,1:0|2:0,2:0:0:0:
274,265,142600,2,0,P|248:233|261:195,1,83.2500031757356,0|0,1:0|2:0,2:0:0:0:
381,39,142800,6,0,P|352:97|288:98,1,133.2,2|0,2:0|2:0,2:0:0:0:
208,137,143200,2,0,B|184:156|147:148|136:119|138:115|142:110|135:76|91:65|61:92,1,166.500006351471,2|2,1:0|2:0,2:0:0:0:
66,101,143450,2,0,P|89:80|98:62,2,41.6250015878678,8|8|8,2:1|2:1|2:1,2:0:0:0:
2,190,143600,5,10,1:2:0:0:
24,271,143733,5,8,2:1:0:0:
83,217,143866,5,8,2:1:0:0:
139,330,144000,6,0,P|187:338|261:364,1,124.875004763603,14|0,2:3|0:0,2:0:0:0:
276,355,144200,2,0,P|308:349|323:342,3,41.6250015878678,8|0|0|0,2:1|2:0|2:0|2:0,2:0:0:0:
343,277,144400,1,2,2:0:0:0:
329,295,146000,6,0,B|332:298|332:298|327:298|327:298|332:303|332:303|328:303|328:303|332:308|332:308|328:307|328:307|331:313|331:313|326:312|326:312|329:318|329:318|325:316|325:316|327:322|327:322|323:320|323:320|324:327|324:327|320:323|320:323|319:330|319:330|317:326|317:326|315:332|315:332|313:328|313:328|310:334|310:334|309:329|309:329|305:335|305:335|304:330|304:330|299:335|299:335|300:330|300:330|295:334|295:334|296:329|296:329|290:332|290:332|292:328|292:328|285:331|285:331|288:326|288:326|281:327|281:327|284:324|284:324|277:324|277:324|281:320|281:320|274:320|274:320|277:317|277:317|270:316|270:316|275:313|275:313|269:312|269:312|273:309|273:309|266:307|266:307|271:305|271:305|265:302|265:302|270:301|270:301|264:297|264:297|270:297|270:297|264:292|264:292|269:292|269:292|265:287|265:287|269:287|269:287|265:282|265:282|270:283|270:283|266:277|266:277|270:278|270:278|268:273|268:273|272:274|272:274|270:268|270:268|274:269|274:269|272:263|272:263|276:265|276:265|274:259|274:259|279:262|279:262|278:255|278:255|281:258|281:258|281:251|281:251|285:254|285:254|285:247|285:247|288:251|288:251|288:244|288:244|292:248|292:248|292:241|292:241|296:246|296:246|297:239|297:239|299:243|299:243|302:236|302:236|303:241|303:241|306:235|306:235|308:239|308:239|311:233|311:233|312:237|312:237|315:232|315:232|317:236|317:236|321:231|321:231|321:236|321:236|325:231|325:231|326:235|326:235|331:230|331:230|331:235|331:235|336:230|336:230|336:235|336:235|340:231|340:231|340:236|340:236|346:232|346:232|345:236|345:236|350:233|350:233|350:237|350:237|355:235|355:235|355:239|355:239|359:236|359:236|331:260|339:297,1,621.599981030274,0|4,3:0|1:0,2:0:0:0:
