osu file format v14

[General]
AudioFilename: audio.mp3
AudioLeadIn: 0
PreviewTime: 450
Countdown: 0
SampleSet: Soft
StackLeniency: 0.7
Mode: 0
LetterboxInBreaks: 0
WidescreenStoryboard: 1

[Editor]
Bookmarks: 1949,13244,35832,47832,58420,81008,92302,113655,114891,137479,149479,171361,182655
DistanceSpacing: 0.3
BeatDivisor: 4
GridSize: 8
TimelineZoom: 1.4

[Metadata]
Title:DERO
TitleUnicode:DERO
Artist:DUSTCELL
ArtistUnicode:DUSTCELL
Creator:Heilia
Version:MAYU'S HARD
Source:
Tags:pdc pending cup 2020 pdc2020 mapping contest vtuber EMA EM A Misumi Kamitsubaki Studio 神椿スタジオ rei sirose 白瀬玲 kudou chitose 久遠千歳 kudo youtube virtual youtuber 梅まろ japanese hip hop hip-hop shizuku- shikibe_mayu shikibe mayu kazato asa kazato_asa flake garden
BeatmapID:3491249
BeatmapSetID:1318423

[Difficulty]
HPDrainRate:4
CircleSize:3.7
OverallDifficulty:6.5
ApproachRate:8
SliderMultiplier:1.3
SliderTickRate:1

[Events]
//Background and Video events
0,0,"bg.jpg",0,0
//Break Periods
//Storyboard Layer 0 (Background)
//Storyboard Layer 1 (Fail)
//Storyboard Layer 2 (Pass)
//Storyboard Layer 3 (Foreground)
//Storyboard Layer 4 (Overlay)
//Storyboard Sound Samples

[TimingPoints]
1747,352.941176470588,4,2,1,60,1,0
13041,-100,4,2,1,70,0,0
35982,-125,4,2,1,50,0,0
46923,-100,4,2,1,60,0,0
57864,-100,4,2,1,80,0,0
58217,-58.8235294117647,4,2,1,80,0,0
58923,-76.9230769230769,4,2,1,80,0,0
61041,-58.8235294117647,4,2,1,80,0,0
62276,-76.9230769230769,4,2,1,80,0,0
63864,-66.6666666666667,4,2,1,80,0,0
64570,-83.3333333333333,4,2,1,80,0,0
65982,-66.6666666666667,4,2,1,80,0,0
66688,-83.3333333333333,4,2,1,80,0,0
69511,-58.8235294117647,4,2,1,80,0,0
70746,-83.3333333333333,4,2,1,80,0,0
72335,-58.8235294117647,4,2,1,80,0,0
73041,-66.6666666666667,4,2,1,80,0,0
73570,-83.3333333333333,4,2,1,80,0,0
75158,-76.9230769230769,4,2,1,80,0,0
80276,-125,4,2,1,80,0,0
80805,-125,4,2,1,50,0,0
82041,-100,4,2,1,50,0,0
92099,-76.9230769230769,4,2,1,80,0,0
115217,-76.9230769230769,4,2,0,50,0,0
115746,-166.666666666667,4,2,0,50,0,0
125982,-166.666666666667,4,2,1,60,0,0
126335,-111.111111111111,4,2,1,60,0,0
133041,-83.3333333333333,4,2,1,60,0,0
135864,-100,4,2,1,60,0,0
136923,-100,4,2,1,80,0,0
137276,-58.8235294117647,4,2,1,80,0,0
137982,-76.9230769230769,4,2,1,80,0,0
140099,-58.8235294117647,4,2,1,80,0,0
141335,-76.9230769230769,4,2,1,80,0,0
142923,-66.6666666666667,4,2,1,80,0,0
143629,-83.3333333333333,4,2,1,80,0,0
145041,-66.6666666666667,4,2,1,80,0,0
145746,-83.3333333333333,4,2,1,80,0,0
148570,-58.8235294117647,4,2,1,80,0,0
149805,-83.3333333333333,4,2,1,80,0,0
151394,-58.8235294117647,4,2,1,80,0,0
152100,-66.6666666666667,4,2,1,80,0,0
152629,-83.3333333333333,4,2,1,80,0,0
154217,-76.9230769230769,4,2,1,80,0,0
159335,-125,4,2,1,80,0,0
162423,-90.9090909090909,4,2,1,80,0,0
162688,-58.8235294117647,4,2,1,85,0,1
164452,-66.6666666666667,4,2,1,85,0,1
167982,-83.3333333333333,4,2,1,85,0,1
168511,-62.5,4,2,1,85,0,1
171158,-58.8235294117647,4,2,1,85,0,1
172922,-66.6666666666667,4,2,1,85,0,1
176452,-83.3333333333333,4,2,1,85,0,1
182452,-100,4,2,1,50,0,0

[Colours]
Combo1 : 153,153,204
Combo2 : 254,224,214
Combo3 : 158,159,163
Combo4 : 148,217,254
Combo5 : 232,170,102
Combo6 : 234,66,129
Combo7 : 112,245,196
Combo8 : 236,236,236

[HitObjects]
475,25,1746,102,0,B|456:55|456:55|413:61|366:80,1,130,6|0,0:0|3:0,0:0:0:0:
285,48,2276,1,2,0:0:0:0:
285,48,2364,1,2,0:0:0:0:
285,48,2452,2,0,P|276:80|271:112,1,65,8|0,0:0|0:0,0:0:0:0:
207,185,2805,2,0,P|267:194|307:212,1,97.5
300,208,3158,54,0,P|344:201|378:189,1,65
481,140,3511,2,0,P|461:205|448:272,1,130,0|8,3:0|0:0,0:0:0:0:
375,298,4041,1,0,0:0:0:0:
502,342,4217,2,0,P|462:349|427:362,1,65,0|2,0:0|0:0,0:0:0:0:
438,356,4482,1,2,0:0:0:0:
438,356,4570,1,6,0:0:0:0:
302,241,4923,54,0,P|293:270|282:310,1,65,0|0,3:0|0:0,0:0:0:0:
257,381,5276,1,8,0:0:0:0:
257,381,5629,54,0,P|204:351|113:338,1,130,0|0,3:0|0:0,0:0:0:0:
41,310,6158,1,0,0:0:0:0:
41,310,6335,2,0,P|31:264|33:229,1,65,0|0,3:0|0:0,0:0:0:0:
74,180,6688,1,8,0:0:0:0:
74,180,6864,2,0,P|111:187|146:187,1,65
299,262,7394,54,0,P|358:242|425:241,2,130,6|0|8,0:1|3:0|0:0,0:0:0:0:
228,216,8276,1,0,0:0:0:0:
228,216,8452,2,0,P|217:182|211:146,1,65
260,84,8805,1,0,0:0:0:0:
260,84,8982,1,0,0:0:0:0:
333,126,9158,2,0,P|381:145|431:153,1,97.5,0|0,3:0|0:0,0:0:0:0:
426,152,9511,2,0,P|444:85|485:30,2,130,8|0|2,0:0|0:0|0:0,0:0:0:0:
261,377,12335,53,2,0:0:0:0:
317,317,12511,1,2,0:0:0:0:
317,317,12599,1,2,0:0:0:0:
317,317,12688,2,0,P|306:256|287:214,1,97.5,0|0,3:0|3:0,0:0:0:0:
288,218,13041,54,0,P|216:268|165:278,2,130,6|0|8,0:0|3:0|0:0,0:0:0:0:
398,120,14099,1,0,0:0:0:0:
398,120,14276,2,0,P|432:126|462:139,1,65,2|2,0:0|0:0,0:0:0:0:
512,59,14629,1,0,0:0:0:0:
512,59,14805,2,0,P|438:42|368:16,1,130,2|10,3:0|0:0,0:0:0:0:
387,24,15511,2,0,P|350:36|321:43,1,65,2|2,0:0|0:0,0:0:0:0:
318,39,15776,1,2,0:0:0:0:
311,36,15864,102,0,P|288:103|277:165,1,130,4|0,0:0|3:0,0:0:0:0:
340,224,16394,1,0,0:0:0:0:
281,281,16570,2,0,P|251:266|217:255,1,65,8|0,0:0|0:0,0:0:0:0:
150,203,16923,2,0,P|173:265|190:340,1,130,0|2,3:0|0:0,0:0:0:0:
123,382,17452,1,0,0:0:0:0:
32,361,17629,2,0,P|14:314|2:258,1,97.5,2|0,3:0|0:0,0:0:0:0:
3,267,17982,1,10,0:0:0:0:
64,208,18158,2,0,P|55:176|41:147,1,65,0|2,3:0|0:0,0:0:0:0:
0,79,18511,37,2,0:0:0:0:
0,79,18599,1,2,0:0:0:0:
0,79,18688,2,0,B|49:108|90:109|90:109|133:91,1,130,4|0,0:0|3:0,0:0:0:0:
200,57,19217,1,0,0:0:0:0:
256,120,19394,2,0,P|247:153|239:192,2,65,8|0|0,0:0|0:0|0:0,0:0:0:0:
200,57,19923,1,2,0:0:0:0:
301,4,20099,70,0,P|315:45|324:84,1,65,2|0,0:0|0:0,0:0:0:0:
320,65,20452,2,0,B|368:64|411:88|411:88|431:76|461:67,1,130,2|10,3:0|0:0,0:0:0:0:
384,174,20982,1,0,0:0:0:0:
449,226,21158,2,0,P|497:219|517:212,1,65,2|2,0:0|0:0,0:0:0:0:
512,213,21423,1,2,0:0:0:0:
512,213,21511,1,4,0:0:0:0:
434,340,21864,38,0,P|389:329|363:317,1,65,0|2,3:0|0:0,0:0:0:0:
372,321,22129,1,2,0:0:0:0:
372,321,22217,2,0,P|356:247|335:192,1,130,8|0,0:0|3:0,0:0:0:0:
396,132,22746,2,0,P|405:99|418:65,1,65,2|2,0:0|0:0,0:0:0:0:
326,26,23099,1,0,3:0:0:0:
326,26,23276,2,0,P|253:57|203:59,1,130,2|10,3:0|0:0,0:0:0:0:
109,22,23805,2,0,P|124:66|129:94,1,65,0|2,3:0|0:0,0:0:0:0:
61,180,24158,69,2,0:0:0:0:
61,180,24246,1,2,0:0:0:0:
61,180,24335,2,0,P|110:192|179:223,1,97.5,4|0,0:0|0:0,0:0:0:0:
158,214,24688,2,0,P|193:208|223:196,1,65,0|0,3:0|0:0,0:0:0:0:
270,130,25041,2,0,P|247:59|254:1,1,130,8|0,0:0|0:0,0:0:0:0:
252,4,25570,1,0,0:0:0:0:
403,73,25923,37,0,0:0:0:0:
403,73,26099,2,2,P|379:139|367:200,1,130,2|10,3:0|0:0,0:0:0:0:
419,269,26629,1,0,0:0:0:0:
304,320,26805,2,0,P|287:274|277:226,1,97.5,2|0,0:0|0:0,0:0:0:0:
271,220,27158,70,0,B|222:233|187:262|187:262|162:316,2,130,6|2|10,0:0|3:0|0:0,0:0:0:0:
416,128,28217,1,0,3:0:0:0:
415,127,28394,2,0,P|352:111|296:78,1,130
233,23,28923,1,2,3:0:0:0:
233,23,29276,38,0,P|194:30|164:45,1,65,10|2,0:0|3:0,0:0:0:0:
72,32,29629,2,0,P|89:67|98:105,1,65,2|2,0:0|0:0,0:0:0:0:
95,92,29894,1,2,0:0:0:0:
95,92,29982,2,0,P|54:135|40:202,1,130,0|0,3:0|3:0,0:0:0:0:
139,384,30688,70,0,P|168:371|199:361,1,65,10|0,0:0|0:0,0:0:0:0:
280,384,31041,1,2,0:0:0:0:
261,305,31217,2,0,P|281:243|275:160,1,130
216,134,31746,1,2,3:0:0:0:
216,134,32099,2,0,P|187:143|147:153,1,65,10|0,0:0|0:0,0:0:0:0:
96,80,32452,2,0,P|127:72|158:62,1,65,0|2,0:0|0:0,0:0:0:0:
158,62,32717,1,2,0:0:0:0:
158,62,32805,38,0,B|204:85|250:85|250:85|288:64,1,130,6|0,0:0|3:0,0:0:0:0:
360,37,33335,1,0,0:0:0:0:
417,106,33511,2,0,P|405:140|396:178,1,65,10|0,0:0|0:0,0:0:0:0:
416,256,33864,2,0,L|458:247,2,43.3333333333333,2|2|2,3:0|0:0|0:0,0:0:0:0:
381,280,34217,70,2,B|362:253|330:242|330:242|297:244|267:263,1,130
268,262,34746,1,2,0:0:0:0:
181,258,34923,2,0,P|194:291|203:324,1,65,2|2,0:0|0:3,0:0:0:0:
204,325,35188,1,2,0:3:0:0:
206,330,35276,2,0,L|194:367,4,32.5,2|2|2|2|2,0:3|0:3|0:3|0:3|0:3,0:0:0:0:
72,240,35982,6,0,P|81:188|98:139,1,104,2|0,0:0|0:0,0:0:0:0:
32,32,36688,2,0,P|80:96|200:88,1,208,6|0,0:0|0:0,0:0:0:0:
328,0,37746,1,0,0:0:0:0:
328,0,38099,2,0,L|341:56,1,52
407,106,38452,38,0,P|383:150|363:208,1,104,2|2,0:3|0:3,0:0:0:0:
281,168,38982,1,2,0:0:0:0:
281,168,39158,2,0,P|254:174|229:182,2,52,0|0|2,3:0|3:0|0:0,0:0:0:0:
364,200,39688,1,2,0:3:0:0:
293,254,39864,2,0,P|315:300|328:351,1,104,2|2,0:0|0:0,0:0:0:0:
328,351,40394,1,2,0:3:0:0:
414,384,40570,2,0,P|424:352|429:323,2,52,2|2|2,0:0|0:3|0:0,0:0:0:0:
222,327,41276,69,2,0:1:0:0:
222,327,41629,2,0,P|175:349|124:361,1,104,2|0,0:0|0:0,0:0:0:0:
32,255,42335,2,0,P|134:236|231:200,1,208,6|0,0:0|0:0,0:0:0:0:
344,248,43394,1,0,0:0:0:0:
425,165,43746,2,0,P|453:171|476:178,1,52
501,98,44099,37,2,0:0:0:0:
501,98,44276,2,0,P|473:92|450:85,1,52,2|2,0:3|0:0,0:0:0:0:
392,24,44629,2,0,P|344:45|293:53,1,104,2|2,0:3|3:0,0:0:0:0:
216,16,45158,2,0,P|211:40|201:66,1,52,2|2,0:0|0:3,0:0:0:0:
256,136,45511,1,2,0:0:0:0:
256,136,45688,1,2,0:3:0:0:
200,208,45864,2,0,P|152:190|92:188,2,104,2|2|2,0:0|3:0|3:0,0:0:0:0:
305,330,46923,102,0,P|323:267|358:213,1,130,6|2,3:0|3:0,0:0:0:0:
358,213,47452,1,0,3:0:0:0:
432,264,47629,2,0,P|468:258|506:243,1,65,2|2,3:0|0:0,0:0:0:0:
496,152,47982,86,0,P|438:142|386:122,1,97.5,2|0,3:0|0:0,0:0:0:0:
401,129,48335,2,0,P|412:95|417:65,1,65,2|2,3:0|0:0,0:0:0:0:
311,147,48688,2,0,P|299:112|281:83,1,65,2|2,3:0|3:0,0:0:0:0:
256,216,49041,2,0,P|196:190|132:181,1,130,2|2,3:0|3:0,0:0:0:0:
132,181,49570,1,2,3:0:0:0:
61,137,49746,22,0,P|28:153|-6:162,1,65,0|0,3:0|0:0,0:0:0:0:
0,160,50099,2,0,P|28:219|44:284,1,130,2|2,3:0|3:0,0:0:0:0:
115,353,50629,1,2,3:0:0:0:
115,353,50805,2,0,P|149:366|181:372,1,65,2|0,3:0|3:0,0:0:0:0:
248,332,51158,1,2,3:0:0:0:
248,332,51335,2,0,P|260:291|259:259,1,65,2|2,0:0|3:0,0:0:0:0:
200,216,51688,2,0,P|185:181|181:136,1,65,2|2,3:0|3:0,0:0:0:0:
228,91,52041,1,2,0:0:0:0:
306,113,52217,2,0,P|321:148|325:193,1,65,2|2,3:0|3:0,0:0:0:0:
376,248,52570,85,2,3:0:0:0:
376,248,52746,1,0,0:0:0:0:
440,208,52923,2,0,P|470:197|501:187,1,65,0|0,3:0|3:0,0:0:0:0:
448,121,53276,2,0,P|478:110|509:100,1,65,2|2,3:0|0:0,0:0:0:0:
481,22,53629,1,2,3:0:0:0:
481,22,53805,1,0,0:0:0:0:
395,12,53982,22,0,P|387:44|379:77,1,65,2|2,3:0|0:0,0:0:0:0:
320,138,54335,1,2,3:0:0:0:
242,108,54511,1,2,3:0:0:0:
192,176,54688,2,0,P|184:208|176:241,1,65,2|0,3:0|0:0,0:0:0:0:
117,302,55041,1,2,3:0:0:0:
39,272,55217,1,2,0:0:0:0:
39,272,55394,1,2,0:0:0:0:
227,59,56805,86,2,L|219:24,2,32.5
248,144,57158,1,0,3:0:0:0:
328,88,57335,1,0,3:0:0:0:
328,88,57423,2,0,L|396:104,1,65,0|0,3:0|3:0,0:0:0:0:
391,102,57688,1,0,3:0:0:0:
472,160,57864,2,0,P|484:130|503:103,1,65,14|0,0:0|0:0,0:0:0:0:
496,248,58217,86,0,B|432:256|397:211|397:211|400:277|348:316,1,221.000004215241,4|2,1:0|0:0,0:0:0:0:
356,308,58746,1,0,0:0:0:0:
272,384,58923,2,0,P|259:321|235:263,1,126.749994197846,8|0,0:1|0:0,0:0:0:0:
235,263,59276,1,2,0:1:0:0:
298,208,59452,2,0,P|262:180|219:184,1,84.4999961318971,2|0,0:0|0:0,0:0:0:0:
191,108,59805,2,0,P|125:123|92:183,1,126.749994197846,2|0,0:0|0:0,0:0:0:0:
94,169,60158,1,2,0:1:0:0:
16,113,60335,2,0,L|-3:24,1,84.4999961318971,8|0,0:1|0:0,0:0:0:0:
96,69,60688,1,0,0:1:0:0:
12,208,60864,101,2,0:0:0:0:
12,208,60952,1,2,0:0:0:0:
12,208,61041,2,0,B|55:235|70:295|70:295|105:245|172:236,2,221.000004215241,6|2|8,1:2|0:0|0:1,0:0:0:0:
176,156,62099,5,2,0:1:0:0:
176,156,62276,2,0,P|221:171|244:223,1,84.4999961318971,2|0,0:0|0:0,0:0:0:0:
314,240,62629,1,4,0:1:0:0:
396,200,62805,2,0,P|408:137|428:77,1,126.749994197846,0|0,1:0|0:0,0:0:0:0:
423,70,63158,2,0,P|381:72|347:103,1,84.4999961318971,10|2,0:1|0:0,0:0:0:0:
275,62,63511,1,2,0:0:0:0:
237,146,63688,101,2,0:1:0:0:
237,146,63776,1,2,0:0:0:0:
237,146,63864,2,0,P|215:44|192:-20,1,146.250005578995,6|0,1:1|0:0,0:0:0:0:
201,4,64217,2,0,P|164:38|100:25,1,97.50000371933,2|2,3:0|3:0,0:0:0:0:
16,112,64570,6,0,P|65:111|99:145,1,77.999997619629,8|0,0:1|0:0,0:0:0:0:
176,152,64923,1,2,0:1:0:0:
176,152,65011,1,2,0:0:0:0:
176,152,65099,2,0,P|159:192|149:234,1,77.999997619629,2|0,0:0|0:0,0:0:0:0:
208,288,65452,2,0,P|247:267|295:271,1,77.999997619629,2|0,0:0|1:0,0:0:0:0:
371,207,65805,1,2,0:1:0:0:
408,296,65982,2,0,P|301:260|287:169,1,195.00000743866,14|2,0:1|0:0,0:0:0:0:
274,105,66511,101,2,0:0:0:0:
274,105,66599,1,2,0:0:0:0:
274,105,66688,2,0,P|236:116|194:126,2,77.999997619629,2|2|2,1:3|0:3|0:3,0:0:0:0:
362,139,67217,1,2,0:3:0:0:
450,105,67394,2,0,P|413:60|357:52,1,116.999996429443,8|0,0:1|0:0,0:0:0:0:
350,55,67746,2,0,P|319:34|312:-8,1,77.999997619629,2|2,0:0|0:0,0:0:0:0:
274,105,68099,6,0,P|253:175|242:258,1,155.999995239258,2|2,0:3|1:3,0:0:0:0:
232,343,68629,1,2,0:3:0:0:
298,384,68805,1,8,0:1:0:0:
311,305,68982,2,0,P|353:313|385:325,2,77.999997619629,2|2|2,0:0|0:0|0:1,0:0:0:0:
242,257,69511,102,0,B|179:259|153:310|153:310|146:251|91:223,2,221.000004215241,4|2|8,1:0|0:0|0:1,0:0:0:0:
242,257,70570,1,2,0:1:0:0:
184,184,70746,2,0,P|190:145|202:108,1,77.999997619629,2|0,0:0|0:0,0:0:0:0:
224,0,71099,2,0,P|193:23|155:34,1,77.999997619629,2|6,0:1|1:3,0:0:0:0:
80,0,71452,1,2,0:3:0:0:
0,56,71629,2,0,P|40:77|52:118,1,77.999997619629,8|0,0:1|0:0,0:0:0:0:
32,192,71982,1,2,0:3:0:0:
119,237,72158,5,2,0:3:0:0:
119,237,72246,1,2,0:0:0:0:
119,237,72335,2,0,B|177:239|215:283|215:283|217:221|267:186,1,221.000004215241,6|2,1:2|0:0,0:0:0:0:
174,159,72864,1,0,1:0:0:0:
270,185,73041,2,0,B|326:186|359:222|359:222|363:170|395:136,1,195.00000743866,8|2,0:1|0:1,0:0:0:0:
336,24,73570,102,0,P|322:63|313:103,1,77.999997619629,2|0,0:0|0:0,0:0:0:0:
402,130,73923,2,0,P|467:131|519:182,1,116.999996429443,4|0,0:1|0:0,0:0:0:0:
506,161,74276,1,2,0:1:0:0:
491,252,74452,2,0,P|453:258|417:285,1,77.999997619629,10|2,0:1|0:0,0:0:0:0:
340,240,74805,2,0,L|347:198,2,38.9999988098145,2|0|2,0:0|0:0|0:1,0:0:0:0:
264,344,75158,6,0,B|249:266|249:266|244:263|244:263|229:165,2,168.999992263794,6|2|8,1:2|0:0|0:1,0:0:0:0:
264,344,76217,1,2,0:1:0:0:
192,384,76394,2,0,P|154:374|106:367,1,84.4999961318971,2|0,0:0|0:0,0:0:0:0:
24,320,76746,2,0,P|86:324|144:264,1,126.749994197846,2|0,0:1|0:0,0:0:0:0:
139,278,77099,1,2,0:0:0:0:
174,197,77276,2,0,P|213:221|226:259,1,84.4999961318971,10|2,0:1|0:0,0:0:0:0:
352,232,77629,2,0,P|341:276|309:300,1,84.4999961318971,6|0,0:3|3:0,0:0:0:0:
311,299,77894,1,2,0:0:0:0:
311,299,77982,102,0,P|301:206|273:123,1,168.999992263794,2|2,1:3|0:3,0:0:0:0:
349,68,78511,1,2,0:3:0:0:
424,109,78688,2,0,P|460:119|514:126,1,84.4999961318971,8|0,0:1|0:0,0:0:0:0:
491,214,79041,2,0,P|455:204|401:197,1,84.4999961318971,2|2,0:0|0:0,0:0:0:0:
349,68,79394,5,2,0:3:0:0:
279,126,79570,1,2,0:3:0:0:
186,104,79746,2,0,P|126:122|96:181,1,126.749994197846,2|0,1:3|0:0,0:0:0:0:
92,181,80099,1,8,0:1:0:0:
65,258,80276,2,0,P|22:229|11:179,1,104,2|2,0:0|0:1,0:0:0:0:
24,96,80805,21,0,0:0:0:0:
160,16,81158,2,0,P|110:16|48:0,2,104,2|8|2,0:0|0:0|0:0,0:0:0:0:
256,8,82041,6,0,P|245:38|240:70,1,65,0|0,3:0|0:0,0:0:0:0:
201,149,82394,1,0,3:0:0:0:
201,149,82570,2,0,P|256:112|334:136,1,130,0|8,3:0|0:0,0:0:0:0:
416,162,83099,1,0,0:0:0:0:
416,162,83276,2,0,P|439:135|445:96,1,65,2|0,0:0|0:0,0:0:0:0:
322,128,83629,102,0,P|338:186|356:257,1,130,0|0,3:0|0:0,0:0:0:0:
419,317,84158,1,0,3:0:0:0:
419,317,84335,2,0,P|457:323|496:333,2,65,10|2|2,0:0|0:0|0:0,0:0:0:0:
365,381,84864,1,0,3:0:0:0:
230,307,85217,5,2,3:0:0:0:
230,307,85394,2,0,P|243:232|254:177,1,130,2|10,0:0|0:0,0:0:0:0:
340,210,85923,1,2,0:0:0:0:
340,210,86099,2,0,L|406:196,1,65,2|0,0:0|3:0,0:0:0:0:
477,238,86452,102,0,P|441:181|436:119,1,130,2|2,0:0|0:0,0:0:0:0:
374,59,86982,1,2,0:0:0:0:
374,59,87158,2,0,P|382:22|396:0,1,65,10|2,0:0|0:0,0:0:0:0:
294,5,87511,5,2,0:0:0:0:
294,5,87688,2,0,P|233:35|169:42,1,130,0|2,3:0|0:0,0:0:0:0:
176,46,88217,1,2,0:0:0:0:
302,154,88570,2,0,P|291:184|284:218,1,65,10|2,0:0|0:0,0:0:0:0:
203,217,88923,2,0,P|212:169|229:123,1,97.5,2|0,0:0|0:0,0:0:0:0:
229,123,89276,102,0,P|170:149|102:163,1,130,2|2,3:0|0:0,0:0:0:0:
35,124,89805,1,0,0:0:0:0:
35,124,89982,2,0,L|48:53,2,65,10|2|2,0:0|0:0|0:0,0:0:0:0:
2,203,90511,1,0,0:0:0:0:
2,203,90688,5,2,0:0:0:0:
86,222,91041,101,2,0:0:0:0:
153,283,91394,5,2,0:0:0:0:
180,198,91746,101,0,0:0:0:0:
256,156,92099,54,0,P|276:161|296:167,2,42.2499980659486,6|0|2,3:2|0:0|0:0,0:0:0:0:
250,73,92452,2,0,P|290:61|332:39,1,84.4999961318971,2|2,0:0|0:0,0:0:0:0:
384,129,92805,1,10,0:0:0:0:
384,129,92982,1,2,0:0:0:0:
406,17,93158,2,0,P|470:69|530:81,1,126.749994197846,6|0,0:0|0:0,0:0:0:0:
512,81,93511,6,0,P|479:152|469:247,1,168.999992263794,2|2,0:0|3:2,0:0:0:0:
418,321,94041,1,2,0:0:0:0:
326,310,94217,2,0,P|288:290|245:281,1,84.4999961318971,10|2,0:0|0:0,0:0:0:0:
381,244,94570,2,0,P|359:201|327:172,1,84.4999961318971,6|2,0:0|0:0,0:0:0:0:
333,176,94835,1,2,0:0:0:0:
333,176,94923,102,0,P|371:113|375:45,1,126.749994197846,6|0,3:2|0:0,0:0:0:0:
372,54,95276,1,2,0:0:0:0:
298,7,95452,1,2,3:2:0:0:
216,49,95629,2,0,P|244:96|257:141,1,84.4999961318971,10|2,0:0|0:0,0:0:0:0:
119,148,95982,2,0,P|159:159|192:186,1,84.4999961318971,2|2,0:0|0:0,0:0:0:0:
192,186,96335,6,0,P|115:200|31:239,1,168.999992263794,6|2,3:2|3:3,0:0:0:0:
5,316,96864,1,2,0:3:0:0:
80,354,97041,2,0,P|137:343|200:314,1,126.749994197846,8|0,0:0|0:0,0:0:0:0:
199,314,97394,2,0,P|243:328|278:368,1,84.4999961318971,2|2,0:1|0:1,0:0:0:0:
396,315,97746,102,0,P|401:295|411:271,2,42.2499980659486,6|0|2,3:2|0:0|0:0,0:0:0:0:
318,281,98099,2,0,P|305:240|279:208,1,84.4999961318971,2|2,0:0|0:0,0:0:0:0:
216,96,98452,5,10,0:0:0:0:
164,167,98629,1,2,0:0:0:0:
87,131,98805,2,0,P|48:154|0:165,1,84.4999961318971,6|0,0:0|0:0,0:0:0:0:
164,167,99158,1,6,0:0:0:0:
216,96,99335,1,2,0:0:0:0:
137,50,99511,102,0,B|182:75|245:87|245:87|273:70|307:62,1,168.999992263794,2|10,3:2|0:0,0:0:0:0:
356,8,100041,1,2,0:0:0:0:
431,42,100217,2,0,P|412:83|404:129,1,84.4999961318971,6|2,0:0|0:0,0:0:0:0:
330,169,100570,6,0,P|407:182|474:221,1,126.749994197846,6|0,3:2|0:0,0:0:0:0:
450,203,100923,2,0,P|413:218|366:252,1,84.4999961318971,2|2,0:0|3:0,0:0:0:0:
506,345,101276,2,0,P|453:319|412:314,1,84.4999961318971,10|2,0:0|0:0,0:0:0:0:
373,384,101629,1,2,0:0:0:0:
290,355,101805,101,2,0:0:0:0:
290,355,101894,1,2,0:0:0:0:
290,355,101982,2,0,P|275:293|254:233,1,126.749994197846,2|0,0:3|0:0,0:0:0:0:
254,233,102335,2,0,P|221:256|155:259,1,84.4999961318971,2|2,3:3|0:3,0:0:0:0:
110,221,102688,1,10,0:0:0:0:
145,150,102864,2,2,P|178:127|244:124,2,84.4999961318971,2|2|2,3:0|3:0|3:0,0:0:0:0:
61,117,103394,6,0,P|51:97|47:76,2,42.2499980659486,6|2|2,3:1|0:0|0:0,0:0:0:0:
0,186,103746,2,0,P|29:216|49:253,1,84.4999961318971,6|2,0:0|0:0,0:0:0:0:
145,150,104099,2,0,P|129:204|133:251,1,84.4999961318971,10|2,0:0|0:0,0:0:0:0:
44,360,104452,2,0,P|121:312|204:332,1,168.999992263794,2|2,0:0|0:1,0:0:0:0:
194,325,104982,101,2,0:0:0:0:
239,208,105158,2,0,P|264:243|273:284,1,84.4999961318971,6|2,3:2|0:0,0:0:0:0:
400,248,105511,2,0,P|379:296|341:328,1,84.4999961318971,10|2,0:0|0:0,0:0:0:0:
356,318,105776,1,2,0:0:0:0:
356,318,105864,2,0,P|397:329|435:354,1,84.4999961318971,2|2,0:0|0:0,0:0:0:0:
512,384,106217,5,2,3:1:0:0:
501,301,106394,2,0,P|466:224|475:142,1,168.999992263794,2|2,0:0|3:0,0:0:0:0:
419,41,106923,1,10,0:0:0:0:
388,118,107099,1,2,0:0:0:0:
311,91,107276,1,2,0:0:0:0:
311,91,107629,102,0,P|272:74|221:66,1,84.4999961318971,6|2,3:2|0:3,0:0:0:0:
287,177,107982,2,0,P|247:192|208:224,1,84.4999961318971,2|2,3:3|0:3,0:0:0:0:
349,241,108335,1,10,0:0:0:0:
348,241,108511,2,0,P|326:277|312:317,1,84.4999961318971,2|2,0:3|0:1,0:0:0:0:
416,312,108864,1,2,0:1:0:0:
365,384,109041,6,0,P|294:340|201:325,1,168.999992263794,2|6,3:1|0:0,0:0:0:0:
106,301,109570,1,2,0:0:0:0:
106,301,109658,1,2,0:0:0:0:
106,301,109746,2,0,P|84:262|76:221,1,84.4999961318971,10|2,0:0|0:0,0:0:0:0:
178,234,110099,2,0,P|191:151|230:77,1,168.999992263794,2|2,0:0|0:1,0:0:0:0:
230,76,110629,1,2,0:0:0:0:
296,138,110805,2,0,P|267:161|212:160,1,84.4999961318971,6|2,3:2|0:0,0:0:0:0:
151,54,111158,101,10,0:0:0:0:
215,0,111335,1,2,0:0:0:0:
297,19,111511,1,2,0:0:0:0:
297,19,111864,5,2,3:1:0:0:
230,77,112041,2,0,B|252:87|264:109|264:109|384:86,1,168.999992263794,2|2,0:0|3:0,0:0:0:0:
492,63,112570,2,0,P|476:104|464:144,1,84.4999961318971,10|2,0:0|0:0,0:0:0:0:
376,184,112923,2,0,P|382:227|392:268,1,84.4999961318971,2|2,0:0|0:0,0:0:0:0:
328,344,113276,101,6,3:2:0:0:
253,370,113452,1,2,0:3:0:0:
180,338,113629,1,6,3:2:0:0:
160,258,113805,1,2,0:3:0:0:
206,189,113982,1,8,0:0:0:0:
291,174,114158,1,8,0:0:0:0:
333,100,114335,1,8,0:0:0:0:
304,24,114511,1,8,0:0:0:0:
224,0,114688,1,6,0:0:0:0:
0,240,115746,54,0,B|-26:304|46:381|144:312|124:238|76:208|76:208|-10:145|40:-17|203:-17|262:91|228:171|228:171|202:219|235:290|307:291|351:230|323:184,1,935.999971435548,6|8,0:0|0:0,0:0:0:0:
472,48,120335,38,0,P|455:124|441:201,1,155.999995239258,2|0,0:0|0:0,0:0:0:0:
512,355,121394,2,0,B|486:384|436:375|419:332|435:297|462:285|462:285|547:261|569:139|469:73|383:107|358:171|358:171|337:257|210:281|138:178|145:87|242:15|329:67,1,935.999971435548,6|8,0:0|0:0,0:0:0:0:
276,142,125982,1,2,0:0:0:0:
110,207,126335,102,0,P|53:195|-4:190,2,116.999996429443,2|2|2,3:0|3:0|3:0,0:0:0:0:
197,37,127394,2,0,P|186:64|179:92,1,58.4999982147217,2|8,3:0|3:0,0:0:0:0:
240,160,127746,2,0,P|280:144|323:134,1,87.7499973220826,2|0,3:0|3:3,0:0:0:0:
323,134,128099,1,0,3:0:0:0:
384,200,128276,1,2,0:0:0:0:
463,175,128452,2,0,P|476:144|483:114,1,58.4999982147217,0|2,3:0|0:0,0:0:0:0:
384,200,128805,85,2,3:0:0:0:
449,259,128982,1,0,0:0:0:0:
397,331,129158,2,0,P|343:308|286:295,1,116.999996429443,2|2,3:0|3:0,0:0:0:0:
260,373,129688,1,2,3:3:0:0:
181,359,129864,2,0,P|173:330|161:300,1,58.4999982147217,2|0,3:0|0:0,0:0:0:0:
227,248,130217,1,2,3:0:0:0:
115,116,130570,22,0,P|79:127|58:133,1,58.4999982147217,2|0,3:0|3:0,0:0:0:0:
6,68,130923,1,0,3:0:0:0:
63,14,131099,1,2,0:0:0:0:
140,35,131276,2,0,P|166:47|194:55,1,58.4999982147217,0|0,3:0|3:0,0:0:0:0:
263,1,131629,86,0,P|274:36|286:64,1,58.4999982147217,2|0,3:0|0:0,0:0:0:0:
336,128,131982,1,0,3:0:0:0:
336,128,132158,1,0,3:0:0:0:
408,72,132335,1,0,3:0:0:0:
408,72,132511,1,2,0:0:0:0:
480,120,132688,2,0,P|471:156|466:189,1,58.4999982147217,2|0,3:0|0:0,0:0:0:0:
512,251,133041,22,0,P|466:265|419:278,1,77.999997619629,2|2,3:0|0:0,0:0:0:0:
373,330,133394,1,2,3:0:0:0:
298,291,133570,1,2,3:0:0:0:
272,208,133746,2,0,P|226:222|179:235,1,77.999997619629,2|0,3:0|0:0,0:0:0:0:
133,287,134099,1,2,3:0:0:0:
58,248,134275,1,2,0:0:0:0:
58,248,134452,85,2,0:0:0:0:
207,36,135864,22,2,L|213:4,2,32.5
187,117,136217,1,0,3:0:0:0:
256,172,136394,1,0,3:0:0:0:
256,172,136482,2,0,L|330:156,1,65,0|0,3:0|3:0,0:0:0:0:
319,158,136746,1,0,3:0:0:0:
441,120,136923,2,0,L|424:186,1,65,14|0,0:0|0:0,0:0:0:0:
370,257,137276,54,0,B|429:264|461:315|461:315|459:252|508:223,1,221.000004215241,4|2,1:0|0:0,0:0:0:0:
508,222,137805,1,0,3:0:0:0:
424,182,137982,1,8,0:1:0:0:
297,335,138335,101,2,0:1:0:0:
297,335,138511,2,0,P|256:312|243:264,1,84.4999961318971,2|2,0:0|0:0,0:0:0:0:
172,232,138864,2,0,P|191:168|245:138,1,126.749994197846,4|0,0:0|0:0,0:0:0:0:
240,138,139217,1,2,0:1:0:0:
296,72,139394,2,0,P|338:81|367:115,1,84.4999961318971,8|0,0:1|0:0,0:0:0:0:
420,52,139746,1,4,0:1:0:0:
335,192,139923,5,2,0:0:0:0:
335,192,140011,1,2,0:0:0:0:
335,192,140099,2,0,B|399:194|435:228|435:228|426:164|457:120,2,221.000004215241,0|0|8,1:0|0:0|0:1,0:0:0:0:
199,44,141158,101,2,0:1:0:0:
199,44,141335,2,0,P|229:55|238:116,1,84.4999961318971
201,175,141688,1,0,0:0:0:0:
124,132,141864,2,0,P|67:120|19:194,1,126.749994197846,0|0,1:0|0:0,0:0:0:0:
18,176,142217,1,10,0:1:0:0:
95,216,142394,1,2,0:0:0:0:
42,283,142570,2,0,P|56:323|56:371,1,84.4999961318971,2|2,0:0|0:1,0:0:0:0:
56,364,142923,6,0,B|136:344|136:344|140:345|140:345|145:342|145:342|276:309,1,195.00000743866,0|2,1:0|0:3,0:0:0:0:
381,291,143452,1,2,0:3:0:0:
397,369,143629,2,0,P|354:369|323:336,1,77.999997619629,8|0,0:1|0:0,0:0:0:0:
305,256,143982,101,2,0:1:0:0:
305,256,144070,1,2,0:0:0:0:
305,256,144158,2,0,P|339:167|328:89,1,155.999995239258,2|2,0:0|0:0,0:0:0:0:
408,28,144688,2,0,P|439:63|448:95,1,77.999997619629,0|2,1:0|0:1,0:0:0:0:
447,92,144952,1,2,0:0:0:0:
447,92,145041,6,0,P|340:86|288:13,1,195.00000743866,8|2,0:1|0:0,0:0:0:0:
275,25,145482,1,2,0:0:0:0:
261,29,145570,1,2,0:0:0:0:
246,33,145658,1,2,0:0:0:0:
232,38,145746,2,0,P|186:24|141:21,1,77.999997619629,2|2,1:3|0:3,0:0:0:0:
236,133,146099,2,0,P|196:145|163:164,1,77.999997619629,2|2,0:3|0:3,0:0:0:0:
100,96,146452,1,8,0:1:0:0:
8,269,146805,102,0,P|36:273|60:285,3,38.9999988098145,2|2|2|0,0:0|0:0|0:0|0:0,0:0:0:0:
55,283,147158,1,2,0:3:0:0:
109,221,147335,1,2,0:3:0:0:
205,233,147511,2,0,P|177:304|171:358,1,116.999996429443,2|0,1:3|0:0,0:0:0:0:
171,343,147864,1,8,0:1:0:0:
252,384,148041,2,0,P|289:289|297:217,1,155.999995239258,2|2,0:0|0:1,0:0:0:0:
384,176,148570,6,0,B|447:175|479:218|479:218|474:147|509:113,2,221.000004215241,4|2|8,1:0|0:0|0:1,0:0:0:0:
393,25,149629,101,2,0:1:0:0:
393,25,149805,2,0,P|413:62|423:111,1,77.999997619629,2|0,0:0|0:0,0:0:0:0:
384,176,150158,1,2,0:1:0:0:
304,136,150335,2,0,P|248:101|194:101,1,116.999996429443,2|0,1:3|0:0,0:0:0:0:
198,100,150688,2,0,P|154:109|114:93,1,77.999997619629,8|0,0:1|0:0,0:0:0:0:
40,72,151041,1,2,0:3:0:0:
25,163,151217,1,2,0:3:0:0:
25,163,151305,1,2,0:0:0:0:
25,163,151394,6,0,B|82:161|125:201|134:258|134:258|122:296|75:328,2,221.000004215241,0|2|8,1:0|0:0|0:1,0:0:0:0:
207,18,152452,101,2,0:1:0:0:
207,18,152629,2,0,P|192:56|186:102,1,77.999997619629,2|0,0:0|0:0,0:0:0:0:
233,156,152982,1,4,0:1:0:0:
296,101,153158,2,0,P|363:77|413:69,1,116.999996429443,0|0,1:0|0:0,0:0:0:0:
408,69,153511,1,10,0:1:0:0:
491,117,153688,1,2,0:0:0:0:
387,168,153864,2,0,P|429:180|461:196,1,77.999997619629,2|2,0:0|0:1,0:0:0:0:
406,287,154217,5,0,1:0:0:0:
488,301,154394,2,0,B|409:319|409:319|409:323|409:323|319:345,1,168.999992263794,2|2,0:3|0:3,0:0:0:0:
239,370,154923,2,0,P|248:327|254:287,1,84.4999961318971,8|0,0:1|0:0,0:0:0:0:
329,234,155276,101,2,0:1:0:0:
329,234,155364,1,0,0:0:0:0:
329,234,155452,2,0,P|355:193|335:146,1,84.4999961318971,2|0,0:0|0:0,0:0:0:0:
299,91,155805,1,0,0:0:0:0:
335,19,155982,2,0,P|281:58|206:41,1,126.749994197846,0|0,1:0|0:0,0:0:0:0:
216,47,156335,1,8,0:1:0:0:
140,17,156511,1,0,0:0:0:0:
80,80,156688,2,0,P|94:120|106:165,1,84.4999961318971,4|0,0:1|0:0,0:0:0:0:
44,240,157041,5,2,1:2:0:0:
126,291,157217,1,2,0:0:0:0:
44,240,157394,2,0,B|83:242|114:253|114:253|163:236|194:198,1,168.999992263794,2|8,0:0|0:1,0:0:0:0:
337,80,158099,101,2,0:0:0:0:
337,80,158188,1,0,0:0:0:0:
337,80,158276,2,0,P|321:40|317:-4,1,84.4999961318971,0|2,0:0|0:1,0:0:0:0:
405,25,158629,1,0,0:0:0:0:
284,144,158805,6,0,B|320:120|362:120|362:120|400:140|448:132,1,168.999992263794,2|10,1:0|0:1,0:0:0:0:
480,204,159335,1,2,0:3:0:0:
480,204,159511,2,0,P|456:232|464:272,1,78,2|0,0:3|0:0,0:0:0:0:
512,340,159864,101,2,0:0:0:0:
496,348,160217,1,2,0:0:0:0:
473,352,160570,1,2,0:0:0:0:
450,349,160923,1,2,0:0:0:0:
332,288,161276,6,0,L|324:250,1,26,8|0,0:0|0:0,0:0:0:0:
212,244,161629,2,0,L|182:268,1,26,8|0,0:0|0:0,0:0:0:0:
234,370,161982,2,0,L|270:382,1,26,8|0,0:0|0:0,0:0:0:0:
292,192,162335,101,2,0:3:0:0:
292,192,162423,2,0,L|279:121,1,71.5000021820069,2|2,0:3|0:3,0:0:0:0:
279,121,162688,102,0,B|311:158|356:167|401:143|401:143|385:118|396:95|348:72,1,221.000004215241,6|2,1:1|0:0,0:0:0:0:
272,28,163217,1,0,1:0:0:0:
376,0,163394,22,2,P|300:56|164:48,1,221.000004215241,10|2,0:1|0:1,0:1:0:0:
104,20,163923,1,6,0:0:0:0:
16,152,164276,85,2,0:0:0:0:
16,152,164364,1,0,0:0:0:0:
15,152,164452,2,0,P|83:176|128:232,1,146.250005578995,2|0,1:3|0:0,0:0:0:0:
128,232,164805,1,8,0:1:0:0:
206,279,164982,1,0,0:0:0:0:
287,239,165158,2,0,P|308:196|316:148,1,97.50000371933,2|2,0:3|0:3,0:0:0:0:
316,147,165511,22,0,P|331:253|364:368,1,195.00000743866,2|2,1:0|0:0,0:0:0:0:
436,380,166041,1,0,1:0:0:0:
496,316,166217,2,2,P|481:210|448:95,1,195.00000743866,10|2,0:1|0:1,0:1:0:0:
474,14,166746,86,0,P|442:82|374:70,1,146.250005578995,2|0,0:0|0:0,0:0:0:0:
380,75,167099,1,2,0:0:0:0:
332,11,167276,1,0,1:0:0:0:
271,74,167452,1,2,0:0:0:0:
271,74,167541,1,2,0:0:0:0:
271,74,167629,2,0,P|224:86|211:131,1,97.50000371933,8|0,0:1|0:0,0:0:0:0:
148,200,167982,2,0,P|117:168|78:167,1,77.999997619629,2|0,0:0|0:0,0:0:0:0:
16,232,168335,21,2,1:0:0:0:
15,232,168511,2,0,P|176:200|328:172,1,312,0|8,3:0|0:1,0:0:0:0:
500,0,169394,85,2,0:3:0:0:
500,0,169482,1,2,0:3:0:0:
500,0,169570,2,0,P|448:12|432:60,1,104,2|2,0:3|0:3,0:0:0:0:
404,156,169923,1,0,0:3:0:0:
483,117,170099,2,0,P|419:73|339:93,1,156,0|0,1:0|0:0,0:0:0:0:
294,155,170452,38,0,P|288:139|295:149,2,69.3333333333333,2|2|2,0:0|0:0|0:0,0:0:0:0:
294,155,170805,2,0,P|225:120|148:113,1,156,2|0,1:0|0:0,0:0:0:0:
136,120,171158,102,0,B|93:146|30:120|17:62|17:62|37:22|75:11,2,221.000004215241,6|2|10,1:0|0:0|0:1,0:0:0:0:
64,304,172217,1,2,0:1:0:0:
1,249,172394,2,0,B|48:218|48:218|99:233,1,110.50000210762,2|2,0:0|0:3,0:0:0:0:
176,192,172746,1,2,0:3:0:0:
208,272,172923,2,0,P|277:248|349:235,1,146.250005578995,2|0,1:3|0:0,0:0:0:0:
357,240,173276,2,0,P|326:276|346:347,1,97.50000371933,8|0,0:1|0:0,0:0:0:0:
408,349,173629,2,0,P|439:313|419:242,1,97.50000371933,2|2,0:3|0:3,0:0:0:0:
472,132,173982,85,2,1:0:0:0:
512,200,174158,2,0,P|420:155|406:68,1,195.00000743866
458,11,174688,2,2,P|394:44|317:38,1,146.250005578995,10|0,0:1|0:0,0:1:0:0:
321,39,175041,1,2,0:1:0:0:
211,16,175217,22,0,P|241:56|242:103,1,97.50000371933,2|2,0:0|0:3,0:0:0:0:
189,161,175570,1,2,0:3:0:0:
252,220,175746,2,0,P|301:202|349:192,1,97.50000371933,0|2,1:0|0:0,0:0:0:0:
345,192,176011,1,2,0:0:0:0:
345,192,176099,1,10,0:1:0:0:
419,253,176276,1,0,0:0:0:0:
496,208,176452,2,0,P|509:244|510:283,1,77.999997619629,2|0,0:0|0:0,0:0:0:0:
480,384,176805,86,0,P|410:349|333:346,1,155.999995239258,2|2,1:1|0:0,0:0:0:0:
304,248,177335,1,0,1:0:0:0:
386,256,177511,2,2,P|318:294|242:306,1,155.999995239258,10|2,0:1|0:1,0:1:0:0:
174,361,178041,2,0,P|161:324|158:285,1,77.999997619629,2|2,0:0|0:3,0:0:0:0:
68,309,178394,2,0,P|80:345|83:384,1,77.999997619629,2|0,0:3|1:0,0:0:0:0:
0,265,178746,21,0,0:0:0:0:
0,265,178923,2,0,P|77:246|106:209,1,116.999996429443,8|0,0:1|0:0,0:0:0:0:
100,219,179276,2,0,P|87:180|79:137,1,77.999997619629,2|0,0:0|0:0,0:0:0:0:
104,48,179629,85,0,1:0:0:0:
0,76,179805,2,0,P|115:101|225:184,1,233.999992858887,0|8,3:0|0:1,0:0:0:0:
436,141,180688,1,2,0:3:0:0:
436,141,180776,1,2,0:3:0:0:
436,141,180864,2,0,P|448:100|449:62,1,77.999997619629,2|2,0:3|0:3,0:0:0:0:
392,6,181217,1,2,0:3:0:0:
311,26,181394,22,0,P|278:92|295:191,1,155.999995239258,0|8,1:0|0:1,0:0:0:0:
343,231,181923,1,2,0:0:0:0:
299,308,182099,1,0,0:0:0:0:
214,288,182276,1,0,0:0:0:0:
208,209,182452,69,0,1:0:0:0:
256,192,182541,12,0,187923,0:0:0:0:
