osu file format v14

[General]
AudioFilename: audio.mp3
AudioLeadIn: 0
PreviewTime: 450
Countdown: 0
SampleSet: Soft
StackLeniency: 0.2
Mode: 0
LetterboxInBreaks: 0
WidescreenStoryboard: 1

[Editor]
Bookmarks: 1949,13244,35832,47832,58420,81008,92302,113655,114891,137479,149479,171361,182655
DistanceSpacing: 0.3
BeatDivisor: 4
GridSize: 32
TimelineZoom: 2.5

[Metadata]
Title:DERO
TitleUnicode:DERO
Artist:DUSTCELL
ArtistUnicode:DUSTCELL
Creator:Heilia
Version:LOSER
Source:
Tags:pdc pending cup 2020 pdc2020 mapping contest vtuber EMA EM A Misumi Kamitsubaki Studio 神椿スタジオ rei sirose 白瀬玲 kudou chitose 久遠千歳 kudo youtube virtual youtuber 梅まろ japanese hip hop hip-hop shizuku- shikibe_mayu shikibe mayu kazato asa kazato_asa flake garden
BeatmapID:2731307
BeatmapSetID:1318423

[Difficulty]
HPDrainRate:6
CircleSize:4.2
OverallDifficulty:8.7
ApproachRate:9.2
SliderMultiplier:1.8
SliderTickRate:1

[Events]
//Background and Video events
0,0,"bg.jpg",0,0
//Break Periods
//Storyboard Layer 0 (Background)
//Storyboard Layer 1 (Fail)
//Storyboard Layer 2 (Pass)
//Storyboard Layer 3 (Foreground)
//Storyboard Layer 4 (Overlay)
//Storyboard Sound Samples

[TimingPoints]
1747,352.941176470588,4,2,1,60,1,0
2276,-200,4,2,1,60,0,0
2452,-100,4,2,1,60,0,0
3511,-200,4,2,1,60,0,0
3864,-100,4,2,1,60,0,0
4217,-200,4,2,1,60,0,0
4570,-100,4,2,1,60,0,0
4923,-200,4,2,1,60,0,0
9511,-100,4,2,1,60,0,0
10570,-200,4,2,1,60,0,0
11276,-250,4,2,1,60,0,0
11982,-333.333333333333,4,2,1,60,0,0
12511,-200,4,2,1,60,0,0
12952,-66.6666666666667,4,2,1,60,0,0
13041,-66.6666666666667,4,2,1,70,0,0
13217,-86.9565217391304,4,2,1,70,0,0
15688,-133.333333333333,4,2,1,70,0,0
16041,-86.9565217391304,4,2,1,70,0,0
18511,-133.333333333333,4,2,1,70,0,0
18864,-86.9565217391304,4,2,1,70,0,0
21335,-133.333333333333,4,2,1,70,0,0
21688,-86.9565217391304,4,2,1,70,0,0
24158,-133.333333333333,4,2,1,70,0,0
24688,-86.9565217391304,4,2,1,70,0,0
29982,-200,4,2,1,70,0,0
30335,-86.9565217391304,4,2,1,70,0,0
31394,-200,4,2,1,70,0,0
31746,-86.9565217391304,4,2,1,70,0,0
32452,-133.333333333333,4,2,1,70,0,0
32805,-200,4,2,1,70,0,0
33158,-86.9565217391304,4,2,1,70,0,0
34217,-100,4,2,1,70,0,0
34570,-133.333333333333,4,2,1,70,0,0
35982,-100,4,2,1,50,0,0
36688,-200,4,2,1,50,0,0
41276,-100,4,2,1,50,0,0
42335,-200,4,2,1,50,0,0
46923,-200,4,2,1,60,0,0
47276,-100,4,2,1,60,0,0
53629,-66.6666666666667,4,2,1,60,0,0
54688,-66.6666666666667,4,2,1,60,0,0
55041,-200,4,2,1,60,0,0
57864,-1000,4,2,1,80,0,0
58217,-100,4,2,1,80,0,1
58570,-66.6666666666667,4,2,1,80,0,0
58923,-50,4,2,1,80,0,0
59276,-200,4,2,1,80,0,0
59452,-66.6666666666667,4,2,1,80,0,0
60158,-200,4,2,1,80,0,0
60335,-66.6666666666667,4,2,1,80,0,0
60688,-133.333333333333,4,2,1,80,0,0
61041,-100,4,2,1,80,0,0
61394,-66.6666666666667,4,2,1,80,0,0
61746,-50,4,2,1,80,0,0
62099,-200,4,2,1,80,0,0
62276,-66.6666666666667,4,2,1,80,0,0
62982,-200,4,2,1,80,0,0
63864,-100,4,2,1,80,0,1
64217,-50,4,2,1,80,0,0
64923,-200,4,2,1,80,0,0
65099,-66.6666666666667,4,2,1,80,0,0
65805,-200,4,2,1,80,0,0
65982,-66.6666666666667,4,2,1,80,0,0
66688,-50,4,2,1,80,0,0
67041,-80,4,2,1,80,0,0
67394,-57.1428571428571,4,2,1,80,0,0
67923,-66.6666666666667,4,2,1,80,0,0
68099,-50,4,2,1,80,0,0
68452,-80,4,2,1,80,0,0
69511,-100,4,2,1,80,0,1
69864,-66.6666666666667,4,2,1,80,0,0
70217,-50,4,2,1,80,0,0
70570,-200,4,2,1,80,0,0
70746,-66.6666666666667,4,2,1,80,0,0
71099,-200,4,2,1,80,0,0
71276,-133.333333333333,4,2,1,80,0,0
71629,-100,4,2,1,80,0,0
71982,-133.333333333333,4,2,1,80,0,0
72335,-100,4,2,1,80,0,0
72688,-66.6666666666667,4,2,1,80,0,0
73041,-50,4,2,1,80,0,0
73394,-200,4,2,1,80,0,0
73570,-66.6666666666667,4,2,1,80,0,0
74276,-200,4,2,1,80,0,0
74982,-100,4,2,1,80,0,0
75158,-100,4,2,1,80,0,1
75511,-66.6666666666667,4,2,1,80,0,0
75864,-50,4,2,1,80,0,0
76217,-200,4,2,1,80,0,0
76394,-66.6666666666667,4,2,1,80,0,0
76746,-200,4,2,1,80,0,0
76923,-66.6666666666667,4,2,1,80,0,0
77982,-50,4,2,1,80,0,0
78335,-80,4,2,1,80,0,0
78688,-57.1428571428571,4,2,1,80,0,0
79041,-66.6666666666667,4,2,1,80,0,0
79394,-50,4,2,1,80,0,0
79746,-80,4,2,1,80,0,0
80805,-172.413793103448,4,2,1,50,0,0
91746,-200,4,2,1,50,0,0
92099,-100,4,2,1,80,0,1
92276,-83.3333333333333,4,2,1,80,0,1
92452,-71.4285714285714,4,2,1,80,0,0
92629,-62.5,4,2,1,80,0,0
92805,-55.5555555555556,4,2,1,80,0,0
92982,-50,4,2,1,80,0,0
93511,-100,4,2,1,80,0,0
93688,-83.3333333333333,4,2,1,80,0,0
93864,-71.4285714285714,4,2,1,80,0,0
94041,-62.5,4,2,1,80,0,0
94217,-55.5555555555556,4,2,1,80,0,0
94394,-50,4,2,1,80,0,0
94923,-100,4,2,1,80,0,0
95099,-83.3333333333333,4,2,1,80,0,0
95276,-71.4285714285714,4,2,1,80,0,0
95452,-62.5,4,2,1,80,0,0
95629,-55.5555555555556,4,2,1,80,0,0
95805,-50,4,2,1,80,0,0
95982,-45.4545454545455,4,2,1,80,0,0
96158,-41.6666666666667,4,2,1,80,0,0
96511,-45.4545454545455,4,2,1,80,0,0
96688,-50,4,2,1,80,0,0
96864,-55.5555555555556,4,2,1,80,0,0
97041,-62.5,4,2,1,80,0,0
97217,-71.4285714285714,4,2,1,80,0,0
97394,-83.3333333333333,4,2,1,80,0,0
97570,-100,4,2,1,80,0,0
97746,-100,4,2,1,80,0,1
97923,-83.3333333333333,4,2,1,80,0,1
98099,-71.4285714285714,4,2,1,80,0,0
98276,-62.5,4,2,1,80,0,0
98452,-55.5555555555556,4,2,1,80,0,0
98629,-50,4,2,1,80,0,0
98805,-53.1914893617021,4,2,1,80,0,0
99158,-100,4,2,1,80,0,0
99335,-83.3333333333333,4,2,1,80,0,0
99511,-71.4285714285714,4,2,1,80,0,0
99688,-62.5,4,2,1,80,0,0
99864,-55.5555555555556,4,2,1,80,0,0
100041,-50,4,2,1,80,0,0
100217,-47.6190476190476,4,2,1,80,0,0
100570,-100,4,2,1,80,0,0
100746,-83.3333333333333,4,2,1,80,0,0
100923,-71.4285714285714,4,2,1,80,0,0
101099,-62.5,4,2,1,80,0,0
101276,-55.5555555555556,4,2,1,80,0,0
101452,-50,4,2,1,80,0,0
101629,-45.4545454545455,4,2,1,80,0,0
101982,-55.5555555555556,4,2,1,80,0,0
102158,-62.5,4,2,1,80,0,0
102335,-71.4285714285714,4,2,1,80,0,0
102511,-83.3333333333333,4,2,1,80,0,0
102688,-57.1428571428571,4,2,1,80,0,0
103041,-133.333333333333,4,2,1,80,0,0
103394,-133.333333333333,4,2,1,80,0,1
103746,-83.3333333333333,4,2,1,80,0,0
104099,-62.5,4,2,1,80,0,0
104452,-50,4,2,1,80,0,0
105158,-83.3333333333333,4,2,1,80,0,0
105511,-62.5,4,2,1,80,0,0
105864,-50,4,2,1,80,0,0
106570,-83.3333333333333,4,2,1,80,0,0
106923,-62.5,4,2,1,80,0,0
107276,-50,4,2,1,80,0,0
107629,-45.4545454545455,4,2,1,80,0,0
107805,-50,4,2,1,80,0,0
107982,-62.5,4,2,1,80,0,0
108335,-83.3333333333333,4,2,1,80,0,0
109041,-83.3333333333333,4,2,1,80,0,1
109394,-83.3333333333333,4,2,1,80,0,0
109746,-62.5,4,2,1,80,0,0
110099,-50,4,2,1,80,0,0
110805,-83.3333333333333,4,2,1,80,0,0
111158,-62.5,4,2,1,80,0,0
111511,-50,4,2,1,80,0,0
112217,-83.3333333333333,4,2,1,80,0,0
112570,-62.5,4,2,1,80,0,0
112923,-50,4,2,1,80,0,0
115217,-200,4,2,0,50,0,0
125982,-200,4,2,1,60,0,0
126335,-100,4,2,1,60,0,0
132688,-66.6666666666667,4,2,1,60,0,0
134099,-200,4,2,1,60,0,0
135864,-200,4,2,1,60,0,0
136923,-35.0877192982456,4,2,1,80,0,0
137276,-100,4,2,1,80,0,1
137629,-66.6666666666667,4,2,1,80,0,0
137982,-50,4,2,1,80,0,0
138335,-200,4,2,1,80,0,0
138511,-66.6666666666667,4,2,1,80,0,0
139217,-200,4,2,1,80,0,0
139394,-66.6666666666667,4,2,1,80,0,0
139746,-133.333333333333,4,2,1,80,0,0
140099,-100,4,2,1,80,0,0
140452,-66.6666666666667,4,2,1,80,0,0
140805,-50,4,2,1,80,0,0
141158,-200,4,2,1,80,0,0
141335,-66.6666666666667,4,2,1,80,0,0
142041,-200,4,2,1,80,0,0
142923,-100,4,2,1,80,0,1
143276,-50,4,2,1,80,0,0
143982,-200,4,2,1,80,0,0
144158,-66.6666666666667,4,2,1,80,0,0
144864,-200,4,2,1,80,0,0
145041,-66.6666666666667,4,2,1,80,0,0
145746,-50,4,2,1,80,0,0
146099,-80,4,2,1,80,0,0
146452,-57.1428571428571,4,2,1,80,0,0
146805,-66.6666666666667,4,2,1,80,0,0
147158,-50,4,2,1,80,0,0
148570,-100,4,2,1,80,0,1
148923,-66.6666666666667,4,2,1,80,0,0
149276,-50,4,2,1,80,0,0
149629,-200,4,2,1,80,0,0
149805,-66.6666666666667,4,2,1,80,0,0
150158,-200,4,2,1,80,0,0
150335,-133.333333333333,4,2,1,80,0,0
150688,-100,4,2,1,80,0,0
151041,-133.333333333333,4,2,1,80,0,0
151394,-100,4,2,1,80,0,0
151746,-66.6666666666667,4,2,1,80,0,0
152099,-50,4,2,1,80,0,0
152452,-200,4,2,1,80,0,0
152629,-66.6666666666667,4,2,1,80,0,0
153335,-200,4,2,1,80,0,0
154217,-100,4,2,1,80,0,1
154570,-50,4,2,1,80,0,0
155276,-200,4,2,1,80,0,0
155452,-66.6666666666667,4,2,1,80,0,0
156158,-200,4,2,1,80,0,0
156335,-66.6666666666667,4,2,1,80,0,0
156688,-133.333333333333,4,2,1,80,0,0
157394,-100,4,2,1,80,0,0
158982,-133.333333333333,4,2,1,80,0,0
162688,-50,4,2,1,85,0,1
163394,-40,4,2,1,85,0,1
164099,-50,4,2,1,85,0,1
164452,-133.333333333333,4,2,1,85,0,1
164805,-66.6666666666667,4,2,1,85,0,1
165158,-133.333333333333,4,2,1,85,0,1
165511,-50,4,2,1,85,0,1
166217,-40,4,2,1,85,0,1
166923,-50,4,2,1,85,0,1
171864,-40,4,2,1,85,0,1
172551,-50,4,2,1,85,0,1
172923,-133.333333333333,4,2,1,85,0,1
173276,-66.6666666666667,4,2,1,85,0,1
173629,-133.333333333333,4,2,1,85,0,1
173982,-50,4,2,1,85,0,1
174688,-40,4,2,1,85,0,1
175394,-50,4,2,1,85,0,1
177511,-40,4,2,1,85,0,1
178041,-50,4,2,1,85,0,1
182099,-200,4,2,1,85,0,1
182452,-200,4,2,1,50,0,0

[Colours]
Combo1 : 153,153,204
Combo2 : 254,224,214
Combo3 : 158,159,163
Combo4 : 148,217,254
Combo5 : 232,170,102
Combo6 : 234,66,129
Combo7 : 112,245,196
Combo8 : 236,236,236

[HitObjects]
113,354,1746,101,6,0:0:0:0:
459,279,2099,53,0,3:0:0:0:
411,216,2276,2,2,L|414:199,2,11.25
337,243,2452,1,8,0:0:0:0:
215,37,2805,53,0,0:0:0:0:
167,100,2982,1,0,0:0:0:0:
93,73,3158,1,0,0:0:0:0:
468,155,3511,54,0,L|532:147,1,45,0|0,3:0|0:0,0:0:0:0:
498,76,3864,54,0,B|451:63|440:14|440:14|448:63|411:95,1,180,8|0,0:0|0:0,0:0:0:0:
358,29,4394,53,2,0:0:0:0:
356,20,4452,53,2,0:0:0:0:
354,11,4511,53,2,0:0:0:0:
352,2,4570,53,6,0:0:0:0:
352,2,4923,53,0,3:0:0:0:
342,77,5099,1,0,0:0:0:0:
332,152,5276,1,8,0:0:0:0:
333,79,5629,53,0,3:0:0:0:
343,154,5805,1,0,0:0:0:0:
353,229,5982,1,0,0:0:0:0:
355,156,6335,53,0,3:0:0:0:
345,231,6511,1,0,0:0:0:0:
335,306,6688,1,8,0:0:0:0:
335,234,7041,53,0,0:0:0:0:
345,309,7217,2,2,L|366:305,2,15
355,384,7394,1,6,0:1:0:0:
438,122,7746,53,0,3:0:0:0:
501,74,7923,2,2,L|518:76,2,11.25
474,0,8099,1,8,0:0:0:0:
231,207,8452,53,0,0:0:0:0:
157,180,8629,1,0,0:0:0:0:
109,243,8805,1,0,0:0:0:0:
512,377,9158,54,0,L|448:369,1,45,0|0,3:0|0:0,0:0:0:0:
322,324,9511,54,0,B|369:337|380:386|380:386|372:337|413:302,1,180,8|0,0:0|0:0,0:0:0:0:
471,245,10041,53,2,0:0:0:0:
469,237,10099,53,2,0:0:0:0:
467,229,10158,53,2,0:0:0:0:
465,221,10217,53,2,0:0:0:0:
52,99,10570,54,2,L|2:121,2,45
168,159,11276,54,2,L|127:152,2,36
209,260,11982,54,2,L|183:240,2,26.9999991760254
193,358,12511,54,2,L|190:338,2,11.25
268,354,12688,54,0,L|264:331,1,22.5,0|0,3:0|0:0,0:0:0:0:
345,355,12864,53,0,3:0:0:0:
342,333,12952,1,0,3:0:0:0:
339,310,13041,1,6,0:0:0:0:
298,237,13217,102,0,P|323:233|342:216,1,51.7500009870529
266,19,13394,2,0,P|296:91|290:167,1,155.250002961159,0|0,3:0|0:0,0:0:0:0:
220,209,13746,2,0,P|214:126|289:177,1,207.000003948212,8|0,0:0|0:0,0:0:0:0:
423,234,14276,37,2,0:0:0:0:
423,234,14364,1,2,0:0:0:0:
423,234,14452,69,2,0:0:0:0:
291,167,14629,1,0,0:0:0:0:
222,299,14805,1,2,3:0:0:0:
220,209,14982,37,2,0:0:0:0:
298,251,15158,69,10,0:0:0:0:
132,330,15335,1,0,0:0:0:0:
54,163,15511,1,2,0:0:0:0:
227,82,15688,38,0,L|230:58,3,22.5000008583069,0|0|0|4,0:0|0:0|0:0|0:0,0:0:0:0:
290,18,16041,70,0,P|304:56|297:96,1,51.7500009870529
306,178,16217,2,0,P|313:107|386:122,1,155.250002961159,0|0,3:0|0:0,0:0:0:0:
430,173,16570,2,0,P|329:144|226:134,1,207.000003948212,8|0,0:0|3:0,0:0:0:0:
241,230,17099,37,2,0:0:0:0:
241,230,17188,1,2,0:0:0:0:
241,230,17276,69,2,0:0:0:0:
310,351,17452,1,0,0:0:0:0:
442,307,17629,1,2,3:0:0:0:
496,372,17805,37,2,0:0:0:0:
408,384,17982,69,10,0:0:0:0:
372,228,18158,1,0,3:0:0:0:
499,131,18335,1,2,0:0:0:0:
422,22,18511,38,0,L|419:-2,3,22.5000008583069,0|0|0|4,0:0|0:0|0:0|0:0,0:0:0:0:
433,271,18864,70,0,P|451:240|445:211,1,51.7500009870529
271,152,19041,2,0,P|303:224|383:221,1,155.250002961159,0|0,3:0|0:0,0:0:0:0:
413,160,19394,2,0,P|389:260|381:363,1,207.000003948212,8|0,0:0|0:0,0:0:0:0:
311,302,19923,37,2,0:0:0:0:
311,302,20011,1,2,0:0:0:0:
311,302,20099,69,2,0:0:0:0:
168,384,20276,1,0,0:0:0:0:
78,245,20452,1,2,3:0:0:0:
163,292,20629,37,2,0:0:0:0:
88,340,20805,69,10,0:0:0:0:
167,174,20982,1,0,0:0:0:0:
0,96,21158,1,2,0:0:0:0:
147,32,21335,38,0,L|150:8,3,22.5000008583069,0|0|0|4,0:0|0:0|0:0|0:0,0:0:0:0:
332,128,21688,70,0,P|305:142|262:124,1,51.7500009870529
228,11,21864,2,0,P|297:0|283:67,1,155.250002961159,0|0,3:0|0:0,0:0:0:0:
212,84,22217,2,0,P|277:36|405:53,1,207.000003948212,8|0,0:0|3:0,0:0:0:0:
416,195,22746,37,2,0:0:0:0:
416,195,22835,1,2,0:0:0:0:
416,195,22923,69,2,0:0:0:0:
411,225,23099,1,0,3:0:0:0:
335,250,23276,37,2,3:0:0:0:
325,174,23452,1,2,0:0:0:0:
267,119,23629,69,10,0:0:0:0:
244,278,23805,1,0,3:0:0:0:
185,338,23982,37,2,0:0:0:0:
154,72,24158,2,0,L|149:37,3,22.5000008583069,0|0|0|4,0:0|0:0|0:0|0:0,0:0:0:0:
244,278,24688,70,0,B|201:263|157:284|194:301|144:325|101:309,1,155.250002961159,0|0,3:0|0:0,0:0:0:0:
23,313,25041,2,0,P|16:274|93:265,1,103.500001974106,8|0,0:0|0:0,0:0:0:0:
67,378,25394,2,0,P|60:275|32:173,1,207.000003948212,0|2,0:0|0:0,0:0:0:0:
107,29,25923,1,0,0:0:0:0:
185,202,26099,38,2,P|182:168|162:142,2,69.0000013160706,2|2|2,3:0|0:0|0:0,0:0:0:0:
64,244,26452,2,2,P|93:225|106:193,2,69.0000013160706,10|2|2,0:0|0:0|0:0,0:0:0:0:
41,327,26805,70,0,P|82:325|138:360,1,103.500001974106,2|2,0:0|0:0,0:0:0:0:
141,353,27041,37,2,0:0:0:0:
147,350,27099,69,2,0:0:0:0:
153,347,27158,38,0,P|158:289|202:268,1,103.500001974106,6|0,0:0|0:0,0:0:0:0:
419,83,27511,69,2,3:0:0:0:
429,66,27629,37,2,0:0:0:0:
422,49,27746,69,2,0:0:0:0:
346,58,27864,38,2,P|320:24|327:-15,2,69.0000013160706,10|2|2,0:0|0:0|0:0,0:0:0:0:
419,83,28217,2,0,P|406:133|400:184,1,103.500001974106,0|0,3:0|0:0,0:0:0:0:
399,184,28482,1,2,0:0:0:0:
399,184,28570,69,2,0:0:0:0:
237,208,28746,2,0,P|285:159|339:180,1,103.500001974106,0|2,0:0|3:0,0:0:0:0:
322,170,29011,1,2,0:0:0:0:
322,170,29099,38,0,P|326:215|346:238,1,51.7500009870529,2|0,0:0|0:0,0:0:0:0:
380,321,29276,69,10,0:0:0:0:
360,304,29364,1,2,0:0:0:0:
337,295,29452,1,2,3:0:0:0:
312,292,29541,1,2,0:0:0:0:
288,298,29629,1,2,0:0:0:0:
318,375,29805,37,2,0:0:0:0:
312,378,29864,69,2,0:0:0:0:
306,381,29923,37,2,0:0:0:0:
300,384,29982,70,0,P|273:373|235:371,1,67.5,0|0,3:0|0:0,0:0:0:0:
235,370,30335,38,0,P|178:326|221:242,1,155.250002961159,0|0,3:0|0:0,0:0:0:0:
270,213,30688,69,10,0:0:0:0:
290,184,30805,37,2,0:0:0:0:
287,148,30923,69,2,0:0:0:0:
262,122,31041,37,2,0:0:0:0:
226,119,31158,69,2,0:0:0:0:
196,140,31276,37,2,0:0:0:0:
187,175,31394,70,0,P|214:164|252:162,1,67.5,2|0,0:0|0:0,0:0:0:0:
252,161,31746,38,0,P|309:117|266:33,1,155.250002961159,2|0,3:0|0:0,0:0:0:0:
340,106,32099,69,10,0:0:0:0:
375,108,32217,37,2,0:0:0:0:
404,88,32335,69,2,0:0:0:0:
414,53,32452,38,0,P|426:99|464:113,1,67.5000025749208,0|2,0:0|0:0,0:0:0:0:
441,115,32688,69,2,0:0:0:0:
441,121,32746,37,2,0:0:0:0:
441,128,32805,70,0,P|416:150|408:192,1,67.5,6|0,0:0|0:0,0:0:0:0:
407,182,33158,38,0,P|431:222|349:221,1,155.250002961159,0|0,3:0|0:0,0:0:0:0:
276,215,33511,69,10,0:0:0:0:
241,221,33629,37,2,0:0:0:0:
218,248,33746,69,2,0:0:0:0:
217,285,33864,37,2,3:0:0:0:
240,312,33982,69,2,0:0:0:0:
276,318,34099,37,2,0:0:0:0:
307,300,34217,70,2,L|302:330,6,22.5
354,238,34570,38,0,L|349:186,1,33.7500012874604,2|0,0:0|0:0,0:0:0:0:
350,197,34746,2,0,L|345:145,1,33.7500012874604,2|0,0:0|0:0,0:0:0:0:
346,154,34923,2,0,L|341:102,1,33.7500012874604,2|0,0:0|0:0,0:0:0:0:
330,48,35099,69,2,0:3:0:0:
323,24,35188,1,2,0:3:0:0:
337,4,35276,1,2,0:3:0:0:
359,0,35364,1,2,0:3:0:0:
379,11,35452,1,2,0:3:0:0:
384,35,35541,1,2,0:3:0:0:
371,55,35629,1,2,0:3:0:0:
142,189,35982,6,0,B|191:115|150:20|60:17|41:103|83:131,1,270,2|0,0:0|0:0,0:0:0:0:
305,173,36688,2,0,B|244:140|157:179|220:216|132:257|60:214|60:214|115:221|144:186,1,360,6|0,0:0|0:0,0:0:0:0:
375,352,38452,37,2,0:3:0:0:
375,352,38629,1,2,0:0:0:0:
375,352,38805,1,2,0:3:0:0:
375,352,38982,1,2,0:0:0:0:
326,275,39158,69,0,3:0:0:0:
328,265,39246,1,0,3:0:0:0:
330,257,39335,1,0,3:0:0:0:
405,206,39511,37,2,0:0:0:0:
311,89,39688,1,2,0:3:0:0:
459,66,39864,1,2,0:0:0:0:
391,120,40041,69,2,0:3:0:0:
391,120,40217,1,2,0:0:0:0:
391,120,40394,1,2,0:3:0:0:
391,120,40570,1,2,0:0:0:0:
391,120,40746,1,2,0:3:0:0:
391,120,40923,1,2,0:0:0:0:
379,34,41276,37,2,0:1:0:0:
398,368,41629,70,0,B|432:319|416:238|358:212|358:212|395:250|388:303,1,270,2|0,0:0|0:0,0:0:0:0:
273,324,42335,2,0,B|349:313|418:362|418:362|474:340|479:278|479:278|420:260|386:294,1,360,6|0,0:0|0:0,0:0:0:0:
137,352,44099,37,2,0:0:0:0:
137,352,44276,1,2,0:3:0:0:
137,352,44452,1,2,0:0:0:0:
137,352,44629,1,2,0:3:0:0:
186,275,44805,69,2,3:0:0:0:
184,265,44894,1,2,3:0:0:0:
182,257,44982,1,2,3:0:0:0:
110,213,45158,37,2,0:0:0:0:
110,213,45335,1,2,0:3:0:0:
182,172,45511,69,2,0:0:0:0:
151,8,45688,1,2,0:3:0:0:
182,172,45864,1,2,0:0:0:0:
246,25,46041,37,2,3:0:0:0:
244,33,46129,1,2,3:0:0:0:
242,43,46217,1,2,3:0:0:0:
65,10,46394,1,0,3:0:0:0:
324,60,46570,1,2,3:0:0:0:
444,341,46923,101,6,3:0:0:0:
372,371,47099,1,2,0:0:0:0:
324,309,47276,2,0,P|347:274|337:215,1,90,2|0,3:0|3:0,0:0:0:0:
54,270,47629,85,2,3:0:0:0:
126,300,47805,1,2,0:0:0:0:
174,238,47982,2,0,P|151:203|161:144,1,90,2|0,3:0|3:0,0:0:0:0:
489,121,48335,21,2,3:0:0:0:
417,151,48511,1,2,0:0:0:0:
369,89,48688,1,2,3:0:0:0:
251,45,48864,85,2,3:0:0:0:
263,40,48952,1,2,3:0:0:0:
275,35,49041,21,2,3:0:0:0:
256,128,49217,1,2,0:0:0:0:
167,0,49394,85,2,3:0:0:0:
199,183,49570,1,2,3:0:0:0:
352,164,49746,22,0,P|333:228|326:267,1,90,0|0,3:0|0:0,0:0:0:0:
456,357,50099,85,2,3:0:0:0:
429,283,50276,1,2,0:0:0:0:
379,344,50452,1,2,3:0:0:0:
249,342,50629,21,2,3:0:0:0:
261,337,50717,1,2,3:0:0:0:
273,332,50805,85,2,3:0:0:0:
246,253,50982,1,0,3:0:0:0:
352,224,51158,21,2,3:0:0:0:
374,100,51335,1,2,0:0:0:0:
352,225,51511,1,2,3:0:0:0:
480,166,51688,85,2,3:0:0:0:
475,178,51776,1,2,3:0:0:0:
470,190,51864,21,2,3:0:0:0:
349,314,52041,1,2,0:0:0:0:
426,24,52217,1,2,3:0:0:0:
305,148,52394,1,2,3:0:0:0:
111,37,52570,86,0,P|128:113|136:153,1,90,2|0,3:0|0:0,0:0:0:0:
248,4,52923,1,0,3:0:0:0:
234,2,53011,1,0,3:0:0:0:
220,0,53099,2,0,L|208:66,1,45,0|0,3:0|3:0,3:0:0:0:
208,157,53276,21,2,3:0:0:0:
28,70,53452,1,2,0:0:0:0:
145,215,53629,2,0,P|188:202|352:174,1,202.500007724762,2|0,3:0|0:0,0:0:0:0:
268,196,53982,86,0,P|254:247|250:285,1,67.5000025749208,2|0,3:0|0:0,0:0:0:0:
330,250,54158,2,0,P|374:279|409:294,1,67.5000025749208,2|0,0:0|0:0,0:0:0:0:
383,113,54335,22,0,P|364:63|345:30,1,67.5000025749208,2|0,3:0|0:0,0:0:0:0:
304,111,54511,2,0,P|251:113|213:121,1,67.5000025749208,2|0,3:0|0:0,0:0:0:0:
418,195,54688,86,0,P|371:303|350:385,1,202.500007724762,2|0,3:0|0:0,0:0:0:0:
291,324,55041,22,0,L|325:326,1,22.5,2|0,3:0|0:0,0:0:0:0:
510,341,55217,86,2,L|512:323,4,11.25
510,341,56805,22,2,L|512:323,4,11.25
384,319,57158,85,0,3:0:0:0:
256,298,57335,21,0,3:0:0:0:
259,287,57423,1,0,3:0:0:0:
128,278,57599,85,0,3:0:0:0:
130,266,57688,1,0,3:0:0:0:
0,257,57864,22,0,L|2:244,1,13.5,14|0,0:0|0:0,0:0:0:0:
51,383,58217,54,0,B|77:359|111:364|111:364|77:354|60:320,1,135,4|0,1:0|0:0,0:0:0:0:
69,196,58570,102,0,B|121:196|152:241|152:241|126:192|154:142,1,202.500007724762,2|0,0:0|0:0,0:0:0:0:
228,51,58923,6,0,B|272:111|252:177|252:177|279:112|362:96,1,270,8|0,0:1|0:0,0:0:0:0:
243,274,59276,102,0,L|242:297,1,22.5,2|0,0:1|0:0,0:0:0:0:
154,142,59452,6,0,B|126:192|152:241|152:241|121:196|69:196,1,202.500007724762,2|0,0:0|0:0,0:0:0:0:
60,320,59805,102,0,B|77:354|111:364|111:364|77:359|51:383,1,135,2|0,0:0|1:0,0:0:0:0:
243,274,60158,6,0,L|242:297,1,22.5,2|0,0:1|0:0,0:0:0:0:
254,370,60335,102,0,L|279:131,1,202.500007724762,8|0,0:1|0:0,0:0:0:0:
232,230,60688,6,0,L|245:318,1,67.5000025749208,0|0,0:1|0:0,0:0:0:0:
459,384,61041,102,0,B|438:350|403:351|403:351|440:345|456:303,1,135,6|0,1:2|0:0,0:0:0:0:
443,196,61394,6,0,B|390:196|359:241|359:241|385:192|357:142,1,202.500007724762,2|0,0:0|0:0,0:0:0:0:
284,51,61746,102,0,B|239:111|260:177|260:177|232:112|150:96,1,270,8|0,0:1|0:0,0:0:0:0:
267,284,62099,6,0,L|289:285,1,22.5,2|0,0:1|0:0,0:0:0:0:
357,142,62276,102,0,B|385:192|359:241|359:241|390:196|443:196,1,202.500007724762,2|0,0:0|0:0,0:0:0:0:
453,310,62629,6,0,B|440:345|403:351|403:351|438:350|459:384,1,135,4|0,0:1|1:0,0:0:0:0:
267,284,62982,102,0,L|289:285,1,22.5,2|0,0:1|0:0,0:0:0:0:
233,363,63158,5,10,0:1:0:0:
256,192,63335,1,2,0:0:0:0:
279,21,63511,1,2,0:0:0:0:
245,100,63688,102,0,L|222:98,1,22.5,2|0,0:1|0:0,0:0:0:0:
78,44,63864,6,0,B|111:53|123:89|123:89|119:52|147:29,1,135,6|0,1:1|0:0,0:0:0:0:
285,270,64217,102,0,P|307:268|331:256,1,45,2|0,3:0|0:0,0:0:0:0:
291,248,64305,2,0,P|309:235|325:213,1,45,2|0,3:0|0:0,0:0:0:0:
283,228,64394,2,0,P|292:207|294:180,1,45,2|0,3:0|0:0,0:0:0:0:
268,212,64482,2,0,P|266:189|254:165,1,45,2|0,3:0|0:0,0:0:0:0:
188,208,64570,6,0,B|140:268|162:335|162:335|135:271|62:254,1,270,8|0,0:1|0:0,0:0:0:0:
10,154,64923,102,0,L|32:152,1,22.5,2|0,0:1|0:0,0:0:0:0:
408,146,65099,6,0,B|357:159|338:212|338:212|351:157|311:116,1,202.500007724762,2|0,0:0|0:0,0:0:0:0:
78,44,65452,102,0,B|111:53|123:89|123:89|119:52|149:28,1,135,2|0,0:0|1:0,0:0:0:0:
10,154,65805,6,0,L|32:152,1,22.5,2|0,0:1|0:0,0:0:0:0:
125,177,65982,102,0,L|105:399,1,202.500007724762,14|0,0:1|0:0,0:0:0:0:
151,318,66335,5,2,0:0:0:0:
164,316,66423,1,2,0:0:0:0:
177,314,66511,1,2,0:0:0:0:
190,312,66599,1,2,0:0:0:0:
203,310,66688,102,0,L|189:195,1,90,2|0,1:3|0:0,0:0:0:0:
279,303,66864,2,0,L|265:188,1,90,2|0,0:3|0:0,0:0:0:0:
359,311,67041,6,0,L|346:397,1,56.25,2|0,0:3|0:0,0:0:0:0:
434,319,67217,2,0,L|425:374,1,56.25,2|0,0:3|0:0,0:0:0:0:
511,356,67394,102,0,L|245:379,1,236.250002253056,8|0,0:1|0:0,0:0:0:0:
201,357,67746,5,2,0:0:0:0:
188,362,67835,1,2,0:0:0:0:
176,368,67923,102,0,L|97:353,1,67.5000025749208,2|0,0:0|0:0,0:0:0:0:
323,199,68099,6,0,L|309:335,1,90,2|0,0:3|0:0,0:0:0:0:
236,280,68276,2,0,L|245:190,1,90,2|0,0:3|0:0,0:0:0:0:
88,122,68452,102,0,L|96:177,1,56.25,2|0,1:3|0:0,0:0:0:0:
171,164,68629,2,0,L|162:108,1,56.25,2|0,0:3|0:0,0:0:0:0:
337,0,68805,5,8,0:1:0:0:
244,111,68982,1,2,0:0:0:0:
244,111,69070,1,2,0:0:0:0:
244,111,69158,1,2,0:0:0:0:
115,42,69335,1,2,0:1:0:0:
417,0,69511,102,0,B|452:19|442:58|442:58|411:79|377:59,1,135,4|0,1:0|0:0,0:0:0:0:
383,157,69864,6,0,B|407:207|358:247|358:247|298:228|299:174,1,202.500007724762,2|0,0:0|0:0,0:0:0:0:
222,241,70217,102,0,B|199:306|117:301|117:301|63:244|109:173,1,270,8|0,0:1|0:0,0:0:0:0:
267,67,70570,6,0,L|295:63,1,22.5,2|0,0:1|0:0,0:0:0:0:
299,176,70746,102,0,B|298:228|358:247|358:247|407:207|383:157,1,202.500007724762,2|0,0:0|0:0,0:0:0:0:
267,67,71099,6,0,L|295:63,1,22.5,2|0,0:1|0:0,0:0:0:0:
485,288,71276,102,0,L|493:236,1,33.7500012874604,6|0,1:3|0:0,0:0:0:0:
417,243,71452,2,0,L|411:276,1,33.7500012874604,2|0,0:3|0:0,0:0:0:0:
434,349,71629,6,0,B|414:313|375:323|375:323|354:354|374:388,1,135,8|0,0:1|0:0,0:0:0:0:
485,288,71982,102,0,L|493:236,1,33.7500012874604,2|0,0:3|0:0,0:0:0:0:
417,243,72158,2,0,L|411:276,1,33.7500012874604,2|0,0:3|0:0,0:0:0:0:
434,349,72335,6,0,B|414:313|375:323|375:323|354:354|374:388,1,135,6|0,1:2|0:0,0:0:0:0:
289,302,72688,102,0,B|330:252|285:206|285:206|227:210|216:263,1,202.500007724762,2|0,0:0|0:0,0:0:0:0:
248,111,73041,6,0,B|325:138|359:55|359:55|312:-19|246:10,1,270,8|0,0:1|0:0,0:0:0:0:
355,165,73394,102,0,L|357:142,1,22.5,2|0,0:1|0:0,0:0:0:0:
216,260,73570,6,0,B|227:210|285:206|285:206|330:252|289:302,1,202.500007724762,2|0,0:0|0:0,0:0:0:0:
372,384,73923,102,0,B|354:354|375:323|375:323|414:313|434:349,1,135,4|0,0:1|1:0,0:0:0:0:
355,165,74276,6,0,L|357:142,1,22.5,2|0,0:1|0:0,0:0:0:0:
452,163,74452,101,10,0:1:0:0:
256,192,74629,1,2,0:0:0:0:
60,221,74805,2,0,L|53:183,1,22.5,2|0,0:0|0:0,0:0:0:0:
157,219,74982,6,0,L|154:241,1,22.5,2|0,0:1|0:0,0:0:0:0:
165,219,75070,2,0,L|162:241,1,22.5
233,262,75158,102,0,B|252:226|291:236|291:236|312:267|294:297,1,135,6|0,1:2|0:0,0:0:0:0:
401,292,75511,6,0,B|360:242|405:196|405:196|463:200|474:253,1,202.500007724762,2|0,0:0|0:0,0:0:0:0:
512,118,75864,102,0,B|435:145|401:62|401:62|448:-12|514:17,1,270,8|0,0:1|0:0,0:0:0:0:
384,98,76217,6,0,L|382:121,1,22.5,2|0,0:1|0:0,0:0:0:0:
473,250,76394,102,0,B|463:200|405:196|405:196|360:242|401:292,1,202.500007724762,2|0,0:0|0:0,0:0:0:0:
384,98,76746,6,0,L|382:121,1,22.5,2|0,0:1|0:0,0:0:0:0:
303,166,76923,102,0,L|548:143,1,202.500007724762,4|0,1:3|0:0,0:0:0:0:
434,193,77276,5,10,0:1:0:0:
407,366,77452,1,2,0:0:0:0:
303,166,77629,102,0,L|548:143,1,202.500007724762,6|0,0:3|0:0,0:0:0:0:
435,110,77982,6,0,L|448:0,1,90,2|0,1:3|0:0,0:0:0:0:
358,100,78158,2,0,L|371:-10,1,90,2|0,0:3|0:0,0:0:0:0:
303,166,78335,102,0,L|314:241,1,56.25,2|0,0:3|0:0,0:0:0:0:
225,176,78511,2,0,L|236:251,1,56.25,2|0,0:3|0:0,0:0:0:0:
149,156,78688,6,0,L|400:176,1,236.250002253056,8|0,0:1|0:0,0:0:0:0:
467,225,79041,101,2,0:0:0:0:
462,212,79130,1,2,0:0:0:0:
456,200,79218,6,0,L|471:121,1,67.5000025749208,2|0,0:0|0:0,0:0:0:0:
399,89,79394,102,0,L|273:103,1,90,2|0,0:3|0:0,0:0:0:0:
304,21,79570,2,0,L|393:11,1,90,2|0,0:3|0:0,0:0:0:0:
147,189,79746,6,0,L|213:197,1,56.25,2|0,1:3|0:0,0:0:0:0:
212,121,79923,2,0,L|156:114,1,56.25,2|0,0:3|0:0,0:0:0:0:
309,333,80099,101,8,0:1:0:0:
279,171,80276,1,2,0:0:0:0:
279,171,80364,1,2,0:0:0:0:
279,171,80452,1,2,0:0:0:0:
309,333,80629,1,2,0:1:0:0:
215,282,80805,38,0,B|181:352|262:439|372:377|361:284|304:256|304:256|183:205|195:-12|444:-28|505:152|404:242,1,835.200025488282,0|0,0:0|3:0,0:0:0:0:
174,357,84335,5,10,0:0:0:0:
104,326,84511,1,2,0:0:0:0:
48,381,84688,1,2,0:0:0:0:
308,270,85041,101,2,0:0:0:0:
365,214,85217,1,2,3:0:0:0:
329,142,85394,1,2,0:0:0:0:
330,134,85482,1,2,0:0:0:0:
331,126,85570,1,2,0:0:0:0:
399,84,85746,1,10,0:0:0:0:
380,6,85923,1,2,0:0:0:0:
300,0,86099,1,2,0:0:0:0:
269,74,86276,1,0,3:0:0:0:
483,186,86452,5,2,0:0:0:0:
475,262,86629,1,2,0:0:0:0:
467,338,86805,1,2,0:0:0:0:
468,345,86894,1,2,0:0:0:0:
469,352,86982,1,2,0:0:0:0:
399,376,87158,1,10,0:0:0:0:
333,332,87335,1,2,0:0:0:0:
259,361,87511,2,0,L|193:353,1,52.2000015930176,2|0,0:0|3:0,0:0:0:0:
0,72,87864,101,2,0:0:0:0:
71,38,88041,1,2,0:0:0:0:
125,96,88217,1,2,0:0:0:0:
123,103,88305,1,2,0:0:0:0:
121,110,88394,1,2,0:0:0:0:
82,179,88570,1,10,0:0:0:0:
90,256,88746,1,2,0:0:0:0:
98,333,88923,2,0,L|161:324,1,52.2000015930176,2|0,0:0|0:0,0:0:0:0:
420,369,89276,5,2,3:0:0:0:
478,315,89452,1,2,0:0:0:0:
444,244,89629,1,2,0:0:0:0:
280,213,89982,101,10,0:0:0:0:
209,147,90158,1,2,0:0:0:0:
250,60,90335,1,2,0:0:0:0:
468,4,90688,5,2,0:0:0:0:
469,14,91041,101,2,0:0:0:0:
459,15,91394,5,2,0:0:0:0:
458,5,91746,102,0,L|464:74,1,67.5
511,173,92099,54,0,P|490:152|465:144,1,45,6|0,3:2|0:0,0:0:0:0:
463,72,92276,2,0,P|428:71|404:84,1,53.9999983520508,2|0,0:0|0:0,0:0:0:0:
342,39,92452,2,0,P|314:66|306:91,1,62.9999980773926,2|0,0:0|0:0,0:0:0:0:
230,78,92629,2,0,P|229:116|245:149,1,72,2|0,0:0|0:0,0:0:0:0:
184,199,92805,2,0,P|211:226|260:242,1,80.9999975280763,10|0,0:0|0:0,0:0:0:0:
235,314,92982,2,0,P|273:314|330:284,1,90,2|0,0:0|0:0,0:0:0:0:
352,384,93158,2,0,P|210:265|120:287,1,270,6|0,0:0|0:0,0:0:0:0:
37,147,93511,6,0,P|9:127|-16:120,1,45,2|0,0:0|0:0,0:0:0:0:
103,96,93688,2,0,P|87:55|69:38,1,53.9999983520508,2|0,0:0|0:0,0:0:0:0:
189,108,93864,2,0,P|200:59|194:35,1,62.9999980773926,2|0,3:2|0:0,0:0:0:0:
264,169,94041,2,0,P|229:199|204:206,1,72,2|0,0:0|0:0,0:0:0:0:
355,198,94218,2,0,P|352:262|337:283,1,80.9999975280763,10|0,0:0|0:0,0:0:0:0:
442,154,94394,2,0,P|485:206|488:231,1,90,2|0,0:0|0:0,0:0:0:0:
507,51,94570,2,0,P|467:121|379:103,1,180,6|2,0:0|0:0,0:0:0:0:
328,14,94835,1,2,0:0:0:0:
312,12,94923,102,0,P|319:33|320:55,1,45,6|0,3:2|0:0,0:0:0:0:
204,0,95099,2,0,P|223:18|238:40,1,53.9999983520508,2|0,0:0|0:0,0:0:0:0:
92,30,95276,2,0,P|122:37|151:50,1,62.9999980773926,2|0,0:0|0:0,0:0:0:0:
22,127,95452,2,0,P|56:115|91:111,1,72,2|0,3:2|0:0,0:0:0:0:
27,244,95629,2,0,P|51:211|83:187,1,80.9999975280763,10|0,0:0|0:0,0:0:0:0:
91,355,95805,2,0,P|95:310|111:268,1,90,2|0,0:0|0:0,0:0:0:0:
235,384,95982,2,0,P|206:349|183:295,1,99.0000030212403,2|0,0:0|0:0,0:0:0:0:
362,345,96158,1,2,0:0:0:0:
362,345,96246,1,2,0:0:0:0:
362,345,96335,6,0,P|319:329|249:271,1,107.999996704102,6|0,3:2|0:0,0:0:0:0:
235,384,96511,2,0,P|206:349|183:295,1,99.0000030212403,2|0,0:3|0:0,0:0:0:0:
91,355,96688,2,0,P|95:310|111:268,1,90,2|0,3:3|0:0,0:0:0:0:
27,244,96864,2,0,P|51:211|83:187,1,80.9999975280763,2|0,0:3|0:0,0:0:0:0:
22,127,97041,2,0,P|56:115|91:111,1,72,8|0,0:0|0:0,0:0:0:0:
92,30,97217,2,0,P|122:37|151:50,1,62.9999980773926,2|0,0:3|0:0,0:0:0:0:
225,11,97394,101,2,0:1:0:0:
178,222,97570,1,2,0:1:0:0:
361,384,97746,6,0,P|337:362|329:337,1,45,6|0,3:2|0:0,0:0:0:0:
255,335,97923,2,0,P|268:305|295:285,1,53.9999983520508,2|0,0:0|0:0,0:0:0:0:
273,216,98099,2,0,P|305:219|341:245,1,62.9999980773926,2|0,0:0|0:0,0:0:0:0:
404,268,98276,2,0,P|417:238|454:207,1,72,2|0,0:0|0:0,0:0:0:0:
496,151,98452,2,0,P|462:122|448:79,1,80.9999975280763,10|0,0:0|0:0,0:0:0:0:
401,27,98629,2,0,P|354:52|310:52,1,90,2|0,0:0|0:0,0:0:0:0:
258,0,98805,2,0,P|314:89|326:257,1,253.799996127319,6|0,0:0|0:0,0:0:0:0:
353,158,99158,102,0,P|363:127|383:106,1,45,6|0,0:0|0:0,0:0:0:0:
271,176,99335,2,0,P|245:145|237:116,1,53.9999983520508,2|0,0:0|0:0,0:0:0:0:
255,257,99511,2,0,P|205:263|176:257,1,62.9999980773926,2|0,3:2|0:0,0:0:0:0:
314,313,99688,2,0,P|293:361|273:382,1,72,2|0,0:0|0:0,0:0:0:0:
390,291,99864,2,0,P|427:343|435:370,1,80.9999975280763,10|0,0:0|0:0,0:0:0:0:
418,208,100041,2,0,P|481:200|514:209,1,90,2|0,0:0|0:0,0:0:0:0:
353,158,100217,2,0,P|375:244|307:316,1,188.999994232178,6|2,0:0|0:0,0:0:0:0:
252,241,100482,1,2,0:0:0:0:
244,253,100570,6,0,P|214:263|193:280,1,45,6|0,3:2|0:0,0:0:0:0:
161,352,100746,2,0,P|142:326|112:300,1,53.9999983520508,2|0,0:0|0:0,0:0:0:0:
26,319,100923,2,0,P|44:293|61:248,1,62.9999980773926,2|0,0:0|0:0,0:0:0:0:
1,169,101099,2,0,P|38:181|85:184,1,72,2|0,3:0|0:0,0:0:0:0:
152,100,101276,2,0,P|151:139|167:192,1,80.9999975280763,10|0,0:0|0:0,0:0:0:0:
252,241,101452,2,0,P|302:215|335:177,1,90,2|0,0:0|0:0,0:0:0:0:
333,87,101629,2,0,P|284:51|230:42,1,99.0000030212403,2|0,0:0|0:0,0:0:0:0:
161,179,101805,1,2,0:0:0:0:
161,179,101894,1,2,0:0:0:0:
161,179,101982,102,0,P|151:140|152:100,1,80.9999975280763,2|0,0:3|0:0,0:0:0:0:
70,184,102158,2,0,P|34:180|1:169,1,72,2|0,0:3|0:0,0:0:0:0:
57,264,102335,2,0,P|44:293|26:319,1,62.9999980773926,2|0,3:3|0:0,0:0:0:0:
126,310,102511,2,0,P|145:330|161:352,1,53.9999983520508,2|0,0:3|0:0,0:0:0:0:
208,274,102688,6,2,L|215:234,2,39.3750003755093,10|2|2,0:0|0:0|0:0,0:0:0:0:
284,288,102864,2,2,L|291:248,2,39.3750003755093,2|2|2,3:0|0:0|0:0,0:0:0:0:
360,198,103041,102,2,L|364:219,2,16.8750006437302,2|2|2,3:0|0:0|0:0,0:0:0:0:
434,181,103217,2,2,L|438:202,2,16.8750006437302,2|2|2,3:0|0:0|0:0,0:0:0:0:
377,120,103394,5,6,3:1:0:0:
364,122,103482,1,2,0:0:0:0:
351,124,103570,1,2,0:0:0:0:
235,181,103746,102,0,L|289:172,1,53.9999983520508,6|0,0:0|0:0,0:0:0:0:
276,96,103923,2,0,L|223:106,1,53.9999983520508,2|0,0:0|0:0,0:0:0:0:
187,247,104099,2,0,L|259:259,1,72,10|0,0:0|0:0,0:0:0:0:
328,28,104276,2,0,L|257:17,1,72,2|0,0:0|0:0,0:0:0:0:
332,236,104452,2,0,L|418:263,1,90,2|0,0:0|0:0,0:0:0:0:
181,36,104629,2,0,L|96:10,1,90,2|0,0:0|0:0,0:0:0:0:
329,347,104805,5,2,0:1:0:0:
342,345,104893,1,2,0:0:0:0:
355,343,104981,1,2,0:0:0:0:
205,295,105158,102,0,L|123:306,1,53.9999983520508,6|0,3:2|0:0,0:0:0:0:
259,224,105335,2,0,L|288:284,1,53.9999983520508,2|0,0:0|0:0,0:0:0:0:
184,384,105511,2,0,L|293:354,1,72,10|0,0:0|0:0,0:0:0:0:
190,148,105688,2,0,L|176:231,1,72,2|0,0:0|0:0,0:0:0:0:
83,348,105864,2,0,L|63:221,1,90,2|0,0:0|0:0,0:0:0:0:
372,254,106041,2,0,L|351:360,1,90,2|0,0:0|0:0,0:0:0:0:
334,154,106217,5,2,3:1:0:0:
332,141,106305,1,2,0:0:0:0:
330,128,106393,1,2,0:0:0:0:
408,98,106570,102,0,L|417:156,1,53.9999983520508,6|0,0:0|0:0,0:0:0:0:
290,46,106746,2,0,L|344:37,1,53.9999983520508,2|0,3:0|0:0,0:0:0:0:
255,185,106923,2,0,L|242:103,1,72,10|0,0:0|0:0,0:0:0:0:
380,228,107099,2,0,L|308:240,1,72,2|0,0:0|0:0,0:0:0:0:
491,149,107276,2,0,L|476:61,1,90,2|0,0:0|0:0,0:0:0:0:
161,121,107452,1,2,0:0:0:0:
161,121,107541,1,2,0:0:0:0:
161,121,107629,6,0,L|178:219,1,99.0000030212403,6|0,3:2|0:0,0:0:0:0:
491,149,107805,2,0,L|476:61,1,90,2|0,0:3|0:0,0:0:0:0:
380,228,107982,2,0,L|308:240,1,72,2|0,3:3|0:0,0:0:0:0:
255,185,108158,2,0,L|242:103,1,72,2|0,0:3|0:0,0:0:0:0:
290,46,108335,2,0,L|344:37,1,53.9999983520508,10|0,0:0|0:0,0:0:0:0:
408,98,108511,2,0,L|417:156,1,53.9999983520508,2|0,0:3|0:0,0:0:0:0:
331,137,108688,101,2,0:1:0:0:
291,350,108864,1,2,0:1:0:0:
133,220,109041,5,2,3:1:0:0:
131,207,109129,1,2,0:0:0:0:
129,194,109217,1,2,0:0:0:0:
95,301,109394,102,0,L|149:293,1,53.9999983520508,6|0,0:0|0:0,0:0:0:0:
102,109,109570,2,0,L|156:117,1,53.9999983520508,2|0,0:0|0:0,0:0:0:0:
280,251,109746,2,0,L|204:240,1,72,10|0,0:0|0:0,0:0:0:0:
287,152,109923,2,0,L|189:170,1,72,2|0,0:0|0:0,0:0:0:0:
170,42,110099,2,0,L|266:62,1,90,2|0,0:0|0:0,0:0:0:0:
154,370,110276,2,0,L|250:350,1,90,2|0,0:0|0:0,0:0:0:0:
386,165,110452,5,2,0:1:0:0:
384,152,110540,1,2,0:0:0:0:
382,139,110628,1,2,0:0:0:0:
422,67,110805,102,0,L|346:57,1,53.9999983520508,6|0,3:2|0:0,0:0:0:0:
347,233,110982,2,0,L|423:243,1,53.9999983520508,2|0,0:0|0:0,0:0:0:0:
484,118,111158,2,0,L|512:52,1,72,10|0,0:0|0:0,0:0:0:0:
289,27,111335,2,0,L|302:132,1,72,2|0,0:0|0:0,0:0:0:0:
490,290,111511,2,0,L|470:200,1,90,2|0,0:0|0:0,0:0:0:0:
238,247,111688,2,0,L|291:170,1,90,2|0,0:0|0:0,0:0:0:0:
417,306,111864,5,2,3:1:0:0:
415,319,111952,1,2,0:0:0:0:
413,332,112040,1,2,0:0:0:0:
325,379,112217,102,0,L|335:305,1,53.9999983520508,6|0,0:0|0:0,0:0:0:0:
437,225,112394,2,0,L|363:235,1,53.9999983520508,2|0,3:0|0:0,0:0:0:0:
249,379,112570,2,0,L|260:297,1,72,10|0,0:0|0:0,0:0:0:0:
437,149,112747,2,0,L|355:160,1,72,2|0,0:0|0:0,0:0:0:0:
173,374,112923,2,0,L|186:279,1,90,2|0,0:0|0:0,0:0:0:0:
432,73,113099,1,2,0:0:0:0:
432,73,113188,1,2,0:0:0:0:
432,73,113276,6,0,L|337:86,1,90,6|0,3:2|0:0,0:0:0:0:
333,12,113452,2,0,L|422:0,1,90,2|0,0:3|0:0,0:0:0:0:
95,158,113629,102,0,L|190:171,1,90,6|0,3:2|0:0,0:0:0:0:
194,97,113805,2,0,L|104:84,1,90,2|0,0:3|0:0,0:0:0:0:
408,300,113982,5,8,0:0:0:0:
148,344,114158,1,8,0:0:0:0:
104,84,114335,1,8,0:0:0:0:
364,40,114511,1,8,0:0:0:0:
256,192,114688,37,6,0:0:0:0:
206,120,115217,38,0,P|208:88|201:118,1,90,2|0,0:0|0:0,0:0:0:0:
128,154,115746,2,0,B|176:217|170:323|170:323|192:221|267:172,1,360,6|0,0:0|0:0,0:0:0:0:
383,265,117511,69,8,0:0:0:0:
329,319,117864,1,8,0:0:0:0:
256,339,118217,1,8,0:0:0:0:
182,319,118571,1,8,0:0:0:0:
128,265,118923,1,8,0:0:0:0:
108,191,119276,1,8,0:0:0:0:
128,118,119629,1,8,0:0:0:0:
182,64,119982,1,8,0:0:0:0:
205,168,120335,38,0,P|185:139|281:76,1,180,2|0,0:0|0:0,0:0:0:0:
98,153,121394,2,0,B|376:87|376:87|341:119|337:158,1,360,6|0,0:0|0:0,0:0:0:0:
128,118,123158,69,8,0:0:0:0:
182,64,123511,1,8,0:0:0:0:
256,44,123864,1,8,0:0:0:0:
329,64,124218,1,8,0:0:0:0:
383,118,124570,1,8,0:0:0:0:
403,192,124923,1,8,0:0:0:0:
383,265,125276,1,8,0:0:0:0:
329,319,125629,1,8,0:0:0:0:
30,384,125982,21,2,0:0:0:0:
0,312,126158,1,2,0:0:0:0:
62,264,126335,2,0,L|155:285,1,90,2|0,3:0|3:0,0:0:0:0:
374,270,126688,85,2,3:0:0:0:
404,198,126864,1,2,0:0:0:0:
342,150,127041,2,0,L|249:171,1,90,2|0,3:0|3:0,0:0:0:0:
32,120,127394,21,2,3:0:0:0:
62,48,127570,1,8,3:0:0:0:
0,0,127747,1,2,3:0:0:0:
45,273,127923,85,0,3:0:0:0:
40,285,128011,1,0,3:3:0:0:
35,297,128100,21,0,3:0:0:0:
128,278,128276,1,2,0:0:0:0:
0,189,128453,85,0,3:0:0:0:
183,221,128629,1,2,0:0:0:0:
366,253,128805,22,0,P|385:317|392:356,1,90,2|0,3:0|0:0,0:0:0:0:
512,238,129158,85,2,3:0:0:0:
485,164,129335,1,2,0:0:0:0:
435,225,129511,1,2,3:0:0:0:
254,317,129688,21,2,3:3:0:0:
266,312,129776,1,2,3:3:0:0:
278,307,129864,85,2,3:0:0:0:
251,228,130041,1,0,0:0:0:0:
153,270,130217,21,2,3:0:0:0:
175,146,130394,1,2,0:0:0:0:
153,271,130570,1,2,3:0:0:0:
269,100,130746,85,0,3:0:0:0:
264,112,130835,1,0,3:0:0:0:
259,124,130923,21,0,3:0:0:0:
97,199,131100,1,2,0:0:0:0:
0,23,131276,1,0,3:0:0:0:
104,81,131453,1,0,3:0:0:0:
65,290,131629,86,0,P|141:273|181:265,1,90,2|0,3:0|0:0,0:0:0:0:
286,354,131982,1,0,3:0:0:0:
288,340,132070,1,0,3:0:0:0:
290,326,132158,2,0,L|224:314,1,45,0|0,3:0|3:0,3:0:0:0:
176,348,132335,21,0,3:0:0:0:
240,173,132511,1,2,0:0:0:0:
177,47,132688,2,0,P|190:90|218:254,1,202.500007724762,2|0,3:0|0:0,0:0:0:0:
240,173,133041,86,0,P|253:121|268:86,1,67.5000025749208,2|0,3:0|0:0,0:0:0:0:
320,158,133217,2,0,P|372:154|410:159,1,67.5000025749208,2|0,0:0|0:0,0:0:0:0:
379,230,133394,22,0,P|412:271|431:304,1,67.5000025749208,2|0,3:0|0:0,0:0:0:0:
341,299,133570,2,0,P|312:343|286:372,1,67.5000025749208,2|0,3:0|0:0,0:0:0:0:
302,236,133747,86,0,P|197:217|93:204,1,202.500007724762,2|0,3:0|0:0,0:0:0:0:
175,177,134100,22,0,L|170:141,1,22.5,2|0,3:0|0:0,0:0:0:0:
140,3,134276,86,2,L|153:1,4,11.25
140,3,135864,22,2,L|153:1,4,11.25
157,97,136217,85,0,3:0:0:0:
172,192,136394,21,0,3:0:0:0:
181,190,136482,1,0,3:0:0:0:
187,287,136658,85,0,3:0:0:0:
196,286,136747,1,0,3:0:0:0:
203,383,136923,22,0,L|140:2,1,384.750003669262,14|0,0:0|0:0,0:0:0:0:
104,76,137276,54,0,P|45:68|52:126,1,135,4|0,1:0|0:0,0:0:0:0:
174,125,137629,102,0,P|255:109|225:186,1,202.500007724762,2|0,0:0|0:0,0:0:0:0:
116,214,137982,6,0,P|26:158|50:262,1,270,8|0,0:1|0:0,0:0:0:0:
186,265,138335,102,0,L|184:287,1,22.5,2|0,0:1|0:0,0:0:0:0:
225,186,138511,6,0,P|255:109|174:125,1,202.500007724762,2|0,0:0|0:0,0:0:0:0:
52,126,138864,102,0,P|45:67|103:75,1,135,0|0,0:0|1:0,0:0:0:0:
186,265,139217,6,0,L|184:287,1,22.5,2|0,0:1|0:0,0:0:0:0:
223,384,139394,102,0,P|204:287|260:206,1,202.500007724762,8|0,0:1|0:0,0:0:0:0:
329,171,139746,6,0,P|341:202|333:235,1,67.5000025749208,4|0,0:1|0:0,0:0:0:0:
226,111,140099,102,0,P|221:52|280:60,1,135,0|0,1:0|0:0,0:0:0:0:
357,73,140452,6,0,P|405:35|378:120,1,202.500007724762
425,202,140805,102,0,P|507:246|397:269,1,270,8|0,0:1|0:0,0:0:0:0:
328,218,141158,6,0,L|369:213,1,22.5,2|0,0:1|0:0,0:0:0:0:
408,126,141335,102,0,P|434:48|356:72,1,202.500007724762
280,60,141688,6,0,P|221:51|225:110,1,135,0|0,0:0|1:0,0:0:0:0:
328,218,142041,102,0,L|369:213,1,22.5,2|0,0:1|0:0,0:0:0:0:
427,218,142217,5,10,0:1:0:0:
256,192,142394,1,2,0:0:0:0:
85,166,142570,1,2,0:0:0:0:
184,166,142746,102,0,L|143:171,1,22.5,2|0,0:1|0:0,0:0:0:0:
19,201,142923,6,0,P|45:265|83:207,1,135,0|0,1:0|0:0,0:0:0:0:
195,92,143276,102,0,P|177:77|156:69,1,45,2|0,0:3|0:0,0:0:0:0:
217,92,143364,2,0,P|208:71|194:53,1,45,2|0,0:3|0:0,0:0:0:0:
236,102,143452,2,0,P|240:79|237:57,1,45,2|0,0:3|0:0,0:0:0:0:
247,122,143541,2,0,P|262:104|270:83,1,45,2|0,0:3|0:0,0:0:0:0:
294,184,143629,6,0,P|275:280|360:204,1,270,8|0,0:1|0:0,0:0:0:0:
219,222,143982,102,0,L|179:219,1,22.5,2|0,0:1|0:0,0:0:0:0:
183,384,144158,6,0,P|198:305|140:379,1,202.500007724762,2|0,0:0|0:0,0:0:0:0:
85,240,144511,102,0,P|28:259|19:201,1,135,2|0,0:0|1:0,0:0:0:0:
219,222,144864,6,0,L|179:219,1,22.5,2|0,0:1|0:0,0:0:0:0:
201,134,145041,102,0,P|252:234|230:341,1,202.500007724762,8|0,0:1|0:0,0:0:0:0:
296,263,145394,5,2,0:0:0:0:
309,261,145482,1,2,0:0:0:0:
322,259,145570,1,2,0:0:0:0:
335,257,145658,1,2,0:0:0:0:
348,255,145746,102,0,P|369:215|344:164,1,90,2|0,1:3|0:0,0:0:0:0:
418,134,145923,2,0,P|386:101|330:109,1,90,2|0,0:3|0:0,0:0:0:0:
328,26,146099,6,0,P|287:46|277:101,1,56.25,2|0,0:3|0:0,0:0:0:0:
208,47,146276,2,0,P|214:91|264:118,1,56.25,2|0,0:3|0:0,0:0:0:0:
276,177,146452,102,0,P|346:129|494:127,1,236.250002253056,8|0,0:1|0:0,0:0:0:0:
418,134,146805,5,2,0:0:0:0:
424,147,146893,1,2,0:0:0:0:
427,159,146982,2,0,P|428:196|402:229,1,67.5000025749208,2|0,0:0|0:0,0:0:0:0:
276,177,147158,102,0,P|281:230|315:279,1,90,2|0,0:3|0:0,0:0:0:0:
235,301,147335,2,0,P|276:334|334:345,1,90,2|0,0:3|0:0,0:0:0:0:
98,369,147511,6,0,P|124:323|176:293,1,90,2|0,1:3|0:0,0:0:0:0:
112,239,147688,2,0,P|163:225|221:240,1,90,2|0,0:3|0:0,0:0:0:0:
194,373,147864,101,8,0:1:0:0:
45,297,148041,1,2,0:0:0:0:
45,297,148129,1,2,0:0:0:0:
45,297,148217,1,2,0:0:0:0:
128,150,148394,1,2,0:1:0:0:
6,79,148570,6,0,B|0:62|0:62|42:42|42:42|70:81|70:81|53:95,1,135,4|0,1:0|0:0,0:0:0:0:
128,150,148923,102,0,B|116:174|116:174|178:211|178:211|227:154|227:154|203:131,1,202.500007724762,2|0,0:0|0:0,0:0:0:0:
294,103,149276,6,0,B|278:63|278:63|366:23|366:23|419:101|419:101|392:123,1,270,8|0,0:1|0:0,0:0:0:0:
200,56,149629,102,0,L|161:53,1,22.5,2|0,0:1|0:0,0:0:0:0:
206,134,149805,6,0,B|226:153|226:153|177:210|177:210|115:173|115:173|127:149,1,202.500007724762,2|0,0:0|0:0,0:0:0:0:
200,56,150158,102,0,L|161:53,1,22.5,2|0,0:1|0:0,0:0:0:0:
300,252,150335,6,0,L|288:308,1,33.7500012874604,2|0,1:3|0:0,0:0:0:0:
227,235,150511,2,0,L|216:284,1,33.7500012874604,2|0,0:3|0:0,0:0:0:0:
270,382,150688,102,0,B|287:382|287:382|292:335|292:335|245:322|245:322|238:342,1,135,8|0,0:1|0:0,0:0:0:0:
300,252,151041,6,0,L|292:292,1,33.7500012874604,2|0,0:3|0:0,0:0:0:0:
227,235,151217,2,0,L|218:279,1,33.7500012874604,2|0,0:3|0:0,0:0:0:0:
270,382,151394,102,0,B|287:382|287:382|292:335|292:335|245:322|245:322|238:342,1,135,0|0,1:0|0:0,0:0:0:0:
367,299,151746,6,0,B|392:289|392:289|373:218|373:218|298:225|298:225|300:257,1,202.500007724762,2|0,0:0|0:0,0:0:0:0:
442,173,152099,102,0,B|479:156|479:156|417:79|417:79|327:114|327:114|354:156,1,270,8|0,0:1|0:0,0:0:0:0:
204,255,152452,6,0,L|181:251,1,22.5,2|0,0:1|0:0,0:0:0:0:
299,251,152629,102,0,B|297:223|297:223|373:217|373:217|391:287|391:287|366:297,1,202.500007724762,2|0,0:0|0:0,0:0:0:0:
238,342,152982,6,0,B|245:322|245:322|292:335|292:335|287:382|287:382|270:382,1,135,4|0,0:1|1:0,0:0:0:0:
204,255,153335,102,0,L|181:251,1,22.5,2|0,0:1|0:0,0:0:0:0:
105,221,153511,5,10,0:1:0:0:
256,192,153688,1,2,0:0:0:0:
407,163,153864,1,2,0:0:0:0:
308,129,154041,102,0,L|330:132,1,22.5,2|0,0:1|0:0,0:0:0:0:
252,69,154217,6,0,B|237:61|237:61|256:17|256:17|303:30|303:30|300:51,1,135,0|0,1:0|0:0,0:0:0:0:
264,197,154570,102,0,P|286:199|310:211,1,45,2|0,0:3|0:0,0:0:0:0:
270,219,154658,2,0,P|288:232|304:254,1,45,2|0,0:3|0:0,0:0:0:0:
262,239,154747,2,0,P|271:260|273:287,1,45,2|0,0:3|0:0,0:0:0:0:
247,255,154835,2,0,P|245:278|233:302,1,45,2|0,0:3|0:0,0:0:0:0:
189,212,154923,6,0,B|195:248|195:248|99:273|99:273|55:183|55:183|86:165,1,270,8|0,0:1|0:0,0:0:0:0:
330,132,155276,102,0,L|360:127,1,22.5,2|0,0:1|0:0,0:0:0:0:
161,30,155452,6,0,B|144:20|144:20|100:80|100:80|153:134|153:134|179:113,1,202.500007724762,2|0,0:0|0:0,0:0:0:0:
300,51,155805,102,0,B|303:30|303:30|256:17|256:17|237:61|237:61|252:69,1,135,0|0,0:0|1:0,0:0:0:0:
330,132,156158,6,0,L|360:127,1,22.5,2|0,0:1|0:0,0:0:0:0:
377,39,156335,102,0,P|315:111|309:234,1,202.500007724762,8|0,0:1|0:0,0:0:0:0:
293,289,156688,6,0,P|330:289|360:255,1,67.5000025749208,4|0,0:1|0:0,0:0:0:0:
236,139,157041,101,2,1:2:0:0:
220,235,157217,1,2,0:0:0:0:
204,331,157394,6,0,L|95:318,1,90,2|0,0:0|0:0,0:0:0:0:
236,139,157746,101,8,0:1:0:0:
220,235,157922,1,2,0:0:0:0:
204,331,158099,6,0,L|95:318,1,90,2|0,0:0|0:0,0:0:0:0:
0,82,158452,101,2,0:1:0:0:
362,142,158805,5,2,1:0:0:0:
346,16,158982,2,2,L|342:-11,4,16.8750006437302,2|2|2|2|10,0:0|0:0|0:0|0:0|0:1,0:0:0:0:
461,70,159335,101,2,0:3:0:0:
470,74,159423,1,2,0:3:0:0:
479,78,159511,5,2,0:3:0:0:
458,216,159688,1,2,0:3:0:0:
437,354,159864,102,2,L|433:323,3,22.5000008583069
68,318,160217,6,2,L|72:287,3,22.5000008583069
385,179,160570,102,2,L|381:148,3,22.5000008583069
148,137,160923,6,2,L|152:106,3,22.5000008583069
256,32,161276,101,8,0:0:0:0:
256,32,161629,1,8,0:0:0:0:
256,32,161982,1,8,0:0:0:0:
379,160,162335,5,2,0:3:0:0:
373,171,162423,1,2,0:3:0:0:
291,303,162599,1,2,0:3:0:0:
282,293,162688,86,0,B|234:297|216:349|216:349|223:294|183:268,1,180,6|0,1:1|0:0,0:0:0:0:
2,234,162952,1,0,0:0:0:0:
6,220,163041,2,0,B|76:225|102:302|102:302|92:221|151:183,1,270,2|0,0:0|0:0,0:0:0:0:
273,175,163394,22,2,B|167:160|167:160|163:154|163:154|1:134,2,225,10|2|2,0:1|0:1|0:1,0:1:0:0:
373,384,163923,85,2,0:0:0:0:
365,376,164011,1,2,0:0:0:0:
357,368,164099,22,0,L|343:258,1,90,2|0,0:0|0:0,0:0:0:0:
423,136,164276,2,0,L|412:225,1,90,2|0,0:0|0:0,0:0:0:0:
151,284,164452,86,0,L|192:279,1,33.7500012874604,2|0,1:3|0:0,0:0:0:0:
190,355,164629,2,0,L|156:359,1,33.7500012874604,2|0,0:3|0:0,0:0:0:0:
275,332,164805,22,0,L|55:312,1,202.500007724762,8|0,0:1|0:0,0:0:0:0:
151,284,165158,86,0,L|192:279,1,33.7500012874604,2|0,0:3|0:0,0:0:0:0:
190,355,165335,2,0,L|156:359,1,33.7500012874604,2|0,0:3|0:0,0:0:0:0:
34,156,165511,22,0,B|11:113|56:78|56:78|111:86|112:139,1,180,2|0,1:0|0:0,0:0:0:0:
210,166,165776,1,0,0:0:0:0:
197,172,165864,86,0,B|162:236|230:289|230:289|312:277|314:197,1,270,2|0,0:0|0:0,0:0:0:0:
292,98,166217,22,2,B|277:204|277:204|271:208|271:208|251:370,2,225,10|2|2,0:1|0:1|0:1,0:1:0:0:
139,384,166746,85,2,0:0:0:0:
147,376,166834,1,2,0:0:0:0:
155,368,166923,22,0,L|169:258,1,90,2|0,0:0|0:0,0:0:0:0:
107,125,167099,2,0,L|118:214,1,90,2|0,0:0|0:0,0:0:0:0:
54,262,167276,86,0,L|304:232,1,180,0|0,1:0|0:0,0:0:0:0:
391,320,167541,1,0,0:0:0:0:
369,334,167629,22,0,L|399:146,1,180,8|0,0:1|0:0,0:0:0:0:
0,0,167982,2,0,L|28:177,1,180,2|0,0:0|0:0,0:0:0:0:
154,384,168335,86,0,L|512:346,1,360,2|0,1:0|0:0,0:0:0:0:
184,259,169041,21,8,0:1:0:0:
0,384,169394,85,2,0:3:0:0:
86,339,169570,1,2,0:3:0:0:
84,330,169658,1,2,0:3:0:0:
82,321,169746,21,2,0:3:0:0:
0,121,169923,1,0,0:3:0:0:
184,259,170099,1,0,1:0:0:0:
184,259,170452,5,2,0:0:0:0:
261,247,170570,21,2,0:0:0:0:
338,235,170688,85,2,0:0:0:0:
415,223,170805,22,0,B|429:151|429:151|402:197,1,120,2|0,1:0|0:0,0:0:0:0:
512,0,171158,70,0,P|511:80|456:18,1,180,6|0,1:0|0:0,0:0:0:0:
330,59,171423,1,0,0:0:0:0:
309,65,171511,86,0,P|310:170|382:88,1,270,2|0,0:0|0:0,0:0:0:0:
319,190,171864,22,2,B|343:195|343:195|374:371|374:371|401:378,2,225,10|2|2,0:1|0:1|0:1,0:1:0:0:
138,313,172394,85,2,0:0:0:0:
146,305,172482,1,2,0:0:0:0:
154,297,172570,22,0,P|152:246|106:222,1,90,2|0,0:3|0:0,0:0:0:0:
196,83,172746,2,0,P|150:59|107:87,1,90,2|0,0:3|0:0,0:0:0:0:
252,207,172923,86,0,P|246:220|226:237,1,33.7500012874604,2|0,1:3|0:0,0:0:0:0:
158,159,173099,2,0,P|172:165|188:184,1,33.7500012874604,2|0,0:3|0:0,0:0:0:0:
123,224,173276,22,0,P|240:180|276:115,1,202.500007724762,8|0,0:1|0:0,0:0:0:0:
252,207,173629,86,0,P|246:220|226:237,1,33.7500012874604,2|0,0:3|0:0,0:0:0:0:
158,159,173805,2,0,P|172:165|188:184,1,33.7500012874604,2|0,0:3|0:0,0:0:0:0:
388,49,173982,22,0,B|401:23|401:23|344:-8|344:-8|304:40|304:40|321:56,1,180,2|0,1:0|0:0,0:0:0:0:
410,160,174246,1,0,0:0:0:0:
426,167,174335,86,0,B|449:191|449:191|389:265|389:265|304:216|304:216|324:178,1,270,2|0,0:0|0:0,0:0:0:0:
387,48,174688,22,2,B|382:70|382:70|206:101|206:101|201:125,2,225,10|2|2,0:1|0:1|0:1,0:1:0:0:
37,158,175217,85,2,0:0:0:0:
48,156,175305,1,2,0:0:0:0:
59,155,175394,22,0,P|88:196|81:247,1,90,2|0,0:3|0:0,0:0:0:0:
254,218,175570,2,0,P|232:263|185:284,1,90,2|0,0:3|0:0,0:0:0:0:
147,45,175746,86,0,P|189:138|157:228,1,180,0|2,1:0|0:0,0:0:0:0:
178,358,176012,1,2,0:0:0:0:
195,366,176099,22,0,P|283:374|365:338,1,180,10|0,0:1|0:0,0:0:0:0:
316,17,176452,2,0,P|228:9|147:46,1,180,2|0,0:0|0:0,0:0:0:0:
22,336,176805,86,0,P|-5:264|72:300,1,180,2|0,1:1|0:0,0:0:0:0:
175,269,177070,1,0,0:0:0:0:
193,256,177158,22,0,P|219:152|126:204,1,270,2|0,0:0|0:0,0:0:0:0:
127,342,177511,86,2,B|105:337|105:337|74:161|74:161|50:156,2,225,10|2|2,0:1|0:1|0:1,0:1:0:0:
322,384,178041,21,2,0:0:0:0:
311,380,178129,1,2,0:0:0:0:
301,375,178218,86,0,P|296:324|327:284,1,90,2|0,0:3|0:0,0:0:0:0:
171,262,178394,2,0,P|212:234|263:239,1,90,2|0,0:3|0:0,0:0:0:0:
465,343,178570,22,0,P|395:266|416:159,1,180,0|0,1:0|0:0,0:0:0:0:
469,79,178835,1,2,0:0:0:0:
458,65,178923,86,0,P|411:145|237:138,1,270,8|0,0:1|0:0,0:0:0:0:
328,39,179276,22,0,P|361:190|371:334,1,270,2|0,0:0|0:0,0:0:0:0:
351,354,179629,86,0,P|341:174|297:0,1,360,0|0,1:0|0:0,0:0:0:0:
59,171,180335,21,8,0:1:0:0:
436,266,180688,85,2,0:3:0:0:
339,209,180864,1,2,0:3:0:0:
342,218,180952,1,2,0:3:0:0:
345,227,181041,21,2,0:3:0:0:
203,315,181217,1,2,0:3:0:0:
59,171,181394,1,0,1:0:0:0:
59,171,181746,1,8,0:1:0:0:
59,171,182099,86,0,L|100:167,1,22.5
93,168,182276,2,0,L|134:164,1,22.5
127,165,182452,101,0,1:0:0:0:
191,127,182629,1,0,0:0:0:0:
169,56,182805,1,2,0:0:0:0:
227,0,182982,1,0,1:0:0:0:
299,33,183158,1,2,3:0:0:0:
512,284,183511,85,2,0:0:0:0:
511,290,183599,1,2,0:0:0:0:
510,296,183688,1,0,1:0:0:0:
509,302,183776,1,2,0:0:0:0:
508,308,183864,21,0,0:0:0:0:
434,304,184041,1,0,1:0:0:0:
360,300,184217,1,0,1:0:0:0:
286,296,184394,2,2,L|284:280,4,11.25,2|2|2|2|2,0:0|0:0|0:0|0:0|3:1,0:0:0:0:
0,210,184923,85,2,0:0:0:0:
65,166,185099,1,2,0:0:0:0:
42,92,185276,21,2,1:1:0:0:
93,36,185452,1,2,0:0:0:0:
169,51,185629,1,2,0:0:0:0:
192,125,185805,1,2,1:0:0:0:
268,138,185982,1,2,3:0:0:0:
512,227,186335,85,2,0:0:0:0:
506,226,186423,1,2,0:0:0:0:
500,225,186512,1,2,0:0:0:0:
494,224,186600,1,2,0:0:0:0:
488,223,186687,21,0,0:0:0:0:
492,149,186864,1,0,1:0:0:0:
496,75,187040,1,0,3:0:0:0:
500,1,187217,2,2,L|516:-1,4,11.25
429,30,187570,86,0,L|379:38,1,45,2|0,0:0|0:0,0:0:0:0:
