osu file format v14

[General]
AudioFilename: audio.mp3
AudioLeadIn: 0
PreviewTime: 450
Countdown: 0
SampleSet: Soft
StackLeniency: 0.7
Mode: 0
LetterboxInBreaks: 0
WidescreenStoryboard: 1

[Editor]
DistanceSpacing: 1
BeatDivisor: 2
GridSize: 8
TimelineZoom: 0.6000001

[Metadata]
Title:DERO
TitleUnicode:DERO
Artist:DUSTCELL
ArtistUnicode:DUSTCELL
Creator:Heilia
Version:GARDEN'S NORMAL
Source:
Tags:pdc pending cup 2020 pdc2020 mapping contest vtuber EMA EM A Misumi Kamitsubaki Studio 神椿スタジオ rei sirose 白瀬玲 kudou chitose 久遠千歳 kudo youtube virtual youtuber 梅まろ japanese hip hop hip-hop shizuku- shikibe_mayu shikibe mayu kazato asa kazato_asa flake garden
BeatmapID:3492466
BeatmapSetID:1318423

[Difficulty]
HPDrainRate:3
CircleSize:3
OverallDifficulty:4
ApproachRate:5.5
SliderMultiplier:1
SliderTickRate:1

[Events]
//Background and Video events
0,0,"bg.jpg",0,0
//Break Periods
2,35829,45798
2,81005,90974
2,114888,124857
//Storyboard Layer 0 (Background)
//Storyboard Layer 1 (Fail)
//Storyboard Layer 2 (Pass)
//Storyboard Layer 3 (Foreground)
//Storyboard Layer 4 (Overlay)
//Storyboard Sound Samples

[TimingPoints]
1747,352.941176470588,4,2,1,60,1,0
13041,-100,4,2,1,70,0,0
35982,-100,4,2,1,50,0,0
46923,-100,4,2,1,60,0,0
57864,-100,4,2,1,80,0,0
80805,-100,4,2,1,50,0,0
82041,-100,4,2,1,50,0,0
92099,-100,4,2,1,80,0,0
115217,-100,4,2,0,50,0,0
125982,-100,4,2,1,60,0,0
136923,-100,4,2,1,80,0,0
162688,-90.9090909090909,4,2,1,85,0,1
182452,-100,4,2,1,50,0,0

[Colours]
Combo1 : 153,153,204
Combo2 : 254,224,214
Combo3 : 158,159,163
Combo4 : 148,217,254
Combo5 : 232,170,102
Combo6 : 234,66,129
Combo7 : 112,245,196
Combo8 : 236,236,236

[HitObjects]
390,363,1746,102,0,L|408:245,1,100,6|0,0:0|3:0,0:0:0:0:
476,193,2452,2,0,P|471:104|408:92,1,150,8|0,0:0|0:0,0:0:0:0:
374,98,3158,1,0,0:0:0:0:
297,33,3511,1,0,3:0:0:0:
217,93,3864,2,0,L|201:191,1,100,8|0,0:0|0:0,0:0:0:0:
184,290,4570,53,6,0:0:0:0:
85,275,4923,1,0,3:0:0:0:
99,176,5276,2,0,L|117:58,1,100,8|0,0:0|3:0,0:0:0:0:
126,31,5805,1,0,0:0:0:0:
126,31,5982,1,0,0:0:0:0:
212,80,6335,1,0,3:0:0:0:
296,133,6688,2,0,L|412:112,1,100,8|0,0:0|0:0,0:0:0:0:
480,166,7394,54,0,P|493:212|464:251,1,100,6|0,0:1|3:0,0:0:0:0:
479,350,8099,2,0,P|441:288|369:284,1,150,8|0,0:0|0:0,0:0:0:0:
321,299,8805,1,0,0:0:0:0:
248,368,9158,1,0,3:0:0:0:
161,317,9511,2,0,L|179:199,1,100,8|0,0:0|0:0,0:0:0:0:
177,218,13041,54,0,L|289:202,1,100,6|0,0:0|3:0,0:0:0:0:
330,206,13570,1,0,0:0:0:0:
330,206,13746,2,0,P|409:204|426:114,1,150,8|2,0:0|0:0,0:0:0:0:
422,98,14452,2,0,L|447:-13,2,100,2|2|10,0:0|3:0|0:0,0:0:0:0:
324,74,15511,2,0,L|225:88,1,100,2|4,0:0|0:0,0:0:0:0:
178,92,16041,37,0,0:0:0:0:
178,92,16217,2,0,P|136:49|88:58,2,100,0|8|0,3:0|0:0|3:0,0:0:0:0:
129,179,17276,2,0,L|107:276,1,100,2|2,0:0|3:0,0:0:0:0:
86,374,17982,1,10,0:0:0:0:
185,363,18335,2,0,L|283:348,1,100,2|4,0:0|0:0,0:0:0:0:
336,341,18864,37,0,0:0:0:0:
336,341,19041,2,0,P|301:318|304:255,2,100,0|8|0,3:0|0:0|0:0,0:0:0:0:
407,270,20099,2,0,L|428:172,1,100,2|2,0:0|3:0,0:0:0:0:
506,109,20805,1,10,0:0:0:0:
442,31,21158,2,0,L|343:45,1,100,2|4,0:0|0:0,0:0:0:0:
297,58,21688,69,0,0:0:0:0:
297,58,21864,2,0,P|339:104|315:164,1,100,0|8,3:0|0:0,0:0:0:0:
265,209,22570,2,0,L|203:217,1,50,0|2,3:0|0:0,0:0:0:0:
165,220,22923,2,0,L|144:330,1,100,2|2,0:0|3:0,0:0:0:0:
46,327,23629,2,0,L|58:265,1,50,10|0,0:0|3:0,0:0:0:0:
65,228,23982,1,2,0:0:0:0:
13,142,24335,38,0,P|19:65|73:50,1,100,4|0,0:0|3:0,0:0:0:0:
78,33,24864,1,0,0:0:0:0:
78,33,25041,1,8,0:0:0:0:
171,68,25394,2,0,L|277:44,2,100,0|2|2,0:0|0:0|3:0,0:0:0:0:
155,166,26452,2,2,L|138:267,1,100,10|2,0:0|0:0,0:0:0:0:
215,328,27158,70,0,P|282:324|310:269,1,100,6|2,0:0|3:0,0:0:0:0:
325,260,27688,1,0,0:0:0:0:
325,260,27864,1,10,0:0:0:0:
361,166,28217,2,0,L|477:186,2,100,0|2|2,3:0|0:0|3:0,0:0:0:0:
261,151,29276,2,0,L|245:43,1,100,10|2,0:0|0:0,0:0:0:0:
150,22,29982,37,0,3:0:0:0:
75,88,30335,1,0,3:0:0:0:
160,139,30688,2,0,L|174:237,1,100,10|2,0:0|0:0,0:0:0:0:
154,285,31217,1,0,0:0:0:0:
154,285,31394,2,0,P|159:331|233:348,1,100,2|2,0:0|3:0,0:0:0:0:
296,322,32099,2,0,L|405:341,1,100,10|0,0:0|0:0,0:0:0:0:
443,319,32629,1,2,0:0:0:0:
443,319,32805,2,0,P|472:272|440:217,1,100,6|0,0:0|3:0,0:0:0:0:
391,158,33511,70,0,L|413:44,1,100,10|2,0:0|3:0,0:0:0:0:
322,10,34217,1,2,0:0:0:0:
245,74,34570,2,0,L|108:91,2,100,2|2|2,0:0|0:0|0:3,0:0:0:0:
322,10,35629,37,2,0:3:0:0:
409,59,46923,86,0,L|385:186,1,100,6|2,3:0|3:0,0:0:0:0:
445,241,47629,1,2,3:0:0:0:
362,297,47982,2,0,L|133:312,1,200,2|2,3:0|3:0,0:0:0:0:
62,319,49041,2,0,L|80:220,1,100,2|2,3:0|3:0,0:0:0:0:
33,132,49746,21,0,3:0:0:0:
100,58,50099,2,0,P|138:29|210:47,1,100,2|2,3:0|3:0,0:0:0:0:
231,57,50629,2,0,L|219:123,2,50,2|2|0,3:0|3:0|3:0,0:0:0:0:
329,77,51335,2,0,L|320:126,1,50,2|2,0:0|3:0,0:0:0:0:
357,159,51688,2,0,P|392:191|386:239,1,100,2|2,3:0|0:0,0:0:0:0:
356,279,52217,1,2,3:0:0:0:
275,338,52570,86,0,L|149:329,1,100,2|0,3:0|3:0,0:0:0:0:
84,287,53276,2,0,L|68:162,1,100,2|2,3:0|3:0,0:0:0:0:
139,114,53982,2,0,L|238:121,2,100,2|2|2,3:0|3:0|3:0,0:0:0:0:
57,55,55041,1,2,3:0:0:0:
455,329,58217,86,0,L|321:352,2,100,4|2|8,1:0|0:0|0:1,0:0:0:0:
497,240,59276,1,2,0:1:0:0:
497,240,59452,1,2,0:0:0:0:
427,176,59805,1,2,0:0:0:0:
427,176,59982,2,0,L|433:126,1,50,0|2,1:0|0:1,0:0:0:0:
440,76,60335,2,0,L|341:92,1,100,8|4,0:1|0:1,0:0:0:0:
252,138,61041,102,0,B|225:97|225:97|253:36,2,100,6|2|8,1:2|0:0|0:1,0:0:0:0:
339,197,62099,1,2,0:1:0:0:
339,197,62276,1,2,0:0:0:0:
254,246,62629,1,0,0:1:0:0:
254,246,62805,2,0,L|241:315,1,50,0|2,1:0|0:1,0:0:0:0:
236,344,63158,2,0,L|116:352,1,100,10|2,0:1|0:0,0:0:0:0:
46,305,63864,5,6,1:1:0:0:
104,223,64217,2,0,L|113:173,1,50,2|2,3:0|3:0,0:0:0:0:
79,137,64570,2,0,B|65:88|65:88|117:27,1,100,8|2,0:1|0:1,0:0:0:0:
130,13,65099,1,2,0:0:0:0:
210,81,65452,1,2,0:0:0:0:
210,81,65629,2,0,L|274:70,1,50,0|2,1:0|0:1,0:0:0:0:
305,92,65982,2,0,L|434:71,1,100,14|2,0:1|0:0,0:0:0:0:
488,130,66688,102,0,B|502:179|502:179|470:216,1,100,2|2,1:3|0:3,0:0:0:0:
435,252,67217,1,2,0:3:0:0:
435,252,67394,2,0,L|336:268,1,100,8|2,0:1|0:0,0:0:0:0:
237,286,68099,2,0,L|224:355,2,50,2|2|2,0:3|0:3|1:3,0:0:0:0:
204,255,68629,1,2,0:3:0:0:
204,255,68805,2,0,P|180:186|249:131,1,150,8|2,0:1|0:1,0:0:0:0:
275,121,69511,6,0,L|389:105,2,100,4|2|8,1:0|0:0|0:1,0:0:0:0:
215,47,70570,1,2,0:1:0:0:
215,47,70746,1,2,0:0:0:0:
135,105,71099,1,2,0:1:0:0:
135,105,71276,2,0,L|69:115,1,50,6|2,1:3|0:3,0:0:0:0:
36,123,71629,2,0,B|6:165|6:165|37:229,1,100,8|2,0:1|0:3,0:0:0:0:
124,232,72335,102,0,L|149:355,1,100,6|2,1:2|0:0,0:0:0:0:
234,373,73041,1,8,0:1:0:0:
302,300,73394,1,2,0:1:0:0:
302,300,73570,1,2,0:0:0:0:
226,243,73923,1,4,0:1:0:0:
226,243,74099,2,0,L|213:177,1,50,0|2,1:0|0:1,0:0:0:0:
175,165,74452,2,0,B|153:122|153:122|183:61,1,100,10|2,0:1|0:0,0:0:0:0:
205,36,74982,1,2,0:1:0:0:
205,36,75158,5,6,1:2:0:0:
304,44,75511,2,0,L|310:113,1,50,2|0,0:0|0:0,0:0:0:0:
311,143,75864,2,0,L|430:159,1,100,8|2,0:1|0:1,0:0:0:0:
460,162,76394,1,2,0:0:0:0:
485,263,76746,1,2,0:1:0:0:
485,263,76923,2,0,L|408:253,1,50,4|0,1:3|0:0,0:0:0:0:
385,256,77276,2,0,B|385:307|385:307|340:340,1,100,10|6,0:1|0:3,0:0:0:0:
251,371,77982,102,0,L|141:355,1,100,2|2,1:3|0:3,0:0:0:0:
112,335,78511,1,2,0:3:0:0:
112,335,78688,2,0,B|100:284|100:284|131:243,1,100,8|2,0:1|0:0,0:0:0:0:
199,175,79394,1,2,0:3:0:0:
111,126,79746,2,0,L|97:56,1,50,2|2,1:3|0:3,0:0:0:0:
100,31,80099,1,8,0:1:0:0:
100,31,80276,2,0,L|198:45,1,100,2|2,0:0|0:1,0:0:0:0:
248,53,80805,37,0,0:0:0:0:
248,53,92099,54,0,L|351:71,1,100,6|2,3:2|0:0,0:0:0:0:
436,26,92805,1,10,0:0:0:0:
510,92,93158,1,6,0:0:0:0:
461,179,93511,2,0,L|481:309,1,100,2|2,0:0|3:2,0:0:0:0:
398,340,94217,1,10,0:0:0:0:
323,273,94570,1,6,0:0:0:0:
362,180,94923,2,0,L|344:81,1,100,6|2,3:2|0:0,0:0:0:0:
264,20,95629,1,10,0:0:0:0:
165,38,95982,1,2,0:0:0:0:
116,125,96335,2,0,L|133:223,1,100,6|2,3:2|3:3,0:0:0:0:
66,297,97041,2,0,L|-3:290,2,50,8|2|2,0:0|0:3|0:1,0:0:0:0:
149,352,97746,6,0,L|271:365,1,100,6|2,3:2|0:0,0:0:0:0:
348,367,98452,2,0,L|340:317,1,50,10|2,0:0|0:0,0:0:0:0:
331,268,98805,1,6,0:0:0:0:
412,210,99158,2,0,L|397:107,1,100,6|2,0:0|3:2,0:0:0:0:
336,31,99864,2,0,L|259:26,1,50,10|2,0:0|0:0,0:0:0:0:
236,23,100217,1,6,0:0:0:0:
174,101,100570,2,0,L|74:90,1,100,6|2,3:2|0:0,0:0:0:0:
6,164,101276,2,0,L|15:230,1,50,10|2,0:0|0:0,0:0:0:0:
58,235,101629,2,0,L|67:301,1,50,2|2,0:0|0:0,0:0:0:0:
108,309,101982,2,0,L|207:319,1,100,2|2,0:3|3:3,0:0:0:0:
263,235,102688,2,2,L|255:159,1,50,10|2,0:0|3:0,0:0:0:0:
251,135,103041,1,2,3:0:0:0:
239,35,103394,102,0,L|338:45,1,100,6|6,3:1|0:0,0:0:0:0:
383,77,103923,1,2,0:0:0:0:
383,77,104099,2,0,L|449:82,2,50,10|2|2,0:0|0:0|0:0,0:0:0:0:
352,172,104805,2,0,L|365:297,1,100,2|6,0:1|3:2,0:0:0:0:
345,321,105335,1,2,0:0:0:0:
345,321,105511,2,0,L|352:382,2,50,10|2|2,0:0|0:0|0:0,0:0:0:0:
257,272,106217,2,0,L|158:262,1,100,2|6,3:1|0:0,0:0:0:0:
113,258,106746,1,2,3:0:0:0:
113,258,106923,2,0,L|105:196,1,50,10|2,0:0|0:0,0:0:0:0:
101,158,107276,1,2,0:0:0:0:
99,57,107629,2,0,L|0:46,2,100,6|2|10,3:2|3:3|0:0,0:0:0:0:
152,67,108511,1,2,0:3:0:0:
152,67,108688,1,2,0:1:0:0:
235,122,109041,6,0,L|310:129,1,50,2|2,3:1|0:0,0:0:0:0:
334,135,109394,2,0,L|347:239,1,100,6|10,0:0|0:0,0:0:0:0:
356,288,109923,1,2,0:0:0:0:
356,288,110099,1,2,0:0:0:0:
442,337,110452,2,0,L|502:324,1,50,2|2,0:1|0:0,0:0:0:0:
507,279,110805,2,0,L|494:179,1,100,6|10,3:2|0:0,0:0:0:0:
492,133,111335,1,2,0:0:0:0:
492,133,111511,1,2,0:0:0:0:
417,66,111864,2,0,L|347:62,1,50,2|2,3:1|0:0,0:0:0:0:
335,102,112217,2,0,L|204:91,1,100,6|10,0:0|0:0,0:0:0:0:
185,92,112746,1,2,0:0:0:0:
185,92,112923,2,0,L|174:24,1,50,2|2,0:0|0:0,0:0:0:0:
136,12,113276,1,6,3:2:0:0:
73,90,113629,2,0,L|80:139,1,50,6|2,3:2|0:3,0:0:0:0:
121,167,113982,2,0,L|128:217,1,50,8|8,0:0|0:0,0:0:0:0:
93,253,114335,2,0,L|100:302,1,50,8|8,0:0|0:0,0:0:0:0:
138,334,114688,37,6,0:0:0:0:
39,348,125982,22,0,L|138:334,1,100,2|2,0:0|3:0,0:0:0:0:
230,373,126688,1,2,3:0:0:0:
307,310,127041,2,0,L|336:98,1,200,2|2,3:0|3:0,0:0:0:0:
348,12,128099,2,0,L|249:26,1,100,0|0,3:0|3:0,0:0:0:0:
150,42,128805,85,2,3:0:0:0:
93,124,129158,2,0,P|79:171|127:226,1,100,2|2,3:0|3:0,0:0:0:0:
153,235,129688,1,2,3:3:0:0:
153,235,129864,1,2,3:0:0:0:
235,177,130217,2,0,L|333:162,1,100,2|2,3:0|3:0,0:0:0:0:
372,130,130746,1,0,3:0:0:0:
372,130,130923,2,0,L|443:119,2,50,0|2|0,3:0|0:0|3:0,0:0:0:0:
408,223,131629,22,0,P|420:271|385:314,1,100,2|0,3:0|3:0,0:0:0:0:
358,346,132158,1,0,3:0:0:0:
358,346,132335,2,0,L|259:360,1,100,0|2,3:0|3:0,0:0:0:0:
178,300,133041,2,0,L|79:314,2,100,2|2|2,3:0|3:0|3:0,0:0:0:0:
217,268,133923,1,0,0:0:0:0:
217,268,134099,1,2,3:0:0:0:
295,116,137276,54,0,L|312:7,2,100,4|2|8,1:0|0:0|0:1,0:0:0:0:
363,196,138335,1,2,0:1:0:0:
363,196,138511,1,2,0:0:0:0:
432,276,138864,1,0,0:0:0:0:
432,276,139041,2,0,L|424:326,1,50,0|2,1:0|0:1,0:0:0:0:
381,352,139394,2,0,B|334:367|334:367|283:338,1,100,8|4,0:1|0:1,0:0:0:0:
205,287,140099,102,0,B|102:307,2,100,0|0|8,1:0|0:0|0:1,0:0:0:0:
272,213,141158,1,2,0:1:0:0:
272,213,141335,1,0,0:0:0:0:
333,135,141688,1,0,0:0:0:0:
333,135,141864,2,0,L|342:66,1,50,0|2,1:0|0:1,0:0:0:0:
348,36,142217,2,0,B|249:55,1,100,10|2,0:1|0:0,0:0:0:0:
157,15,142923,5,0,1:0:0:0:
88,87,143276,2,0,L|79:137,1,50,2|2,0:3|0:3,0:0:0:0:
45,173,143629,2,0,B|11:210|11:210|40:269,1,100,8|2,0:1|0:1,0:0:0:0:
60,296,144158,1,2,0:0:0:0:
147,244,144511,1,2,0:0:0:0:
147,244,144688,2,0,L|211:233,1,50,0|2,1:0|0:1,0:0:0:0:
231,200,145041,2,0,L|360:179,1,100,8|2,0:1|0:0,0:0:0:0:
408,122,145746,102,0,B|422:73|422:73|390:36,1,100,2|2,1:3|0:3,0:0:0:0:
349,17,146276,1,2,0:3:0:0:
349,17,146452,2,0,L|250:33,1,100,8|2,0:1|0:0,0:0:0:0:
186,110,147158,2,0,L|136:119,2,50,2|2|2,0:3|0:3|1:3,0:0:0:0:
233,139,147688,1,2,0:3:0:0:
233,139,147864,2,0,P|257:208|188:263,1,150,8|2,0:1|0:1,0:0:0:0:
161,272,148570,6,0,L|176:370,2,100,4|2|8,1:0|0:0|0:1,0:0:0:0:
93,206,149629,1,2,0:1:0:0:
93,206,149805,1,2,0:0:0:0:
19,147,150158,1,2,0:1:0:0:
19,147,150335,2,0,L|9:81,1,50,2|2,1:3|0:3,0:0:0:0:
37,54,150688,2,0,B|79:27|79:27|131:40,1,100,8|2,0:1|0:3,0:0:0:0:
211,94,151394,102,0,L|227:207,1,100,0|2,1:0|0:0,0:0:0:0:
290,268,152099,1,8,0:1:0:0:
363,199,152452,1,2,0:1:0:0:
363,199,152629,1,2,0:0:0:0:
441,269,152982,1,4,0:1:0:0:
441,269,153158,2,0,L|451:336,1,50,0|2,1:0|0:1,0:0:0:0:
453,368,153511,2,0,B|422:345|422:345|344:355,1,100,10|2,0:1|0:0,0:0:0:0:
315,365,154041,1,2,0:1:0:0:
315,365,154217,5,0,1:0:0:0:
219,335,154570,2,0,L|150:343,1,50,2|2,0:3|0:3,0:0:0:0:
119,348,154923,2,0,L|137:237,1,100,8|2,0:1|0:1,0:0:0:0:
145,200,155452,1,2,0:0:0:0:
81,130,155805,1,0,0:0:0:0:
81,130,155982,2,0,L|89:74,1,50,0|2,1:0|0:1,0:0:0:0:
98,31,156335,2,0,B|129:54|129:54|207:44,1,100,8|4,0:1|0:1,0:0:0:0:
271,104,157041,102,0,L|345:94,1,50,2|2,1:2|0:0,0:0:0:0:
370,91,157394,2,0,L|355:204,1,100,2|8,0:0|0:1,0:0:0:0:
440,245,158099,2,0,L|425:358,2,100,2|2|2,0:0|0:1|1:0,0:0:0:0:
485,222,158982,2,2,L|498:122,1,100,2|2,0:0|0:3,0:0:0:0:
464,85,159511,1,2,0:3:0:0:
384,24,159864,6,2,B|321:18|321:18|294:59,3,100
256,138,161276,2,0,B|235:168|235:168|227:161|227:161|165:156,3,100,8|8|8|2,0:0|0:0|0:0|0:3,0:0:0:0:
64,151,162688,86,0,L|81:284,1,110.000003356934,6|2,1:1|0:0,0:0:0:0:
163,329,163394,1,10,0:1:0:0:
240,251,163746,1,2,0:1:0:0:
240,251,163923,1,2,0:0:0:0:
339,310,164276,1,2,0:0:0:0:
339,310,164452,2,0,L|415:297,1,55.0000016784668,2|2,1:3|0:3,0:0:0:0:
431,261,164805,2,0,L|507:248,2,55.0000016784668,8|0|2,0:1|0:0|0:3,0:0:0:0:
339,198,165511,21,2,1:0:0:0:
243,142,165864,2,0,L|104:166,1,110.000003356934,2|10,0:0|0:1,0:0:0:0:
51,97,166570,1,2,0:1:0:0:
51,97,166746,1,2,0:0:0:0:
140,32,167099,1,2,0:0:0:0:
140,32,167276,2,0,L|219:20,1,55.0000016784668,0|0,1:0|0:0,0:0:0:0:
242,50,167629,2,0,L|350:31,1,110.000003356934,8|2,0:1|0:0,0:0:0:0:
460,42,168335,86,0,P|367:80|342:193,2,220.000006713867,2|8|2,1:0|0:1|0:3,0:0:0:0:
504,142,170099,1,0,1:0:0:0:
441,232,170452,2,0,L|429:349,1,110.000003356934,2|2,0:0|1:0,0:0:0:0:
323,370,171158,21,6,1:0:0:0:
238,299,171511,1,2,0:0:0:0:
328,236,171864,1,10,0:1:0:0:
252,164,172217,1,2,0:1:0:0:
252,164,172394,1,2,0:0:0:0:
348,109,172746,1,2,0:3:0:0:
348,109,172923,2,0,L|356:39,1,55.0000016784668,2|2,1:3|0:3,0:0:0:0:
365,0,173276,2,0,L|256:16,1,110.000003356934,8|2,0:1|0:3,0:0:0:0:
156,63,173982,85,2,1:0:0:0:
235,138,174335,1,2,0:0:0:0:
138,191,174688,1,10,0:1:0:0:
224,267,175041,1,2,0:1:0:0:
224,267,175217,1,2,0:0:0:0:
127,315,175570,1,2,0:3:0:0:
127,315,175746,2,0,L|51:308,1,55.0000016784668,0|2,1:0|0:0,0:0:0:0:
17,302,176099,2,0,L|5:178,1,110.000003356934,10|2,0:1|0:0,0:0:0:0:
59,95,176805,21,2,1:1:0:0:
117,1,177158,1,2,0:0:0:0:
219,41,177511,1,10,0:1:0:0:
170,141,177864,1,2,0:1:0:0:
170,141,178041,1,2,0:0:0:0:
115,238,178394,1,2,0:3:0:0:
115,238,178570,2,0,L|121:303,1,55.0000016784668,0|0,1:0|0:0,0:0:0:0:
126,347,178923,2,0,L|262:361,1,110.000003356934,8|2,0:1|0:0,0:0:0:0:
345,360,179629,86,0,P|462:346|490:230,2,220.000006713867,0|8|2,1:0|0:1|0:3,0:0:0:0:
390,259,181394,1,0,1:0:0:0:
436,159,181746,2,0,L|408:41,1,110.000003356934,8|0,0:1|0:0,0:0:0:0:
319,10,182452,101,0,1:0:0:0:
256,192,182629,12,0,187923,0:0:0:0:
