osu file format v14

[General]
AudioFilename: audio.mp3
AudioLeadIn: 0
PreviewTime: 450
Countdown: 0
SampleSet: Soft
StackLeniency: 0.2
Mode: 0
LetterboxInBreaks: 0
WidescreenStoryboard: 1

[Editor]
Bookmarks: 1949,13244,35832,47832,58420,81008,92302,113655,114891,137479,149479,171361,182655
DistanceSpacing: 0.1
BeatDivisor: 8
GridSize: 32
TimelineZoom: 2.5

[Metadata]
Title:DERO
TitleUnicode:DERO
Artist:DUSTCELL
ArtistUnicode:DUSTCELL
Creator:Heilia
Version:FLAKE'S REBELLIOUS INSANE
Source:
Tags:pdc pending cup 2020 pdc2020 mapping contest vtuber EMA EM A Misumi Kamitsubaki Studio 神椿スタジオ rei sirose 白瀬玲 kudou chitose 久遠千歳 kudo youtube virtual youtuber 梅まろ japanese hip hop hip-hop shizuku- shikibe_mayu shikibe mayu kazato asa kazato_asa flake garden
BeatmapID:3340552
BeatmapSetID:1318423

[Difficulty]
HPDrainRate:5.5
CircleSize:4
OverallDifficulty:7.5
ApproachRate:8.5
SliderMultiplier:2
SliderTickRate:1

[Events]
//Background and Video events
0,0,"bg.jpg",0,0
//Break Periods
2,81005,91424
2,114888,125660
//Storyboard Layer 0 (Background)
//Storyboard Layer 1 (Fail)
//Storyboard Layer 2 (Pass)
//Storyboard Layer 3 (Foreground)
//Storyboard Layer 4 (Overlay)
//Storyboard Sound Samples

[TimingPoints]
1747,352.941176470588,4,2,1,60,1,0
3511,-133.333333333333,4,2,1,60,0,0
4923,-133.333333333333,4,2,1,60,0,0
10570,-200,4,2,1,60,0,0
11276,-222.222222222222,4,2,1,60,0,0
11982,-250,4,2,1,60,0,0
13041,-133.333333333333,4,2,1,70,0,0
35982,-222.222222222222,4,2,1,50,0,0
46923,-222.222222222222,4,2,1,60,0,0
57864,-222.222222222222,4,2,1,80,0,0
58217,-100,4,2,1,80,0,0
62629,-80,4,2,1,80,0,0
63864,-100,4,2,1,80,0,0
73923,-80,4,2,1,80,0,0
75158,-100,4,2,1,80,0,0
80805,-100,4,2,1,50,0,0
92099,-100,4,2,1,80,0,0
115217,-100,4,2,0,50,0,0
125982,-222.222222222222,4,2,1,60,0,0
136923,-222.222222222222,4,2,1,80,0,0
137276,-100,4,2,1,80,0,0
141688,-80,4,2,1,80,0,0
142923,-100,4,2,1,80,0,0
152982,-80,4,2,1,80,0,0
157394,-200,4,2,1,80,0,0
158100,-222.222222222222,4,2,1,80,0,0
158806,-250,4,2,1,80,0,0
162688,-100,4,2,1,85,0,0
167099,-80,4,2,1,85,0,0
169394,-100,4,2,1,85,0,0
175570,-80,4,2,1,85,0,0
176805,-100,4,2,1,85,0,0
182452,-100,4,2,1,50,0,0

[Colours]
Combo1 : 153,153,204
Combo2 : 254,224,214
Combo3 : 158,159,163
Combo4 : 148,217,254
Combo5 : 232,170,102
Combo6 : 234,66,129
Combo7 : 112,245,196
Combo8 : 236,236,236

[HitObjects]
84,119,1746,102,0,B|100:68|156:48|206:72|206:72|200:89|200:89|204:92|204:92|201:89|201:89|195:113,1,200,6|0,0:0|3:0,0:0:0:0:
214,242,2276,2,2,L|209:207,3,25,2|2|2|0,0:0|0:0|0:0|0:0,0:0:0:0:
135,207,2452,54,0,B|198:195|198:195|205:188|205:188|216:192|216:192|280:184,1,150,8|0,0:0|0:0,0:0:0:0:
291,173,2805,53,0,0:0:0:0:
368,181,2982,1,0,0:0:0:0:
445,192,3158,1,0,0:0:0:0:
452,182,3335,1,0,0:0:0:0:
461,172,3511,54,0,B|472:190|472:190|464:255,1,75.0000028610231,0|0,3:0|0:0,0:0:0:0:
331,321,3864,2,0,B|320:302|320:302|328:238,1,75.0000028610231,8|0,0:0|0:0,0:0:0:0:
461,172,4217,2,0,B|472:190|472:190|464:255,1,75.0000028610231,0|2,0:0|0:0,0:0:0:0:
256,64,4570,1,6,0:0:0:0:
256,64,4923,53,0,3:0:0:0:
256,64,5099,2,0,B|250:31|213:3|169:16|169:16|156:36|166:59,1,150.000005722046
201,128,5629,1,0,3:0:0:0:
201,128,5805,2,0,B|167:123|129:150|128:195|128:195|143:214|168:212,1,150.000005722046
244,200,6335,1,0,3:0:0:0:
244,200,6511,2,0,B|229:230|242:274|286:289|286:289|308:281|313:256,1,150.000005722046
393,159,7041,2,0,P|363:161|320:186,1,75.0000028610231,0|2,0:0|0:0,0:0:0:0:
176,340,7394,54,0,P|134:347|48:283,2,150.000005722046,6|0|8,0:1|3:0|0:0,0:0:0:0:
176,340,8452,1,0,0:0:0:0:
255,349,8629,1,0,0:0:0:0:
334,359,8805,2,0,B|329:323|329:323|331:319|331:319|324:273,1,75.0000028610231
291,159,9158,2,0,B|313:136|313:136|290:224,1,112.500004291535,0|0,3:0|0:0,0:0:0:0:
393,249,9511,54,0,B|330:244|330:244|327:241|327:241|266:250|266:250|257:258|257:258|165:245,1,225.000008583069,8|2,0:0|0:0,0:0:0:0:
75,272,10217,1,2,0:0:0:0:
75,272,10570,54,2,L|69:163,1,100
83,267,11276,2,2,L|78:177,1,89.9999972534181
90,241,11982,2,2,L|87:200,1,40
73,4,12335,53,2,0:0:0:0:
81,97,12511,2,2,L|79:76,2,20,2|2|0,0:0|0:0|3:0,0:0:0:0:
81,97,13041,54,0,B|149:37|254:76|245:172|217:177|199:155|213:129,1,225.000008583069,6|0,0:0|0:0,0:0:0:0:
253,28,13746,1,8,0:0:0:0:
305,82,13923,1,0,0:0:0:0:
312,87,14099,2,0,P|339:87|384:60,1,75.0000028610231,0|2,0:0|0:0,0:0:0:0:
430,234,14452,37,2,0:0:0:0:
393,168,14629,1,0,0:0:0:0:
444,113,14805,1,2,3:0:0:0:
512,145,14982,1,2,0:0:0:0:
503,219,15158,37,10,0:0:0:0:
393,168,15335,1,0,0:0:0:0:
310,256,15511,1,2,0:0:0:0:
368,362,15688,2,0,L|366:383,4,18.7500007152558,0|0|0|0|4,0:0|0:0|0:0|0:0|0:0,0:0:0:0:
368,349,16041,69,0,0:0:0:0:
290,362,16217,2,0,L|212:356,1,75.0000028610231,0|0,3:0|0:0,0:0:0:0:
62,234,16570,37,8,0:0:0:0:
108,171,16746,1,0,0:0:0:0:
180,196,16923,1,0,3:0:0:0:
178,272,17099,1,2,0:0:0:0:
106,295,17276,70,0,P|96:316|93:369,1,75.0000028610231,2|0,0:0|0:0,0:0:0:0:
108,171,17629,2,0,P|103:148|75:103,1,75.0000028610231,2|2,3:0|0:0,0:0:0:0:
62,234,17982,37,10,0:0:0:0:
178,272,18158,1,0,3:0:0:0:
249,173,18335,1,2,0:0:0:0:
365,211,18511,2,0,L|361:235,4,18.7500007152558,0|0|0|0|4,0:0|0:0|0:0|0:0|0:0,0:0:0:0:
466,0,18864,69,0,0:0:0:0:
511,60,19041,2,0,P|480:75|432:76,1,75.0000028610231,0|0,3:0|0:0,0:0:0:0:
350,138,19394,2,0,P|387:139|420:155,1,75.0000028610231,8|0,0:0|0:0,0:0:0:0:
467,214,19746,1,0,0:0:0:0:
361,229,19923,1,2,0:0:0:0:
247,241,20099,38,0,L|236:321,1,75.0000028610231,2|0,0:0|0:0,0:0:0:0:
265,143,20452,2,0,L|275:68,1,75.0000028610231,2|2,3:0|0:0,0:0:0:0:
278,62,20717,1,2,0:0:0:0:
279,56,20805,69,10,0:0:0:0:
211,20,20982,1,0,0:0:0:0:
156,72,21158,1,2,0:0:0:0:
14,68,21335,37,0,0:0:0:0:
83,43,21511,2,0,P|111:86|120:148,1,112.500004291535,4|0,0:0|0:0,0:0:0:0:
118,156,21864,69,0,3:0:0:0:
195,166,22041,1,0,0:0:0:0:
245,227,22217,2,0,P|264:196|270:153,1,75.0000028610231,8|0,0:0|0:0,0:0:0:0:
299,9,22570,2,0,P|304:47|325:80,1,75.0000028610231,0|2,3:0|0:0,0:0:0:0:
506,98,22923,38,0,L|425:111,1,75.0000028610231,2|0,0:0|3:0,0:0:0:0:
363,144,23276,1,2,3:0:0:0:
393,41,23452,1,2,0:0:0:0:
500,186,23629,69,10,0:0:0:0:
427,199,23805,1,0,3:0:0:0:
416,274,23982,2,0,L|335:287,1,75.0000028610231,2|0,0:0|0:0,0:0:0:0:
18,343,24335,38,0,B|122:406|200:310|175:268|142:273|146:303,1,225.000008583069,4|0,0:0|0:0,0:0:0:0:
35,241,25041,1,8,0:0:0:0:
35,241,25394,2,0,P|67:223|105:224,1,75.0000028610231
256,149,25746,70,0,B|266:159|266:159|270:204,2,50.0000019073487,2|0|0,0:0|0:0|0:0,0:0:0:0:
235,128,26099,2,2,B|225:138|225:138|180:142,2,50.0000019073487,2|2|2,3:0|0:0|0:0,0:0:0:0:
256,107,26452,2,2,B|246:97|246:97|242:52,2,50.0000019073487,10|2|2,0:0|0:0|0:0,0:0:0:0:
277,128,26805,2,0,B|287:118|287:118|332:114,2,50.0000019073487,2|0|2,0:0|0:0|0:0,0:0:0:0:
182,238,27158,37,6,0:0:0:0:
182,238,27511,2,0,B|196:243|196:243|204:282,1,50.0000019073487,2|2,3:0|0:0,0:0:0:0:
205,290,27746,1,2,0:0:0:0:
219,367,27864,70,2,L|157:359,2,50.0000019073487,10|2|2,0:0|0:0|0:0,0:0:0:0:
278,316,28217,2,0,L|377:328,1,100.000003814697,0|0,3:0|0:0,0:0:0:0:
432,379,28570,38,0,P|449:349|453:328,1,50.0000019073487,2|0,0:0|0:0,0:0:0:0:
398,252,28805,2,0,L|497:264,1,100.000003814697
505,271,29158,1,0,0:0:0:0:
510,276,29276,70,0,L|501:192,1,75.0000028610231,10|2,0:0|3:0,0:0:0:0:
480,35,29629,1,2,0:0:0:0:
492,126,29805,2,0,L|489:105,4,18.7500007152558,2|0|0|0|0,0:0|0:0|0:0|0:0|3:0,0:0:0:0:
236,100,30335,2,0,L|245:184,1,75.0000028610231,0|0,3:0|0:0,0:0:0:0:
216,252,30688,38,0,B|240:247|240:247|263:259,2,50.0000019073487,10|2|2,0:0|0:0|0:0,0:0:0:0:
141,276,31041,2,0,B|117:281|117:281|94:269,2,50.0000019073487,2|2|2,0:0|0:0|0:0,0:0:0:0:
196,327,31394,1,2,0:0:0:0:
442,304,31746,2,0,L|433:388,1,75.0000028610231,2|0,3:0|0:0,0:0:0:0:
403,235,32099,70,0,B|422:220|422:220|451:224,2,50.0000019073487,10|2|2,0:0|0:0|0:0,0:0:0:0:
328,232,32452,2,0,B|305:223|305:223|294:195,2,50.0000019073487,0|0|2,0:0|0:0|0:0,0:0:0:0:
361,298,32805,1,6,0:0:0:0:
102,344,33158,2,0,L|94:269,1,75.0000028610231,0|0,3:0|0:0,0:0:0:0:
68,197,33511,38,0,B|41:206|41:206|27:233,2,50.0000019073487,10|2|2,0:0|0:0|0:0,0:0:0:0:
119,136,33864,2,0,B|124:108|124:108|108:82,2,50.0000019073487,2|2|2,3:0|0:0|0:0,0:0:0:0:
147,210,34217,70,2,B|178:232|221:218|245:174|233:169|220:166|242:117|283:103|327:126,1,225.000008583069
305,201,34923,1,2,0:0:0:0:
504,184,35099,1,2,0:3:0:0:
499,226,35188,1,2,0:3:0:0:
497,240,35276,38,0,L|493:267,8,18.7500007152558,2|0|2|0|2|0|2|0|2,0:3|0:0|0:3|0:0|0:3|0:0|0:3|0:0|0:3,0:0:0:0:
29,238,35982,86,0,P|20:191|-6:149,1,89.9999972534181,2|0,0:0|0:0,0:0:0:0:
154,290,36688,2,0,P|117:321|94:364,1,89.9999972534181,6|0,0:0|0:0,0:0:0:0:
137,156,37394,2,0,P|182:171|231:170,2,89.9999972534181
137,156,38452,1,2,0:3:0:0:
137,156,38805,1,2,0:3:0:0:
137,156,39158,1,0,3:0:0:0:
137,156,39511,1,2,0:0:0:0:
137,156,39864,1,2,0:0:0:0:
137,156,40217,1,2,0:0:0:0:
137,156,40570,1,2,0:0:0:0:
137,156,40923,1,2,0:0:0:0:
137,156,41276,1,2,0:1:0:0:
433,99,41629,38,0,P|463:87|504:44,1,89.9999972534181,2|0,0:0|0:0,0:0:0:0:
413,201,42335,2,0,P|408:232|425:289,1,89.9999972534181,6|0,0:0|0:0,0:0:0:0:
334,132,43041,2,0,P|308:112|250:98,2,89.9999972534181
334,132,44099,1,2,0:0:0:0:
334,132,44452,1,2,0:0:0:0:
334,132,44805,1,2,3:0:0:0:
334,132,45158,1,2,0:0:0:0:
334,132,45511,1,2,0:0:0:0:
334,132,45864,1,2,0:0:0:0:
334,132,46217,1,2,3:0:0:0:
334,132,46570,1,2,3:0:0:0:
334,132,46923,1,6,3:0:0:0:
97,163,47276,102,0,P|65:182|40:234,1,89.9999972534181,2|2,3:0|3:0,0:0:0:0:
201,285,47982,2,0,P|200:247|168:200,1,89.9999972534181,2|2,3:0|3:0,0:0:0:0:
43,314,48688,2,0,P|75:332|132:327,2,89.9999972534181,2|2|2,3:0|3:0|3:0,0:0:0:0:
43,314,49746,85,0,3:0:0:0:
103,352,50099,1,2,3:0:0:0:
175,352,50452,1,2,3:0:0:0:
243,330,50805,1,2,3:0:0:0:
295,280,51158,1,2,3:0:0:0:
319,212,51511,1,2,3:0:0:0:
323,140,51864,1,2,3:0:0:0:
305,70,52217,1,2,3:0:0:0:
259,14,52570,21,2,3:0:0:0:
233,39,52746,1,0,0:0:0:0:
226,74,52923,2,0,P|201:73|177:62,1,44.999998626709,0|0,3:0|3:0,0:0:0:0:
109,90,53276,85,2,3:0:0:0:
124,122,53452,1,2,0:0:0:0:
155,139,53629,2,0,P|146:162|128:181,1,44.999998626709,2|0,3:0|0:0,0:0:0:0:
134,255,53982,21,2,3:0:0:0:
169,250,54158,1,2,0:0:0:0:
194,226,54335,2,0,P|213:241|226:264,1,44.999998626709,2|2,3:0|3:0,0:0:0:0:
297,281,54688,85,2,3:0:0:0:
303,246,54864,1,0,0:0:0:0:
288,215,55041,2,0,P|308:201|334:195,1,44.999998626709,2|2,3:0|0:0,0:0:0:0:
372,134,55393,21,2,0:0:0:0:
256,192,56805,12,14,57864,0:0:0:0:
256,192,58217,54,0,B|252:165|252:165|257:157|257:157|211:163|211:163|207:159|207:159|210:163|210:163|145:174|177:210|110:221,2,200,4|2|8,1:0|0:0|0:1,0:0:0:0:
211,252,59099,1,0,0:0:0:0:
322,370,59276,101,2,0:1:0:0:
185,322,59452,2,0,B|195:337|195:337|262:322|262:322|264:300,1,100,2|0,0:0|0:0,0:0:0:0:
331,197,59805,2,0,B|329:182|329:182|366:174|366:174|396:193|396:193|389:211,1,100,2|0,0:0|1:0,0:0:0:0:
397,333,60158,1,2,0:1:0:0:
458,290,60335,6,0,B|456:312|456:312|348:294|348:294|351:268,1,150,8|0,0:1|0:0,0:0:0:0:
426,122,60688,2,0,B|449:107|449:107|492:129|492:129|498:178|498:178|476:194,1,150,0|0,0:1|0:0,0:0:0:0:
391,203,61041,102,0,B|355:195|355:195|345:198|345:198|320:89|320:89|310:92|310:92|271:80,2,200,6|2|8,1:2|0:0|0:1,0:0:0:0:
251,158,61923,1,0,0:0:0:0:
426,122,62099,5,2,0:1:0:0:
430,14,62276,2,0,L|372:24,1,50,2|0,0:0|0:0,0:0:0:0:
370,24,62452,101,0,0:0:0:0:
160,43,62629,6,0,B|153:65|153:65|114:72|114:72|295:120|295:120|256:128|256:128|249:155,1,312.5,4|0,0:1|0:0,0:0:0:0:
250,157,63158,102,0,B|247:146|247:146|205:159|205:159|208:173,1,62.5,10|0,0:1|0:0,0:0:0:0:
182,245,63335,2,0,B|180:252|180:252|198:268|198:268|222:265|222:265|225:255,1,62.5,2|0,0:0|0:0,0:0:0:0:
301,239,63511,6,0,B|328:225|328:225|289:227,1,62.5,2|0,0:0|0:0,0:0:0:0:
132,183,63688,2,0,B|106:167|106:167|124:194,1,62.5,2|0,0:1|0:0,0:0:0:0:
159,359,63864,101,6,1:1:0:0:
158,351,64041,1,0,0:0:0:0:
156,341,64217,1,2,3:0:0:0:
348,318,64394,6,0,L|374:322,4,25,2|0|2|0|8,3:0|0:0|3:0|0:0|0:1,0:0:0:0:
273,351,64746,1,0,0:0:0:0:
301,239,64923,1,2,0:1:0:0:
310,242,65011,1,0,0:0:0:0:
319,245,65099,2,0,B|336:229|336:229|333:193,2,50,2|0|0,0:0|0:0|0:0,0:0:0:0:
236,46,65452,102,0,P|207:44|163:141,1,150,2|0,0:0|0:0,0:0:0:0:
170,148,65805,2,0,P|193:167|221:171,1,50,2|0,0:1|0:0,0:0:0:0:
398,67,65982,6,0,B|378:46|378:46|392:-3,1,75,14|0,0:1|0:0,0:0:0:0:
397,1,66158,2,0,B|422:39|422:39|410:65,1,75
390,150,66335,102,0,B|412:137|412:137|446:147,3,50,2|2|2|2,0:0|0:0|0:0|0:0,0:0:0:0:
266,273,66688,5,2,1:3:0:0:
390,150,66865,1,2,0:3:0:0:
217,174,67041,1,2,0:3:0:0:
371,256,67217,1,2,0:3:0:0:
295,99,67394,101,8,0:1:0:0:
217,174,67570,1,0,0:0:0:0:
121,122,67746,1,2,0:0:0:0:
124,116,67835,1,2,0:0:0:0:
128,111,67923,1,2,0:0:0:0:
131,105,68011,1,0,0:0:0:0:
134,100,68099,6,0,B|79:106|79:106|57:82|57:82|-8:91,1,150,2|0,0:3|0:0,0:0:0:0:
41,292,68452,2,0,B|40:302|40:302|68:307|68:307|72:297,1,50,2|0,1:3|0:0,0:0:0:0:
71,186,68629,2,0,L|67:214,3,25,2|0|0|0,0:3|0:0|0:0|0:0,0:0:0:0:
67,220,68805,101,8,0:1:0:0:
144,198,68982,2,0,P|186:193|236:284,1,150,2|0,0:0|0:0,0:0:0:0:
239,351,69335,2,0,P|267:348|291:332,1,50,2|0,0:1|0:0,0:0:0:0:
354,370,69511,6,0,P|334:322|344:266,1,100,4|0,1:0|0:0,0:0:0:0:
429,357,69864,2,0,P|434:307|414:262,1,100,2|0,0:0|0:0,0:0:0:0:
417,47,70217,102,0,P|368:27|278:131,1,200,8|2,0:1|0:1,0:0:0:0:
282,123,70658,1,0,0:0:0:0:
287,128,70746,2,0,L|166:119,1,100,2|0,0:0|0:0,0:0:0:0:
144,54,71099,1,2,0:1:0:0:
29,286,71276,5,6,1:3:0:0:
64,220,71452,2,0,P|117:223|160:260,1,100,2|8,0:3|0:1,0:0:0:0:
158,255,71805,1,0,0:0:0:0:
295,319,71982,101,2,0:3:0:0:
233,277,72158,2,0,P|221:305|221:330,1,50,2|0,0:3|0:0,0:0:0:0:
484,167,72335,6,0,P|480:117|459:72,1,100,6|0,1:2|0:0,0:0:0:0:
411,184,72688,2,0,P|390:138|386:89,1,100,2|0,0:0|0:0,0:0:0:0:
67,88,73041,102,0,P|119:100|208:49,1,150,8|0,0:1|0:0,0:0:0:0:
207,49,73394,1,2,0:1:0:0:
156,129,73570,2,0,L|172:185,1,50,2|0,0:0|0:0,0:0:0:0:
173,186,73746,1,0,0:0:0:0:
497,347,73923,6,0,P|416:365|315:233,1,250,4|2,0:1|0:1,0:0:0:0:
359,187,74452,2,0,P|382:216|388:244,1,62.5,10|0,0:1|0:0,0:0:0:0:
203,329,74629,2,0,P|180:300|174:272,1,62.5,2|0,0:0|0:0,0:0:0:0:
341,106,74805,101,2,0:0:0:0:
380,110,74894,1,0,0:0:0:0:
390,111,74982,2,0,L|425:116,3,31.25,2|0|0|0,0:1|0:0|0:0|0:0,0:0:0:0:
484,154,75158,6,0,B|466:134|466:134|473:59,1,100,6|0,1:2|0:0,0:0:0:0:
274,133,75511,2,0,B|295:117|295:117|302:42,1,100,2|0,0:0|0:0,0:0:0:0:
123,28,75864,102,0,B|127:42|127:42|154:43|154:43|66:63|66:63|52:89,1,150,8|0,0:1|0:0,0:0:0:0:
92,153,76217,1,2,0:1:0:0:
101,149,76305,1,0,0:0:0:0:
127,134,76394,2,0,B|142:171|142:171|146:172|146:172|159:169|159:169|161:165|161:165|157:124,1,100,2|0,0:0|0:0,0:0:0:0:
128,247,76746,1,2,0:1:0:0:
232,213,76923,6,0,L|18:200,1,200,4|10,1:3|0:1,0:0:0:0:
128,247,77452,1,2,0:0:0:0:
51,275,77629,102,0,L|200:283,1,150,6|0,0:3|0:0,0:0:0:0:
213,290,77982,5,2,1:3:0:0:
141,162,78159,1,2,0:3:0:0:
238,56,78335,1,2,0:3:0:0:
369,118,78512,1,2,0:3:0:0:
352,260,78688,102,0,L|364:366,1,100,8|0,0:1|0:0,0:0:0:0:
448,149,79041,2,0,L|436:43,1,100,2|2,0:0|0:0,0:0:0:0:
483,283,79394,5,2,0:3:0:0:
483,283,79746,1,2,1:3:0:0:
352,260,79923,1,2,0:3:0:0:
448,149,80099,102,0,L|443:111,7,25,8|0|0|0|2|0|2|0,0:1|0:0|0:0|0:0|0:0|0:0|0:0|0:0,0:0:0:0:
443,115,80452,2,0,L|436:49,2,66.6666666666667,2|0|0,0:0|0:0|0:0,0:0:0:0:
395,204,80805,37,0,0:0:0:0:
7,49,92099,53,6,3:2:0:0:
7,49,92188,1,0,0:0:0:0:
7,49,92276,2,0,L|0:103,1,50,2|0,0:0|0:0,0:0:0:0:
26,183,92452,2,0,P|78:150|134:150,1,100,2|2,0:0|0:0,0:0:0:0:
161,261,92805,6,0,L|154:207,1,50,10|0,0:0|0:0,0:0:0:0:
234,252,92982,2,0,L|227:198,1,50,2|0,0:0|0:0,0:0:0:0:
189,120,93158,2,0,P|257:163|331:163,1,150,6|0,0:0|0:0,0:0:0:0:
352,54,93511,101,2,0:0:0:0:
337,163,93688,1,2,0:0:0:0:
407,231,93864,1,2,3:2:0:0:
392,340,94041,1,2,0:0:0:0:
287,304,94217,6,0,P|312:288|342:284,1,50,10|0,0:0|0:0,0:0:0:0:
343,284,94394,1,2,0:0:0:0:
495,153,94570,2,0,P|444:143|401:116,1,100,6|2,0:0|0:0,0:0:0:0:
276,82,94923,101,6,3:2:0:0:
224,9,95100,1,2,0:0:0:0:
138,37,95276,1,2,0:0:0:0:
138,127,95453,1,2,3:2:0:0:
224,155,95629,5,10,0:0:0:0:
138,37,95805,1,2,0:0:0:0:
2,86,95982,1,2,0:0:0:0:
2,86,96335,102,0,L|11:142,1,50,6|0,3:2|0:0,0:0:0:0:
13,146,96511,1,2,0:3:0:0:
138,127,96688,2,0,L|147:183,1,50,2|0,3:3|0:0,0:0:0:0:
149,187,96864,1,2,0:3:0:0:
25,314,97041,5,8,0:0:0:0:
0,247,97217,2,0,P|62:220|212:303,1,250,2|0,0:3|0:0,0:0:0:0:
296,383,97746,102,0,P|317:365|327:341,1,50,6|0,3:2|0:0,0:0:0:0:
399,329,97923,2,0,P|388:302|368:286,1,50,2|0,0:0|0:0,0:0:0:0:
380,213,98099,2,0,P|351:214|329:228,1,50,2|0,0:0|0:0,0:0:0:0:
263,195,98276,2,0,P|255:222|262:247,1,50,2|0,0:0|0:0,0:0:0:0:
210,300,98452,5,10,0:0:0:0:
210,300,98629,1,2,0:0:0:0:
236,120,98805,2,0,L|224:10,1,100,6|0,0:0|0:0,0:0:0:0:
5,122,99158,101,6,0:0:0:0:
122,135,99335,1,2,0:0:0:0:
59,239,99511,5,2,3:2:0:0:
11,131,99688,1,2,0:0:0:0:
133,133,99864,101,10,0:0:0:0:
63,229,100041,1,2,0:0:0:0:
39,51,100217,6,0,B|40:37|40:37|76:29|76:29|111:42|111:42|109:62,1,100,6|2,0:0|0:0,0:0:0:0:
133,133,100570,102,0,L|187:125,1,50,6|0,3:2|0:0,0:0:0:0:
144,203,100746,2,0,L|198:195,1,50,2|0,0:0|0:0,0:0:0:0:
250,241,100923,6,0,L|304:249,1,50,2|0,0:0|0:0,0:0:0:0:
261,171,101099,2,0,L|315:179,1,50,2|0,3:0|0:0,0:0:0:0:
363,122,101276,101,10,0:0:0:0:
363,122,101452,1,2,0:0:0:0:
387,284,101629,2,0,P|436:261|493:259,1,100,2|2,0:0|0:0,0:0:0:0:
453,339,101982,5,2,0:3:0:0:
314,328,102158,1,2,0:3:0:0:
310,178,102335,101,2,3:3:0:0:
198,186,102511,1,2,0:3:0:0:
180,297,102688,5,10,0:0:0:0:
96,290,102864,1,2,3:0:0:0:
96,290,103041,2,2,L|81:182,1,100,2|2,3:0|3:0,0:0:0:0:
19,156,103394,102,0,P|38:132|62:120,1,50,6|2,3:1|0:0,0:0:0:0:
71,48,103570,2,0,P|99:58|118:77,1,50,2|0,0:0|0:0,0:0:0:0:
189,64,103746,2,0,P|187:94|175:118,1,50,6|0,0:0|0:0,0:0:0:0:
210,181,103923,2,0,P|180:189|154:184,1,50,2|0,0:0|0:0,0:0:0:0:
105,238,104099,5,10,0:0:0:0:
105,238,104276,1,2,0:0:0:0:
277,271,104452,2,0,L|261:388,1,100,2|2,0:0|0:0,0:0:0:0:
137,319,104805,102,0,L|196:312,1,50,2|2,0:1|0:0,0:0:0:0:
198,311,104982,1,2,0:0:0:0:
210,181,105158,2,0,L|269:174,1,50,6|0,3:2|0:0,0:0:0:0:
271,173,105335,1,2,0:0:0:0:
375,349,105511,6,0,P|367:321|372:292,1,50,10|0,0:0|0:0,0:0:0:0:
371,294,105688,1,2,0:0:0:0:
501,261,105864,2,0,P|517:317|507:375,1,100,2|2,0:0|0:0,0:0:0:0:
271,173,106217,101,2,3:1:0:0:
271,173,106394,2,0,P|267:123|282:76,1,100,2|6,0:0|0:0,0:0:0:0:
419,92,106746,1,2,3:0:0:0:
419,92,106923,2,0,P|422:141|407:188,1,100,10|2,0:0|0:0,0:0:0:0:
443,316,107276,5,2,0:0:0:0:
335,230,107452,1,2,0:0:0:0:
219,306,107629,101,6,3:2:0:0:
335,230,107805,1,2,0:3:0:0:
219,306,107982,2,0,P|175:288|123:287,1,100,2|2,3:3|0:3,0:0:0:0:
16,91,108335,5,10,0:0:0:0:
0,161,108511,2,0,P|76:167|190:112,1,200,2|2,0:3|0:1,0:0:0:0:
295,6,109041,102,0,P|267:49|264:106,1,100,2|2,3:1|0:0,0:0:0:0:
456,328,109394,2,0,P|484:285|487:228,1,100,6|2,0:0|0:0,0:0:0:0:
507,160,109746,5,10,0:0:0:0:
410,256,109923,1,2,0:0:0:0:
288,193,110099,2,0,L|304:291,1,100,2|2,0:0|0:0,0:0:0:0:
40,372,110452,102,0,L|23:272,1,100,2|2,0:1|0:0,0:0:0:0:
10,197,110805,1,6,3:2:0:0:
190,198,110982,1,2,0:0:0:0:
190,198,111158,2,0,P|181:148|137:141,1,100,10|2,0:0|0:0,0:0:0:0:
138,329,111511,2,0,P|186:283|277:276,1,150,2|0,0:0|0:0,0:0:0:0:
278,278,111864,6,0,L|285:332,1,50,2|2,3:1|0:0,0:0:0:0:
352,269,112041,2,0,L|359:323,1,50,2|0,0:0|0:0,0:0:0:0:
423,255,112217,102,0,L|430:201,1,50,6|0,0:0|0:0,0:0:0:0:
496,266,112394,2,0,L|503:212,1,50,2|0,3:0|0:0,0:0:0:0:
478,147,112570,5,10,0:0:0:0:
448,325,112746,1,2,0:0:0:0:
308,210,112923,1,2,0:0:0:0:
358,149,113099,1,2,0:0:0:0:
300,94,113276,102,0,P|250:95|198:124,1,100,6|2,3:2|0:3,0:0:0:0:
263,354,113629,2,0,P|312:353|357:331,1,100,6|2,3:2|0:3,0:0:0:0:
145,170,113982,5,8,0:0:0:0:
220,190,114158,1,8,0:0:0:0:
220,190,114335,2,0,P|239:222|239:286,1,100,8|8,0:0|0:0,0:0:0:0:
10,373,114688,37,6,0:0:0:0:
97,335,126335,22,0,P|84:291|54:257,1,89.9999972534181,2|2,3:0|3:0,0:0:0:0:
205,172,127041,2,0,P|173:205|158:248,1,89.9999972534181,2|2,3:0|3:0,0:0:0:0:
10,160,127746,2,0,P|54:170|99:161,2,89.9999972534181,2|0|0,3:0|3:0|3:0,0:0:0:0:
56,89,128805,85,2,3:0:0:0:
56,89,128982,1,0,0:0:0:0:
56,89,129158,2,0,L|49:42,1,44.999998626709,2|2,3:0|0:0,0:0:0:0:
139,58,129511,21,2,3:0:0:0:
139,58,129688,1,2,3:3:0:0:
139,58,129864,2,0,L|148:11,1,44.999998626709,2|0,3:0|0:0,0:0:0:0:
229,66,130217,86,0,L|253:25,1,44.999998626709,2|2,3:0|0:0,0:0:0:0:
304,104,130570,21,2,3:0:0:0:
304,104,130747,1,0,3:0:0:0:
304,104,130923,2,0,L|341:74,1,44.999998626709,0|2,3:0|0:0,0:0:0:0:
363,161,131276,86,0,L|408:145,1,44.999998626709,0|0,3:0|3:0,0:0:0:0:
403,231,131629,21,2,3:0:0:0:
378,242,131805,1,0,0:0:0:0:
376,253,131982,2,0,L|369:302,1,44.999998626709,0|0,3:0|3:0,0:0:0:0:
315,359,132335,85,0,3:0:0:0:
290,348,132511,1,2,0:0:0:0:
288,337,132688,2,0,L|281:288,1,44.999998626709,2|0,3:0|0:0,0:0:0:0:
235,189,133041,21,2,3:0:0:0:
210,200,133217,1,2,0:0:0:0:
208,211,133394,2,0,L|201:260,1,44.999998626709,2|2,3:0|3:0,0:0:0:0:
140,354,133746,85,2,3:0:0:0:
115,343,133922,1,0,0:0:0:0:
113,332,134099,2,0,L|106:283,1,44.999998626709,2|2,3:0|0:0,0:0:0:0:
10,247,134452,21,2,0:0:0:0:
256,192,135864,12,14,136923,0:0:0:0:
256,192,137276,54,0,B|254:147|254:147|302:118|302:118|341:160|341:160|323:213,2,200,4|2|8,1:0|0:0|0:1,0:0:0:0:
274,339,138158,1,0,0:0:0:0:
285,261,138335,101,2,0:1:0:0:
342,373,138511,2,0,B|361:361|361:361|367:331|367:331|371:329|371:329|367:332|367:332|374:292,1,100,2|0,0:0|0:0,0:0:0:0:
204,250,138864,2,0,B|188:255|188:255|182:285|182:285|178:285|178:285|182:284|182:284|178:306|178:306|191:324,1,100,0|0,0:0|1:0,0:0:0:0:
274,339,139217,1,2,0:1:0:0:
387,190,139394,6,0,B|411:195|411:195|425:193|425:193|448:198|439:233|419:228|419:228|347:215,1,150,8|0,0:1|0:0,0:0:0:0:
200,141,139746,2,0,B|163:109|213:51|285:80|269:118,1,150,4|0,0:1|0:0,0:0:0:0:
256,192,140099,102,0,B|258:164|258:164|110:152|110:152|113:120,2,200,0|0|8,1:0|0:0|0:1,0:0:0:0:
210,63,140982,1,0,0:0:0:0:
204,251,141158,5,2,0:1:0:0:
132,279,141335,2,0,B|104:291|104:291|98:249|98:249|131:252,1,100
358,261,141688,102,0,B|369:272|369:272|361:355|361:355|309:363|309:363|277:287|277:287|284:266,1,250,0|2,0:0|0:1,0:0:0:0:
281,108,142217,6,0,B|286:89|286:89|327:69,1,62.5,10|0,0:1|0:0,0:0:0:0:
401,54,142394,2,0,B|429:77|429:77|417:118,1,62.5,2|0,0:0|0:0,0:0:0:0:
393,186,142570,102,0,B|374:183|374:183|354:142,1,62.5,2|0,0:0|0:0,0:0:0:0:
324,70,142747,2,0,B|347:42|347:42|388:54,1,62.5,2|0,0:1|0:0,0:0:0:0:
479,221,142923,6,0,L|261:192,2,200,0|2|8,1:0|0:3|0:1,0:0:0:0:
429,291,143805,1,0,0:0:0:0:
483,347,143982,101,2,0:1:0:0:
354,367,144158,2,0,B|330:359|330:359|319:307|319:307|299:295,1,100,2|0,0:0|0:0,0:0:0:0:
247,354,144511,1,2,0:0:0:0:
366,243,144688,6,0,B|358:255|358:255|210:271,1,150,0|0,1:0|0:0,0:0:0:0:
57,217,145041,2,0,B|56:191|56:191|75:173,1,50,8|0,0:1|0:0,0:0:0:0:
148,190,145217,2,0,B|158:211|158:211|148:235,1,50
57,292,145394,101,2,0:0:0:0:
63,291,145482,1,2,0:0:0:0:
70,290,145570,1,2,0:0:0:0:
77,289,145658,1,2,0:0:0:0:
85,286,145746,5,2,1:3:0:0:
122,118,145923,1,2,0:3:0:0:
294,97,146099,2,0,P|326:67|350:2,1,100,2|2,0:3|0:3,0:0:0:0:
50,72,146452,102,0,L|212:85,1,150,8|0,0:1|0:0,0:0:0:0:
237,156,146805,2,0,B|233:171|235:185|235:185|220:196|198:200|198:200|190:187|176:178,1,100,2|2,0:0|0:0,0:0:0:0:
16,304,147158,6,0,B|2:282|2:282|27:243|88:225|137:243|137:243|140:276,1,200,2|2,0:3|1:3,0:0:0:0:
48,163,147688,1,2,0:3:0:0:
91,329,147864,1,8,0:1:0:0:
98,336,148041,2,0,P|140:348|196:327,1,100,2|2,0:0|0:0,0:0:0:0:
215,254,148394,1,2,0:1:0:0:
399,341,148570,102,0,B|372:372|312:376|273:329|289:284|289:284|293:311|306:325,2,200,4|2|8,1:0|0:0|0:1,0:0:0:0:
317,182,149452,1,0,0:0:0:0:
391,173,149629,1,2,0:1:0:0:
395,180,149805,2,0,B|402:233|362:220|367:273,1,100,2|0,0:0|0:0,0:0:0:0:
443,275,150158,1,2,0:1:0:0:
323,75,150335,5,2,1:3:0:0:
323,75,150511,2,0,B|317:42|280:14|236:27|236:27|223:47|233:70,1,150.000005722046,2|0,0:3|0:0,0:0:0:0:
232,72,150864,1,2,0:0:0:0:
128,175,151041,2,0,B|124:196|100:213|72:205|72:205|64:192|70:178,1,100,2|2,0:3|0:3,0:0:0:0:
103,96,151394,102,0,B|93:106|93:106|121:273|121:273|110:289,2,200,0|2|8,1:0|0:0|0:1,0:0:0:0:
38,50,152276,1,2,0:0:0:0:
234,169,152452,1,2,0:1:0:0:
218,53,152629,2,0,B|216:28|216:28|193:16|193:16|181:40|181:40|196:62,1,100,2|0,0:0|0:0,0:0:0:0:
442,182,152982,6,0,B|494:217|480:144|394:115|318:159|333:262,1,250,6|2,0:1|0:1,0:0:0:0:
290,318,153511,102,0,P|271:300|259:264,1,62.5,10|0,0:1|0:0,0:0:0:0:
175,342,153688,2,0,P|186:318|185:280,1,62.5,2|0,0:0|0:0,0:0:0:0:
143,221,153864,6,0,P|124:239|112:275,1,62.5,2|0,0:0|0:0,0:0:0:0:
28,197,154041,2,0,P|39:220|38:258,1,62.5,2|0,0:1|0:0,0:0:0:0:
16,325,154217,102,0,L|259:266,2,250,0|2|8,1:0|0:3|0:1,0:0:0:0:
96,153,155099,1,0,0:0:0:0:
29,114,155276,5,2,0:1:0:0:
31,107,155364,1,0,0:0:0:0:
33,100,155452,2,0,B|40:76|40:76|115:64|115:64|134:84,1,125,2|0,0:0|0:0,0:0:0:0:
237,69,155805,1,0,0:0:0:0:
264,143,155982,2,0,B|264:163|264:163|219:223|219:223|188:160|188:160|197:129,1,187.5,0|0,1:0|0:0,0:0:0:0:
180,17,156335,102,0,L|318:31,1,125,8|0,0:1|0:0,0:0:0:0:
497,53,156688,1,4,0:1:0:0:
492,48,156776,1,0,0:0:0:0:
487,43,156864,1,0,0:0:0:0:
482,38,156952,1,0,0:0:0:0:
477,33,157041,5,2,1:2:0:0:
407,90,157217,1,2,0:0:0:0:
442,172,157394,102,0,L|437:272,1,100,2|8,0:0|0:1,0:0:0:0:
434,177,158100,2,0,L|429:267,1,89.9999972534181,2|2,0:0|0:1,0:0:0:0:
424,201,158806,2,0,L|422:241,1,40,2|2,1:0|0:0,0:0:0:0:
408,371,159159,5,10,0:1:0:0:
332,384,159335,2,0,L|329:344,2,40,2|2|2,0:3|0:3|0:3,0:0:0:0:
424,201,159864,101,2,0:0:0:0:
88,201,160217,5,2,0:0:0:0:
424,201,160570,101,2,0:0:0:0:
88,201,160923,5,2,0:0:0:0:
191,271,161276,101,8,0:0:0:0:
176,127,161629,5,8,0:0:0:0:
320,112,161982,101,8,0:0:0:0:
335,256,162335,5,2,0:3:0:0:
335,256,162688,86,0,B|179:177|80:386|189:392|225:363|188:346,1,300,6|0,1:1|0:0,0:0:0:0:
25,256,163394,22,2,B|69:256|89:287|89:287|82:249|115:215,1,150,10|0,0:1|0:0,0:1:0:0:
189,229,163746,1,2,0:1:0:0:
30,48,163923,86,0,P|55:60|68:80,1,50,2|2,0:0|0:0,0:0:0:0:
69,87,164099,1,2,0:0:0:0:
147,7,164276,22,0,P|135:32|138:55,1,50,2|0,0:0|0:0,0:0:0:0:
142,61,164452,85,2,1:3:0:0:
174,153,164629,2,0,B|195:127|241:121|273:154|273:154|274:178|254:193,1,150.000005722046,2|0,0:3|0:0,0:0:0:0:
255,195,164982,1,2,0:0:0:0:
354,30,165158,2,0,B|332:22|303:34|295:65|295:65|303:79|320:81,1,100,2|2,0:3|0:3,0:0:0:0:
504,107,165511,22,0,P|462:102|354:154,1,150,2|0,1:0|0:0,0:0:0:0:
390,147,165864,2,0,P|435:121|487:122,1,100,2|2,0:0|0:0,0:0:0:0:
490,125,166129,1,2,0:0:0:0:
496,128,166217,85,10,0:1:0:0:
456,206,166394,1,2,0:1:0:0:
437,354,166570,21,2,0:1:0:0:
477,276,166746,2,0,P|444:243|384:251,1,100,2|2,0:0|0:0,0:0:0:0:
136,342,167099,86,0,B|209:401|339:362|320:250|272:266|276:308,1,250,2|0,0:0|0:0,0:0:0:0:
163,191,167629,22,0,B|208:218|204:269|204:269|220:219|279:205,1,187.5,8|0,0:1|0:0,0:0:0:0:
266,128,167982,2,0,B|289:100|238:70|185:83|193:119,1,125,2|0,0:0|0:0,0:0:0:0:
0,183,168335,86,0,L|511:136,1,500,2|8,1:0|0:1,0:0:0:0:
372,4,169394,21,2,0:3:0:0:
372,4,169570,2,0,P|346:42|340:102,1,100,2|2,0:3|0:3,0:0:0:0:
266,128,169923,1,0,0:3:0:0:
479,304,170099,2,0,P|505:266|511:206,1,100,0|0,1:0|0:0,0:0:0:0:
186,253,170452,6,0,B|189:245|196:239|196:239|182:229|168:243|168:243|183:246|185:254,2,66.6666666666667,2|2|2,0:0|0:0|0:0,0:0:0:0:
134,314,170805,2,0,B|144:286|144:286|234:271|234:271|252:294,1,150,2|0,1:0|0:0,0:0:0:0:
197,55,171158,102,0,B|102:-31|-18:13|-38:121|8:167|40:124|19:101,1,300,6|0,1:0|0:0,0:0:0:0:
322,146,171864,2,2,B|335:125|332:103|309:79|309:79|279:81|257:99|253:123,1,150,10|0,0:1|0:0,0:1:0:0:
267,196,172217,1,2,0:1:0:0:
37,291,172394,86,0,P|27:264|35:236,1,50,2|2,0:0|0:0,0:0:0:0:
33,234,172570,1,2,0:3:0:0:
131,269,172746,22,0,P|125:240|104:221,1,50,2|0,0:3|0:0,0:0:0:0:
105,217,172922,85,2,1:3:0:0:
119,343,173099,2,0,B|140:368|186:374|218:341|218:341|219:317|199:302,1,150,2|0,0:3|0:0,0:0:0:0:
200,301,173452,1,2,0:0:0:0:
286,171,173629,2,0,B|293:192|281:221|250:229|250:229|236:221|234:204,1,100,2|2,0:3|0:3,0:0:0:0:
26,97,173982,22,0,B|44:117|44:117|143:97|143:97|151:70,1,150,2|0,1:0|0:0,0:0:0:0:
128,73,174335,2,0,B|123:87|123:87|54:101|54:101|41:87,1,100,2|2,0:0|0:0,0:0:0:0:
42,85,174599,1,2,0:0:0:0:
39,81,174688,85,10,0:1:0:0:
74,9,174864,1,2,0:1:0:0:
182,158,175041,21,2,0:1:0:0:
222,93,175217,2,0,P|262:92|310:132,1,100,2|2,0:0|0:3,0:0:0:0:
502,345,175570,86,0,B|424:411|306:342|305:280|358:254|374:285|360:303,1,250,2|2,0:3|0:0,0:0:0:0:
421,235,176099,22,0,P|437:262|437:304,1,62.5,10|0,0:1|0:0,0:0:0:0:
249,350,176276,2,0,P|232:322|233:281,1,62.5
487,195,176452,2,0,L|340:181,1,125,2|0,0:0|0:0,0:0:0:0:
24,188,176805,86,0,L|183:204,1,150,2|0,1:1|0:0,0:0:0:0:
159,192,177158,2,0,L|42:180,1,100,2|2,0:0|0:0,0:0:0:0:
51,181,177423,1,2,0:0:0:0:
43,180,177511,21,10,0:1:0:0:
111,115,177688,1,2,0:1:0:0:
91,265,177864,85,2,0:1:0:0:
146,321,178041,2,0,P|184:326|240:301,1,100,2|2,0:0|0:3,0:0:0:0:
431,36,178394,1,2,0:3:0:0:
431,36,178570,2,0,P|381:31|337:54,1,100,0|0,1:0|0:0,0:0:0:0:
296,181,178923,22,0,B|300:171|300:171|288:124,1,50,8|0,0:1|0:0,0:0:0:0:
310,192,179099,2,0,B|320:196|320:196|367:184,1,50
298,205,179276,2,0,B|294:215|294:215|306:262,1,50,2|0,0:0|0:0,0:0:0:0:
284,194,179452,2,0,B|274:190|274:190|227:202,1,50
489,235,179629,86,0,L|76:201,1,400,0|8,1:0|0:1,0:0:0:0:
90,202,180688,21,2,0:3:0:0:
81,361,180864,2,0,P|55:319|50:263,1,100,2|2,0:3|0:3,0:0:0:0:
203,127,181217,2,0,P|197:77|171:35,1,100,2|0,0:3|1:0,0:0:0:0:
171,35,181570,1,0,0:0:0:0:
125,102,181746,85,8,0:1:0:0:
271,37,181923,1,0,0:0:0:0:
272,43,182099,1,0,0:0:0:0:
273,51,182276,1,0,0:0:0:0:
241,196,182452,101,0,1:0:0:0:
256,192,182496,12,0,187923,0:0:0:0:
