osu file format v14

[General]
AudioFilename: audio.mp3
AudioLeadIn: 0
PreviewTime: 92296
Countdown: 0
SampleSet: Normal
StackLeniency: 0
Mode: 1
LetterboxInBreaks: 0
WidescreenStoryboard: 0

[Editor]
Bookmarks: 13260,35848,58436,81024,92318,114907,137495,182671
DistanceSpacing: 1.3
BeatDivisor: 8
GridSize: 32
TimelineZoom: 2.76

[Metadata]
Title:DERO
TitleUnicode:DERO
Artist:DUSTCELL
ArtistUnicode:DUSTCELL
Creator:Genjuro
Version:ONI
Source:
Tags:EMA E MA Misumi Kamitsubaki Studio Japanese Hip Hop Hip-Hop
BeatmapID:3034320
BeatmapSetID:1478599

[Difficulty]
HPDrainRate:5.5
CircleSize:2
OverallDifficulty:5.5
ApproachRate:10
SliderMultiplier:1.4
SliderTickRate:1

[Events]
//Background and Video events
0,0,"bg.jpg",0,0
//Break Periods
//Storyboard Layer 0 (Background)
//Storyboard Layer 1 (Fail)
//Storyboard Layer 2 (Pass)
//Storyboard Layer 3 (Foreground)
//Storyboard Layer 4 (Overlay)
//Storyboard Sound Samples

[TimingPoints]
555,352.941176470588,4,1,0,50,1,8
1966,352.941176470588,4,1,0,50,1,0
1966,-114.285714285714,4,1,0,50,0,0
11848,-106.685101852267,4,1,0,50,0,0
12554,-103.25181258557,4,1,0,50,0,0
12730,-102.427637434843,4,1,0,50,0,0
12818,-102.020516325833,4,1,0,50,0,0
12907,-101.616618788303,4,1,0,50,0,0
13083,-100.818342485959,4,1,0,50,0,0
13171,-100.423889236467,4,1,0,50,0,0
13230,-100,4,1,0,65,0,0
36024,-114.285714285714,4,1,0,50,0,0
47098,-100,4,1,0,65,0,0
58392,-87.5,4,1,0,80,0,0
81201,-114.285714285714,4,1,0,50,0,0
92274,-100,4,1,0,80,0,0
92318,-85.8369098712446,4,1,0,80,0,1
92407,-86.1720562979278,4,1,0,80,0,1
92495,-86.5098301119956,4,1,0,80,0,1
92583,-86.8503377609636,4,1,0,80,0,1
92671,-87.1934604904632,4,1,0,80,0,1
92848,-87.8879814943066,4,1,0,80,0,1
93024,-88.59357696567,4,1,0,80,0,1
93113,-88.9506404001356,4,1,0,80,0,1
93201,-89.3105936653782,4,1,0,80,0,1
93377,-90.0393922341024,4,1,0,80,0,1
93554,-90.7801830491611,4,1,0,80,0,1
93730,-91.533180778032,4,1,0,80,0,1
93818,-91.9143835899736,4,1,0,80,0,1
93907,-92.298774826063,4,1,0,80,0,1
93995,-92.6864805645719,4,1,0,80,0,1
94083,-93.0773705642816,4,1,0,80,0,1
94260,-93.8692139016551,4,1,0,80,0,1
94436,-94.6745562130178,4,1,0,80,0,1
94524,-95.0824317141746,4,1,0,80,0,1
94613,-95.4938368277711,4,1,0,80,0,1
94789,-96.3275135460566,4,1,0,80,0,1
94965,-97.1757802972218,4,1,0,80,0,1
95142,-98.0392156862745,4,1,0,80,0,1
95230,-98.4766644772022,4,1,0,80,0,1
95318,-98.918034538221,4,1,0,80,0,1
95495,-99.812850904554,4,1,0,80,0,1
95671,-100.723902688623,4,1,0,80,0,1
95848,-101.651842439644,4,1,0,80,0,1
95936,-102.122201468722,4,1,0,80,0,1
96024,-102.596933582849,4,1,0,80,0,1
96201,-103.559870550162,4,1,0,80,0,1
96377,-104.540945029235,4,1,0,80,0,1
96554,-105.540897097625,4,1,0,80,0,1
96730,-106.560049784855,4,1,0,80,0,1
96907,-107.599193006052,4,1,0,80,0,1
97083,-108.658684599696,4,1,0,80,0,1
97260,-109.739368998628,4,1,0,80,0,1
97436,-110.841642761819,4,1,0,80,0,1
97613,-111.966410076977,4,1,0,80,0,1
97965,-85.8369098712446,4,1,0,80,0,1
98054,-86.1716107628342,4,1,0,80,0,1
98142,-86.5090068852519,4,1,0,80,0,1
98230,-86.8489800455783,4,1,0,80,0,1
98318,-87.1916358807532,4,1,0,80,0,1
98495,-87.8852008352609,4,1,0,80,0,1
98671,-88.5898881729842,4,1,0,80,0,1
98760,-88.9464471231161,4,1,0,80,0,1
98848,-89.3059676033672,4,1,0,80,0,1
99024,-90.0336365666213,4,1,0,80,0,1
99201,-90.7733434999478,4,1,0,80,0,1
99377,-91.5253058318094,4,1,0,80,0,1
99465,-91.9059361125076,4,1,0,80,0,1
99554,-92.2897455017978,4,1,0,80,0,1
99642,-92.6768598855626,4,1,0,80,0,1
99730,-93.0671488785874,4,1,0,80,0,1
99907,-93.8577604412066,4,1,0,80,0,1
100083,-94.6619196869341,4,1,0,80,0,1
100171,-95.0691437882772,4,1,0,80,0,1
100260,-95.4798866844705,4,1,0,80,0,1
100436,-96.3122056458215,4,1,0,80,0,1
100613,-97.1591632264226,4,1,0,80,0,1
100789,-98.0210529617551,4,1,0,80,0,1
100877,-98.4578546230393,4,1,0,80,0,1
100965,-98.8984688539052,4,1,0,80,0,1
101142,-99.7917346497859,4,1,0,80,0,1
101318,-100.701283739965,4,1,0,80,0,1
101495,-101.62746217934,4,1,0,80,0,1
101583,-102.097073897862,4,1,0,80,0,1
101671,-102.570940626811,4,1,0,80,0,1
101848,-103.532101163287,4,1,0,80,0,1
102024,-104.511336344653,4,1,0,80,0,1
102201,-105.50938347702,4,1,0,80,0,1
102377,-106.526676410307,4,1,0,80,0,1
102554,-107.563777252628,4,1,0,80,0,1
102730,-108.621152231459,4,1,0,80,0,1
102907,-109.699642379166,4,1,0,80,0,1
103083,-110.799763774904,4,1,0,80,0,1
103260,-111.922048531639,4,1,0,80,0,1
103613,-85.8369098712446,4,1,0,80,0,1
103701,-86.1720562979278,4,1,0,80,0,1
103789,-86.5098301119956,4,1,0,80,0,1
103877,-86.8503377609636,4,1,0,80,0,1
103965,-87.1934604904632,4,1,0,80,0,1
104142,-87.8879814943066,4,1,0,80,0,1
104318,-88.59357696567,4,1,0,80,0,1
104407,-88.9506404001356,4,1,0,80,0,1
104495,-89.3105936653782,4,1,0,80,0,1
104671,-90.0393922341024,4,1,0,80,0,1
104848,-90.7801830491611,4,1,0,80,0,1
105024,-91.533180778032,4,1,0,80,0,1
105113,-91.9143835899736,4,1,0,80,0,1
105201,-92.298774826063,4,1,0,80,0,1
105289,-92.6864805645719,4,1,0,80,0,1
105377,-93.0773705642816,4,1,0,80,0,1
105554,-93.8692139016551,4,1,0,80,0,1
105730,-94.6745562130178,4,1,0,80,0,1
105818,-95.0824317141746,4,1,0,80,0,1
105907,-95.4938368277711,4,1,0,80,0,1
106083,-96.3275135460566,4,1,0,80,0,1
106260,-97.1757802972218,4,1,0,80,0,1
106436,-98.0392156862745,4,1,0,80,0,1
106524,-98.4766644772022,4,1,0,80,0,1
106613,-98.918034538221,4,1,0,80,0,1
106965,-100.723902688623,4,1,0,80,0,1
107142,-101.651842439644,4,1,0,80,0,1
107230,-102.122201468722,4,1,0,80,0,1
107318,-102.596933582849,4,1,0,80,0,1
107495,-103.559870550162,4,1,0,80,0,1
107671,-104.540945029235,4,1,0,80,0,1
107848,-105.540897097625,4,1,0,80,0,1
108024,-106.560049784855,4,1,0,80,0,1
108201,-107.599193006052,4,1,0,80,0,1
108377,-108.658684599696,4,1,0,80,0,1
108554,-109.739368998628,4,1,0,80,0,1
108730,-110.841642761819,4,1,0,80,0,1
108907,-111.966410076977,4,1,0,80,0,1
109260,-85.8369098712446,4,1,0,80,0,1
109348,-86.1720562979278,4,1,0,80,0,1
109436,-86.5098301119956,4,1,0,80,0,1
109524,-86.8503377609636,4,1,0,80,0,1
109613,-87.1934604904632,4,1,0,80,0,1
109789,-87.8879814943066,4,1,0,80,0,1
109965,-88.59357696567,4,1,0,80,0,1
110054,-88.9506404001356,4,1,0,80,0,1
110142,-89.3105936653782,4,1,0,80,0,1
110318,-90.0393922341024,4,1,0,80,0,1
110495,-90.7801830491611,4,1,0,80,0,1
110671,-91.533180778032,4,1,0,80,0,1
110760,-91.9143835899736,4,1,0,80,0,1
110848,-92.298774826063,4,1,0,80,0,1
110936,-92.6864805645719,4,1,0,80,0,1
111024,-93.0773705642816,4,1,0,80,0,1
111201,-93.8692139016551,4,1,0,80,0,1
111377,-94.6745562130178,4,1,0,80,0,1
111465,-95.0824317141746,4,1,0,80,0,1
111554,-95.4938368277711,4,1,0,80,0,1
111730,-96.3275135460566,4,1,0,80,0,1
111907,-97.1757802972218,4,1,0,80,0,1
112083,-98.0392156862745,4,1,0,80,0,1
112171,-98.4766644772022,4,1,0,80,0,1
112260,-98.918034538221,4,1,0,80,0,1
112436,-99.812850904554,4,1,0,80,0,1
112613,-100.723902688623,4,1,0,80,0,1
112789,-101.651842439644,4,1,0,80,0,1
112877,-102.122201468722,4,1,0,80,0,1
112965,-102.596933582849,4,1,0,80,0,1
113142,-103.559870550162,4,1,0,80,0,1
113318,-104.540945029235,4,1,0,80,0,1
113495,-105.540897097625,4,1,0,80,0,1
113671,-102.611777574606,4,1,0,80,0,1
113848,-99.8409533612955,4,1,0,80,0,1
114024,-97.2157411728107,4,1,0,80,0,1
114201,-94.7250463442289,4,1,0,80,0,1
114377,-92.358873332576,4,1,0,80,0,1
114554,-90.1079493232893,4,1,0,80,0,1
114730,-87.9642091225922,4,1,0,80,0,1
114907,-85.9200273569367,4,1,0,80,0,0
115083,-114.285714285714,4,1,0,50,0,0
126157,-100,4,1,0,65,0,0
137098,-75.187969924812,4,1,0,80,0,0
137495,-87.5,4,1,0,80,0,0
160171,-88.1444793790398,4,1,0,80,0,0
160260,-88.7978809273695,4,1,0,80,0,0
160436,-90.1342639996539,4,1,0,80,0,0
160524,-90.8176952830197,4,1,0,80,0,0
160613,-91.5114860641733,4,1,0,80,0,0
160789,-92.9315345505506,4,1,0,80,0,0
160877,-93.6581272308195,4,1,0,80,0,0
160965,-94.3962603977481,4,1,0,80,0,0
161142,-95.9078977276542,4,1,0,80,0,0
161230,-96.6819714227429,4,1,0,80,0,0
161318,-97.4687369026385,4,1,0,80,0,0
161495,-99.0812198483463,4,1,0,80,0,0
161848,-102.471720366972,4,1,0,80,0,0
162201,-106.102596967163,4,1,0,80,0,0
162554,-110.00011000011,4,1,0,80,0,0
162907,-87.5,4,1,0,80,0,0

[HitObjects]
256,192,1966,5,0,0:0:0:0:
256,192,2318,1,8,0:0:0:0:
256,192,2495,1,0,0:0:0:0:
256,192,2671,1,8,0:0:0:0:
256,192,3024,1,0,0:0:0:0:
256,192,3201,1,0,0:0:0:0:
256,192,3377,1,0,0:0:0:0:
256,192,3554,1,8,0:0:0:0:
256,192,3730,1,0,0:0:0:0:
256,192,4083,1,8,0:0:0:0:
256,192,4436,1,0,0:0:0:0:
256,192,4613,1,8,0:0:0:0:
256,192,4701,1,8,0:0:0:0:
256,192,4789,1,0,0:0:0:0:
256,192,5142,1,8,0:0:0:0:
256,192,5318,1,0,0:0:0:0:
256,192,5495,1,8,0:0:0:0:
256,192,5848,1,0,0:0:0:0:
256,192,6024,1,8,0:0:0:0:
256,192,6201,1,0,0:0:0:0:
256,192,6377,1,8,0:0:0:0:
256,192,6554,1,0,0:0:0:0:
256,192,6907,1,8,0:0:0:0:
256,192,7083,1,0,0:0:0:0:
256,192,7260,1,0,0:0:0:0:
256,192,7436,1,8,0:0:0:0:
256,192,7524,1,8,0:0:0:0:
256,192,7613,1,0,0:0:0:0:
256,192,7965,1,8,0:0:0:0:
256,192,8142,1,0,0:0:0:0:
256,192,8318,1,8,0:0:0:0:
256,192,8671,1,0,0:0:0:0:
256,192,8848,1,0,0:0:0:0:
256,192,9024,1,0,0:0:0:0:
256,192,9201,1,8,0:0:0:0:
256,192,9377,1,0,0:0:0:0:
256,192,9730,1,8,0:0:0:0:
256,192,10083,1,0,0:0:0:0:
256,192,10260,1,8,0:0:0:0:
256,192,10348,1,8,0:0:0:0:
256,192,12554,5,8,0:0:0:0:
256,192,12730,1,0,0:0:0:0:
256,192,12818,1,0,0:0:0:0:
256,192,12907,1,8,0:0:0:0:
256,192,13083,1,8,0:0:0:0:
256,192,13171,1,8,0:0:0:0:
256,192,13260,1,0,0:0:0:0:
256,192,13613,1,0,0:0:0:0:
256,192,13789,1,0,0:0:0:0:
256,192,13965,1,8,0:0:0:0:
256,192,14142,1,0,0:0:0:0:
256,192,14318,1,8,0:0:0:0:
256,192,14495,1,8,0:0:0:0:
256,192,14671,1,0,0:0:0:0:
256,192,14848,1,8,0:0:0:0:
256,192,15024,1,0,0:0:0:0:
256,192,15201,1,0,0:0:0:0:
256,192,15377,1,8,0:0:0:0:
256,192,15554,1,8,0:0:0:0:
256,192,15730,1,0,0:0:0:0:
256,192,15907,1,8,0:0:0:0:
256,192,15995,1,8,0:0:0:0:
256,192,16083,1,0,0:0:0:0:
256,192,16436,1,0,0:0:0:0:
256,192,16613,1,0,0:0:0:0:
256,192,16789,1,8,0:0:0:0:
256,192,16965,1,8,0:0:0:0:
256,192,17142,1,0,0:0:0:0:
256,192,17318,1,8,0:0:0:0:
256,192,17495,1,0,0:0:0:0:
256,192,17671,1,8,0:0:0:0:
256,192,17848,1,0,0:0:0:0:
256,192,18024,1,0,0:0:0:0:
256,192,18201,1,8,0:0:0:0:
256,192,18377,1,8,0:0:0:0:
256,192,18554,1,8,0:0:0:0:
256,192,18730,1,0,0:0:0:0:
256,192,18818,1,8,0:0:0:0:
256,192,18907,1,0,0:0:0:0:
256,192,19260,1,0,0:0:0:0:
256,192,19436,1,0,0:0:0:0:
256,192,19613,1,8,0:0:0:0:
256,192,19789,1,0,0:0:0:0:
256,192,19965,1,8,0:0:0:0:
256,192,20142,1,8,0:0:0:0:
256,192,20318,1,0,0:0:0:0:
256,192,20495,1,8,0:0:0:0:
256,192,20671,1,0,0:0:0:0:
256,192,20848,1,0,0:0:0:0:
256,192,21024,1,8,0:0:0:0:
256,192,21201,1,8,0:0:0:0:
256,192,21377,1,0,0:0:0:0:
256,192,21554,1,8,0:0:0:0:
256,192,21642,1,8,0:0:0:0:
256,192,21730,1,0,0:0:0:0:
256,192,22083,1,0,0:0:0:0:
256,192,22260,1,0,0:0:0:0:
256,192,22436,1,8,0:0:0:0:
256,192,22613,1,8,0:0:0:0:
256,192,22789,1,0,0:0:0:0:
256,192,22965,1,8,0:0:0:0:
256,192,23142,1,8,0:0:0:0:
256,192,23318,1,0,0:0:0:0:
256,192,23495,1,8,0:0:0:0:
256,192,23671,1,0,0:0:0:0:
256,192,23848,1,8,0:0:0:0:
256,192,24024,1,8,0:0:0:0:
256,192,24201,1,8,0:0:0:0:
256,192,24377,1,0,0:0:0:0:
256,192,24465,1,8,0:0:0:0:
256,192,24554,1,0,0:0:0:0:
256,192,24907,1,8,0:0:0:0:
256,192,25083,1,0,0:0:0:0:
256,192,25260,1,8,0:0:0:0:
256,192,25613,1,0,0:0:0:0:
256,192,25965,1,8,0:0:0:0:
256,192,26083,1,0,0:0:0:0:
256,192,26201,1,0,0:0:0:0:
256,192,26318,1,8,0:0:0:0:
256,192,26495,1,0,0:0:0:0:
256,192,26671,1,8,0:0:0:0:
256,192,26760,1,8,0:0:0:0:
256,192,26848,1,0,0:0:0:0:
256,192,26936,1,0,0:0:0:0:
256,192,27024,1,8,0:0:0:0:
256,192,27201,1,8,0:0:0:0:
256,192,27377,1,0,0:0:0:0:
256,192,27730,1,0,0:0:0:0:
256,192,27848,1,0,0:0:0:0:
256,192,27965,1,0,0:0:0:0:
256,192,28083,1,8,0:0:0:0:
256,192,28260,1,0,0:0:0:0:
256,192,28436,1,8,0:0:0:0:
256,192,28789,1,0,0:0:0:0:
256,192,29054,1,8,0:0:0:0:
256,192,29230,1,8,0:0:0:0:
256,192,29318,1,0,0:0:0:0:
256,192,29495,1,8,0:0:0:0:
256,192,29671,1,0,0:0:0:0:
256,192,29760,1,0,0:0:0:0:
256,192,29848,1,8,0:0:0:0:
256,192,30024,1,8,0:0:0:0:
256,192,30201,1,0,0:0:0:0:
256,192,30554,1,8,0:0:0:0:
256,192,30907,1,0,0:0:0:0:
256,192,31024,1,8,0:0:0:0:
256,192,31142,1,8,0:0:0:0:
256,192,31260,1,0,0:0:0:0:
256,192,31436,1,8,0:0:0:0:
256,192,31613,1,0,0:0:0:0:
256,192,31965,1,8,0:0:0:0:
256,192,32318,1,0,0:0:0:0:
256,192,32436,1,0,0:0:0:0:
256,192,32554,1,0,0:0:0:0:
256,192,32671,1,8,0:0:0:0:
256,192,32848,1,8,0:0:0:0:
256,192,33024,1,0,0:0:0:0:
256,192,33377,1,8,0:0:0:0:
256,192,33730,1,0,0:0:0:0:
256,192,33848,1,8,0:0:0:0:
256,192,33965,1,8,0:0:0:0:
256,192,34083,1,0,0:0:0:0:
256,192,34260,1,8,0:0:0:0:
256,192,34436,1,0,0:0:0:0:
256,192,34524,1,0,0:0:0:0:
256,192,34613,1,0,0:0:0:0:
256,192,34701,1,0,0:0:0:0:
256,192,34789,1,8,0:0:0:0:
256,192,34965,1,8,0:0:0:0:
256,192,35142,1,0,0:0:0:0:
256,192,35318,1,8,0:0:0:0:
256,192,35407,1,8,0:0:0:0:
256,192,35495,1,8,0:0:0:0:
256,192,35671,1,8,0:0:0:0:
256,192,35848,1,4,0:0:0:0:
256,192,36201,1,8,0:0:0:0:
256,192,36907,1,0,0:0:0:0:
256,192,37613,1,8,0:0:0:0:
256,192,38495,1,0,0:0:0:0:
256,192,38671,1,8,0:0:0:0:
256,192,38848,1,8,0:0:0:0:
256,192,39024,1,0,0:0:0:0:
256,192,39377,1,0,0:0:0:0:
256,192,39554,1,0,0:0:0:0:
256,192,39730,1,8,0:0:0:0:
256,192,40083,1,0,0:0:0:0:
256,192,40436,1,8,0:0:0:0:
256,192,40613,1,8,0:0:0:0:
256,192,40789,1,0,0:0:0:0:
256,192,40965,1,8,0:0:0:0:
256,192,41142,1,8,0:0:0:0:
256,192,41495,1,0,0:0:0:0:
256,192,41848,1,8,0:0:0:0:
256,192,42554,1,0,0:0:0:0:
256,192,43260,1,8,0:0:0:0:
256,192,44142,1,0,0:0:0:0:
256,192,44318,1,8,0:0:0:0:
256,192,44495,1,0,0:0:0:0:
256,192,44848,1,8,0:0:0:0:
256,192,45201,1,0,0:0:0:0:
256,192,45377,1,8,0:0:0:0:
256,192,45554,1,8,0:0:0:0:
256,192,45730,1,0,0:0:0:0:
256,192,45907,1,8,0:0:0:0:
256,192,46083,1,0,0:0:0:0:
256,192,46436,1,8,0:0:0:0:
256,192,46613,1,0,0:0:0:0:
256,192,46789,1,8,0:0:0:0:
256,192,47142,1,4,0:0:0:0:
256,192,47495,1,8,0:0:0:0:
256,192,47671,1,8,0:0:0:0:
256,192,47848,1,0,0:0:0:0:
256,192,48201,1,0,0:0:0:0:
256,192,48377,1,0,0:0:0:0:
256,192,48554,1,8,0:0:0:0:
256,192,48730,1,8,0:0:0:0:
256,192,48907,1,0,0:0:0:0:
256,192,49260,1,8,0:0:0:0:
256,192,49613,1,8,0:0:0:0:
256,192,49965,1,0,0:0:0:0:
256,192,50142,1,0,0:0:0:0:
256,192,50318,1,8,0:0:0:0:
256,192,50671,1,8,0:0:0:0:
256,192,50848,1,8,0:0:0:0:
256,192,51024,1,0,0:0:0:0:
256,192,51377,1,8,0:0:0:0:
256,192,51730,1,0,0:0:0:0:
256,192,52083,1,8,0:0:0:0:
256,192,52436,1,8,0:0:0:0:
256,192,52789,1,0,0:0:0:0:
256,192,52965,1,0,0:0:0:0:
256,192,53142,1,8,0:0:0:0:
256,192,53318,1,0,0:0:0:0:
256,192,53495,1,8,0:0:0:0:
256,192,53671,1,8,0:0:0:0:
256,192,53848,1,0,0:0:0:0:
256,192,54201,1,8,0:0:0:0:
256,192,54377,1,8,0:0:0:0:
256,192,54554,1,0,0:0:0:0:
256,192,54730,1,8,0:0:0:0:
256,192,54907,1,0,0:0:0:0:
256,192,55083,1,0,0:0:0:0:
256,192,55260,1,8,0:0:0:0:
256,192,55613,1,0,0:0:0:0:
256,192,57024,1,8,0:0:0:0:
256,192,57113,1,8,0:0:0:0:
256,192,57201,1,0,0:0:0:0:
256,192,57377,1,8,0:0:0:0:
256,192,57554,1,0,0:0:0:0:
256,192,57642,1,8,0:0:0:0:
256,192,57818,1,8,0:0:0:0:
256,192,57907,1,0,0:0:0:0:
256,192,58083,1,8,0:0:0:0:
256,192,58436,1,4,0:0:0:0:
256,192,58613,1,8,0:0:0:0:
256,192,58701,1,8,0:0:0:0:
256,192,58789,1,0,0:0:0:0:
256,192,58965,1,0,0:0:0:0:
256,192,59142,1,8,0:0:0:0:
256,192,59318,1,0,0:0:0:0:
256,192,59407,1,0,0:0:0:0:
256,192,59495,1,8,0:0:0:0:
256,192,59671,1,8,0:0:0:0:
256,192,59848,1,0,0:0:0:0:
256,192,60024,1,8,0:0:0:0:
256,192,60113,1,8,0:0:0:0:
256,192,60201,1,0,0:0:0:0:
256,192,60377,1,8,0:0:0:0:
256,192,60554,1,0,0:0:0:0:
256,192,60907,1,8,0:0:0:0:
256,192,61260,1,0,0:0:0:0:
256,192,61436,1,8,0:0:0:0:
256,192,61524,1,8,0:0:0:0:
256,192,61613,1,0,0:0:0:0:
256,192,61789,1,0,0:0:0:0:
256,192,61965,1,8,0:0:0:0:
256,192,62142,1,0,0:0:0:0:
256,192,62318,1,8,0:0:0:0:
256,192,62407,1,0,0:0:0:0:
256,192,62495,1,8,0:0:0:0:
256,192,62671,1,0,0:0:0:0:
256,192,62848,1,8,0:0:0:0:
256,192,62936,1,8,0:0:0:0:
256,192,63024,1,0,0:0:0:0:
256,192,63201,1,8,0:0:0:0:
256,192,63377,1,0,0:0:0:0:
256,192,63465,1,0,0:0:0:0:
256,192,63554,1,0,0:0:0:0:
256,192,63642,1,0,0:0:0:0:
256,192,63730,1,8,0:0:0:0:
256,192,63907,1,8,0:0:0:0:
256,192,64083,1,0,0:0:0:0:
256,192,64260,1,8,0:0:0:0:
256,192,64348,1,8,0:0:0:0:
256,192,64436,1,0,0:0:0:0:
256,192,64613,1,0,0:0:0:0:
256,192,64789,1,8,0:0:0:0:
256,192,64965,1,0,0:0:0:0:
256,192,65054,1,0,0:0:0:0:
256,192,65142,1,8,0:0:0:0:
256,192,65318,1,8,0:0:0:0:
256,192,65495,1,0,0:0:0:0:
256,192,65671,1,8,0:0:0:0:
256,192,65760,1,8,0:0:0:0:
256,192,65848,1,0,0:0:0:0:
256,192,66024,1,8,0:0:0:0:
256,192,66201,1,0,0:0:0:0:
256,192,66554,1,8,0:0:0:0:
256,192,66907,1,0,0:0:0:0:
256,192,67083,1,8,0:0:0:0:
256,192,67171,1,8,0:0:0:0:
256,192,67260,1,8,0:0:0:0:
256,192,67436,1,0,0:0:0:0:
256,192,67613,1,8,0:0:0:0:
256,192,67789,1,0,0:0:0:0:
256,192,67877,1,0,0:0:0:0:
256,192,67965,1,0,0:0:0:0:
256,192,68142,1,8,0:0:0:0:
256,192,68318,1,0,0:0:0:0:
256,192,68495,1,8,0:0:0:0:
256,192,68583,1,0,0:0:0:0:
256,192,68671,1,0,0:0:0:0:
256,192,68760,1,0,0:0:0:0:
256,192,68848,1,8,0:0:0:0:
256,192,69024,1,0,0:0:0:0:
256,192,69201,1,0,0:0:0:0:
256,192,69377,1,8,0:0:0:0:
256,192,69730,1,4,0:0:0:0:
256,192,69907,1,8,0:0:0:0:
256,192,69995,1,8,0:0:0:0:
256,192,70083,1,0,0:0:0:0:
256,192,70260,1,0,0:0:0:0:
256,192,70436,1,8,0:0:0:0:
256,192,70613,1,0,0:0:0:0:
256,192,70701,1,0,0:0:0:0:
256,192,70789,1,8,0:0:0:0:
256,192,70965,1,8,0:0:0:0:
256,192,71142,1,0,0:0:0:0:
256,192,71318,1,8,0:0:0:0:
256,192,71407,1,8,0:0:0:0:
256,192,71495,1,0,0:0:0:0:
256,192,71671,1,8,0:0:0:0:
256,192,71848,1,0,0:0:0:0:
256,192,72201,1,8,0:0:0:0:
256,192,72554,1,0,0:0:0:0:
256,192,72730,1,8,0:0:0:0:
256,192,72818,1,8,0:0:0:0:
256,192,72907,1,0,0:0:0:0:
256,192,73083,1,0,0:0:0:0:
256,192,73260,1,8,0:0:0:0:
256,192,73436,1,0,0:0:0:0:
256,192,73613,1,8,0:0:0:0:
256,192,73701,1,0,0:0:0:0:
256,192,73789,1,8,0:0:0:0:
256,192,73965,1,0,0:0:0:0:
256,192,74142,1,8,0:0:0:0:
256,192,74230,1,8,0:0:0:0:
256,192,74318,1,0,0:0:0:0:
256,192,74495,1,8,0:0:0:0:
256,192,74671,1,0,0:0:0:0:
256,192,74760,1,0,0:0:0:0:
256,192,74848,1,0,0:0:0:0:
256,192,74936,1,0,0:0:0:0:
256,192,75024,1,8,0:0:0:0:
256,192,75201,1,8,0:0:0:0:
256,192,75377,1,0,0:0:0:0:
256,192,75554,1,8,0:0:0:0:
256,192,75642,1,8,0:0:0:0:
256,192,75730,1,0,0:0:0:0:
256,192,75907,1,0,0:0:0:0:
256,192,76083,1,8,0:0:0:0:
256,192,76260,1,0,0:0:0:0:
256,192,76348,1,0,0:0:0:0:
256,192,76436,1,8,0:0:0:0:
256,192,76613,1,8,0:0:0:0:
256,192,76789,1,0,0:0:0:0:
256,192,76965,1,8,0:0:0:0:
256,192,77054,1,8,0:0:0:0:
256,192,77142,1,0,0:0:0:0:
256,192,77318,1,8,0:0:0:0:
256,192,77495,1,0,0:0:0:0:
256,192,77848,1,8,0:0:0:0:
256,192,78201,1,0,0:0:0:0:
256,192,78377,1,8,0:0:0:0:
256,192,78465,1,8,0:0:0:0:
256,192,78554,1,8,0:0:0:0:
256,192,78730,1,0,0:0:0:0:
256,192,78907,1,8,0:0:0:0:
256,192,79083,1,0,0:0:0:0:
256,192,79171,1,0,0:0:0:0:
256,192,79260,1,0,0:0:0:0:
256,192,79436,1,8,0:0:0:0:
256,192,79613,1,0,0:0:0:0:
256,192,79789,1,8,0:0:0:0:
256,192,79877,1,8,0:0:0:0:
256,192,79965,1,0,0:0:0:0:
256,192,80054,1,0,0:0:0:0:
256,192,80142,1,8,0:0:0:0:
256,192,80318,1,0,0:0:0:0:
256,192,80495,1,0,0:0:0:0:
256,192,80671,1,8,0:0:0:0:
256,192,81024,1,4,0:0:0:0:
256,192,81730,1,8,0:0:0:0:
256,192,82260,1,0,0:0:0:0:
256,192,82613,1,8,0:0:0:0:
256,192,82789,1,0,0:0:0:0:
256,192,83142,1,8,0:0:0:0:
256,192,83848,1,0,0:0:0:0:
256,192,84377,1,0,0:0:0:0:
256,192,84554,1,8,0:0:0:0:
256,192,84730,1,0,0:0:0:0:
256,192,85083,1,8,0:0:0:0:
256,192,85436,1,0,0:0:0:0:
256,192,85613,1,8,0:0:0:0:
256,192,85965,1,8,0:0:0:0:
256,192,86142,1,0,0:0:0:0:
256,192,86318,1,0,0:0:0:0:
256,192,86495,1,8,0:0:0:0:
256,192,86671,1,0,0:0:0:0:
256,192,87377,1,8,0:0:0:0:
256,192,87907,1,0,0:0:0:0:
256,192,88260,1,8,0:0:0:0:
256,192,88436,1,0,0:0:0:0:
256,192,88789,1,8,0:0:0:0:
256,192,89495,1,0,0:0:0:0:
256,192,90024,1,0,0:0:0:0:
256,192,90201,1,8,0:0:0:0:
256,192,90377,1,0,0:0:0:0:
256,192,90554,1,0,0:0:0:0:
256,192,90730,1,8,0:0:0:0:
256,192,92318,1,8,0:0:0:0:
256,192,92407,1,8,0:0:0:0:
256,192,92495,1,0,0:0:0:0:
256,192,92583,1,0,0:0:0:0:
256,192,92671,1,8,0:0:0:0:
256,192,92848,1,0,0:0:0:0:
256,192,93024,1,8,0:0:0:0:
256,192,93113,1,8,0:0:0:0:
256,192,93201,1,8,0:0:0:0:
256,192,93377,1,0,0:0:0:0:
256,192,93554,1,8,0:0:0:0:
256,192,93730,1,0,0:0:0:0:
256,192,93818,1,0,0:0:0:0:
256,192,93907,1,8,0:0:0:0:
256,192,93995,1,8,0:0:0:0:
256,192,94083,1,0,0:0:0:0:
256,192,94260,1,8,0:0:0:0:
256,192,94436,1,0,0:0:0:0:
256,192,94524,1,0,0:0:0:0:
256,192,94613,1,0,0:0:0:0:
256,192,94789,1,8,0:0:0:0:
256,192,94965,1,0,0:0:0:0:
256,192,95142,1,8,0:0:0:0:
256,192,95230,1,8,0:0:0:0:
256,192,95318,1,0,0:0:0:0:
256,192,95495,1,8,0:0:0:0:
256,192,95671,1,8,0:0:0:0:
256,192,95848,1,0,0:0:0:0:
256,192,95936,1,0,0:0:0:0:
256,192,96024,1,8,0:0:0:0:
256,192,96201,1,0,0:0:0:0:
256,192,96377,1,0,0:0:0:0:
256,192,96554,1,8,0:0:0:0:
256,192,96730,1,8,0:0:0:0:
256,192,96907,1,8,0:0:0:0:
256,192,97083,1,0,0:0:0:0:
256,192,97260,1,8,0:0:0:0:
256,192,97436,1,8,0:0:0:0:
256,192,97613,1,0,0:0:0:0:
256,192,97965,1,8,0:0:0:0:
256,192,98054,1,0,0:0:0:0:
256,192,98142,1,0,0:0:0:0:
256,192,98230,1,0,0:0:0:0:
256,192,98318,1,8,0:0:0:0:
256,192,98495,1,0,0:0:0:0:
256,192,98671,1,8,0:0:0:0:
256,192,98760,1,0,0:0:0:0:
256,192,98848,1,8,0:0:0:0:
256,192,99024,1,0,0:0:0:0:
256,192,99201,1,8,0:0:0:0:
256,192,99377,1,0,0:0:0:0:
256,192,99465,1,8,0:0:0:0:
256,192,99554,1,8,0:0:0:0:
256,192,99642,1,8,0:0:0:0:
256,192,99730,1,0,0:0:0:0:
256,192,99907,1,8,0:0:0:0:
256,192,100083,1,0,0:0:0:0:
256,192,100171,1,8,0:0:0:0:
256,192,100260,1,0,0:0:0:0:
256,192,100436,1,8,0:0:0:0:
256,192,100613,1,0,0:0:0:0:
256,192,100789,1,8,0:0:0:0:
256,192,100877,1,8,0:0:0:0:
256,192,100965,1,0,0:0:0:0:
256,192,101142,1,0,0:0:0:0:
256,192,101318,1,8,0:0:0:0:
256,192,101495,1,0,0:0:0:0:
256,192,101583,1,0,0:0:0:0:
256,192,101671,1,8,0:0:0:0:
256,192,101848,1,8,0:0:0:0:
256,192,102024,1,0,0:0:0:0:
256,192,102201,1,8,0:0:0:0:
256,192,102377,1,8,0:0:0:0:
256,192,102554,1,8,0:0:0:0:
256,192,102730,1,8,0:0:0:0:
256,192,102907,1,0,0:0:0:0:
256,192,103083,1,8,0:0:0:0:
256,192,103260,1,0,0:0:0:0:
256,192,103613,1,8,0:0:0:0:
256,192,103701,1,8,0:0:0:0:
256,192,103789,1,8,0:0:0:0:
256,192,103877,1,8,0:0:0:0:
256,192,103965,1,0,0:0:0:0:
256,192,104142,1,8,0:0:0:0:
256,192,104318,1,0,0:0:0:0:
256,192,104407,1,0,0:0:0:0:
256,192,104495,1,0,0:0:0:0:
256,192,104671,1,8,0:0:0:0:
256,192,104848,1,8,0:0:0:0:
256,192,105024,1,0,0:0:0:0:
256,192,105113,1,0,0:0:0:0:
256,192,105201,1,0,0:0:0:0:
256,192,105289,1,0,0:0:0:0:
256,192,105377,1,8,0:0:0:0:
256,192,105554,1,0,0:0:0:0:
256,192,105730,1,8,0:0:0:0:
256,192,105818,1,8,0:0:0:0:
256,192,105907,1,8,0:0:0:0:
256,192,106083,1,0,0:0:0:0:
256,192,106260,1,0,0:0:0:0:
256,192,106436,1,8,0:0:0:0:
256,192,106524,1,8,0:0:0:0:
256,192,106613,1,0,0:0:0:0:
256,192,106965,1,8,0:0:0:0:
256,192,107142,1,0,0:0:0:0:
256,192,107230,1,0,0:0:0:0:
256,192,107318,1,8,0:0:0:0:
256,192,107495,1,8,0:0:0:0:
256,192,107671,1,0,0:0:0:0:
256,192,107848,1,8,0:0:0:0:
256,192,108024,1,8,0:0:0:0:
256,192,108201,1,8,0:0:0:0:
256,192,108377,1,0,0:0:0:0:
256,192,108554,1,8,0:0:0:0:
256,192,108730,1,8,0:0:0:0:
256,192,108907,1,0,0:0:0:0:
256,192,109260,1,8,0:0:0:0:
256,192,109348,1,8,0:0:0:0:
256,192,109436,1,0,0:0:0:0:
256,192,109524,1,8,0:0:0:0:
256,192,109613,1,8,0:0:0:0:
256,192,109789,1,0,0:0:0:0:
256,192,109965,1,8,0:0:0:0:
256,192,110054,1,0,0:0:0:0:
256,192,110142,1,8,0:0:0:0:
256,192,110318,1,0,0:0:0:0:
256,192,110495,1,8,0:0:0:0:
256,192,110671,1,0,0:0:0:0:
256,192,110760,1,0,0:0:0:0:
256,192,110848,1,8,0:0:0:0:
256,192,110936,1,0,0:0:0:0:
256,192,111024,1,0,0:0:0:0:
256,192,111201,1,8,0:0:0:0:
256,192,111377,1,0,0:0:0:0:
256,192,111465,1,8,0:0:0:0:
256,192,111554,1,0,0:0:0:0:
256,192,111730,1,8,0:0:0:0:
256,192,111907,1,0,0:0:0:0:
256,192,112083,1,8,0:0:0:0:
256,192,112171,1,8,0:0:0:0:
256,192,112260,1,0,0:0:0:0:
256,192,112436,1,0,0:0:0:0:
256,192,112613,1,8,0:0:0:0:
256,192,112789,1,0,0:0:0:0:
256,192,112877,1,0,0:0:0:0:
256,192,112965,1,8,0:0:0:0:
256,192,113142,1,8,0:0:0:0:
256,192,113318,1,0,0:0:0:0:
256,192,113495,1,8,0:0:0:0:
256,192,113671,1,8,0:0:0:0:
256,192,113848,1,8,0:0:0:0:
256,192,114024,1,8,0:0:0:0:
256,192,114201,1,0,0:0:0:0:
256,192,114377,1,0,0:0:0:0:
256,192,114554,1,8,0:0:0:0:
256,192,114730,1,8,0:0:0:0:
256,192,114907,1,4,0:0:0:0:
256,192,115965,1,8,0:0:0:0:
256,192,120554,1,0,0:0:0:0:
256,192,121613,1,8,0:0:0:0:
256,192,126201,1,4,0:0:0:0:
256,192,126554,1,8,0:0:0:0:
256,192,126730,1,8,0:0:0:0:
256,192,126907,1,0,0:0:0:0:
256,192,127260,1,0,0:0:0:0:
256,192,127436,1,8,0:0:0:0:
256,192,127613,1,8,0:0:0:0:
256,192,127789,1,8,0:0:0:0:
256,192,127965,1,0,0:0:0:0:
256,192,128318,1,8,0:0:0:0:
256,192,128671,1,8,0:0:0:0:
256,192,129024,1,0,0:0:0:0:
256,192,129201,1,0,0:0:0:0:
256,192,129377,1,8,0:0:0:0:
256,192,129730,1,8,0:0:0:0:
256,192,129907,1,8,0:0:0:0:
256,192,130083,1,0,0:0:0:0:
256,192,130436,1,8,0:0:0:0:
256,192,130789,1,0,0:0:0:0:
256,192,131142,1,8,0:0:0:0:
256,192,131495,1,8,0:0:0:0:
256,192,131848,1,0,0:0:0:0:
256,192,132024,1,8,0:0:0:0:
256,192,132201,1,0,0:0:0:0:
256,192,132377,1,0,0:0:0:0:
256,192,132554,1,8,0:0:0:0:
256,192,132730,1,8,0:0:0:0:
256,192,132907,1,0,0:0:0:0:
256,192,133260,1,8,0:0:0:0:
256,192,133436,1,0,0:0:0:0:
256,192,133613,1,8,0:0:0:0:
256,192,133789,1,8,0:0:0:0:
256,192,133965,1,0,0:0:0:0:
256,192,134142,1,0,0:0:0:0:
256,192,134318,1,8,0:0:0:0:
256,192,134671,1,0,0:0:0:0:
256,192,136083,1,8,0:0:0:0:
256,192,136171,1,8,0:0:0:0:
256,192,136260,1,0,0:0:0:0:
256,192,136436,1,8,0:0:0:0:
256,192,136613,1,0,0:0:0:0:
256,192,136701,1,8,0:0:0:0:
256,192,136877,1,8,0:0:0:0:
256,192,136965,1,0,0:0:0:0:
256,192,137142,1,12,0:0:0:0:
256,192,137495,1,4,0:0:0:0:
256,192,137672,1,8,0:0:0:0:
256,192,137760,1,8,0:0:0:0:
256,192,137848,1,0,0:0:0:0:
256,192,138024,1,0,0:0:0:0:
256,192,138201,1,8,0:0:0:0:
256,192,138377,1,0,0:0:0:0:
256,192,138466,1,0,0:0:0:0:
256,192,138554,1,8,0:0:0:0:
256,192,138730,1,8,0:0:0:0:
256,192,138907,1,0,0:0:0:0:
256,192,139083,1,8,0:0:0:0:
256,192,139172,1,8,0:0:0:0:
256,192,139260,1,0,0:0:0:0:
256,192,139436,1,8,0:0:0:0:
256,192,139613,1,0,0:0:0:0:
256,192,139966,1,8,0:0:0:0:
256,192,140319,1,0,0:0:0:0:
256,192,140495,1,8,0:0:0:0:
256,192,140583,1,8,0:0:0:0:
256,192,140672,1,0,0:0:0:0:
256,192,140848,1,0,0:0:0:0:
256,192,141024,1,8,0:0:0:0:
256,192,141201,1,0,0:0:0:0:
256,192,141377,1,8,0:0:0:0:
256,192,141466,1,0,0:0:0:0:
256,192,141554,1,8,0:0:0:0:
256,192,141730,1,0,0:0:0:0:
256,192,141907,1,8,0:0:0:0:
256,192,141995,1,8,0:0:0:0:
256,192,142083,1,0,0:0:0:0:
256,192,142260,1,8,0:0:0:0:
256,192,142436,1,0,0:0:0:0:
256,192,142524,1,0,0:0:0:0:
256,192,142613,1,0,0:0:0:0:
256,192,142701,1,0,0:0:0:0:
256,192,142789,1,8,0:0:0:0:
256,192,142966,1,8,0:0:0:0:
256,192,143142,1,0,0:0:0:0:
256,192,143319,1,8,0:0:0:0:
256,192,143407,1,8,0:0:0:0:
256,192,143495,1,0,0:0:0:0:
256,192,143672,1,0,0:0:0:0:
256,192,143848,1,8,0:0:0:0:
256,192,144024,1,0,0:0:0:0:
256,192,144113,1,0,0:0:0:0:
256,192,144201,1,8,0:0:0:0:
256,192,144377,1,8,0:0:0:0:
256,192,144554,1,0,0:0:0:0:
256,192,144730,1,8,0:0:0:0:
256,192,144819,1,8,0:0:0:0:
256,192,144907,1,0,0:0:0:0:
256,192,145083,1,8,0:0:0:0:
256,192,145260,1,0,0:0:0:0:
256,192,145613,1,8,0:0:0:0:
256,192,145966,1,0,0:0:0:0:
256,192,146142,1,8,0:0:0:0:
256,192,146230,1,8,0:0:0:0:
256,192,146319,1,8,0:0:0:0:
256,192,146495,1,0,0:0:0:0:
256,192,146672,1,8,0:0:0:0:
256,192,146848,1,0,0:0:0:0:
256,192,146936,1,0,0:0:0:0:
256,192,147024,1,0,0:0:0:0:
256,192,147201,1,8,0:0:0:0:
256,192,147377,1,0,0:0:0:0:
256,192,147554,1,8,0:0:0:0:
256,192,147642,1,0,0:0:0:0:
256,192,147730,1,0,0:0:0:0:
256,192,147819,1,0,0:0:0:0:
256,192,147907,1,8,0:0:0:0:
256,192,148083,1,0,0:0:0:0:
256,192,148260,1,0,0:0:0:0:
256,192,148436,1,8,0:0:0:0:
256,192,148789,1,4,0:0:0:0:
256,192,148966,1,8,0:0:0:0:
256,192,149054,1,8,0:0:0:0:
256,192,149142,1,0,0:0:0:0:
256,192,149319,1,0,0:0:0:0:
256,192,149495,1,8,0:0:0:0:
256,192,149672,1,0,0:0:0:0:
256,192,149760,1,0,0:0:0:0:
256,192,149848,1,8,0:0:0:0:
256,192,150024,1,8,0:0:0:0:
256,192,150201,1,0,0:0:0:0:
256,192,150377,1,8,0:0:0:0:
256,192,150466,1,8,0:0:0:0:
256,192,150554,1,0,0:0:0:0:
256,192,150730,1,8,0:0:0:0:
256,192,150907,1,0,0:0:0:0:
256,192,151260,1,8,0:0:0:0:
256,192,151613,1,0,0:0:0:0:
256,192,151789,1,8,0:0:0:0:
256,192,151877,1,8,0:0:0:0:
256,192,151966,1,0,0:0:0:0:
256,192,152142,1,0,0:0:0:0:
256,192,152319,1,8,0:0:0:0:
256,192,152495,1,0,0:0:0:0:
256,192,152672,1,8,0:0:0:0:
256,192,152760,1,0,0:0:0:0:
256,192,152848,1,8,0:0:0:0:
256,192,153024,1,0,0:0:0:0:
256,192,153201,1,8,0:0:0:0:
256,192,153289,1,8,0:0:0:0:
256,192,153377,1,0,0:0:0:0:
256,192,153554,1,8,0:0:0:0:
256,192,153730,1,0,0:0:0:0:
256,192,153819,1,0,0:0:0:0:
256,192,153907,1,0,0:0:0:0:
256,192,153995,1,0,0:0:0:0:
256,192,154083,1,8,0:0:0:0:
256,192,154260,1,8,0:0:0:0:
256,192,154436,1,0,0:0:0:0:
256,192,154613,1,8,0:0:0:0:
256,192,154701,1,8,0:0:0:0:
256,192,154789,1,0,0:0:0:0:
256,192,154966,1,0,0:0:0:0:
256,192,155142,1,8,0:0:0:0:
256,192,155319,1,0,0:0:0:0:
256,192,155407,1,0,0:0:0:0:
256,192,155495,1,8,0:0:0:0:
256,192,155672,1,8,0:0:0:0:
256,192,155848,1,0,0:0:0:0:
256,192,156024,1,8,0:0:0:0:
256,192,156113,1,8,0:0:0:0:
256,192,156201,1,0,0:0:0:0:
256,192,156377,1,8,0:0:0:0:
256,192,156554,1,0,0:0:0:0:
256,192,156907,1,8,0:0:0:0:
256,192,157260,1,0,0:0:0:0:
256,192,157436,1,8,0:0:0:0:
256,192,157524,1,8,0:0:0:0:
256,192,157613,1,8,0:0:0:0:
256,192,157789,1,0,0:0:0:0:
256,192,157966,1,8,0:0:0:0:
256,192,158319,1,0,0:0:0:0:
256,192,158495,1,8,0:0:0:0:
256,192,158848,1,8,0:0:0:0:
256,192,159024,1,0,0:0:0:0:
256,192,159201,1,0,0:0:0:0:
256,192,159377,1,8,0:0:0:0:
256,192,159730,1,0,0:0:0:0:
256,192,160083,1,8,0:0:0:0:
256,192,160171,1,0,0:0:0:0:
256,192,160260,1,0,0:0:0:0:
256,192,160436,1,8,0:0:0:0:
256,192,160524,1,0,0:0:0:0:
256,192,160613,1,0,0:0:0:0:
256,192,160789,1,8,0:0:0:0:
256,192,160877,1,8,0:0:0:0:
256,192,160965,1,0,0:0:0:0:
256,192,161142,1,8,0:0:0:0:
256,192,161230,1,8,0:0:0:0:
256,192,161318,1,0,0:0:0:0:
256,192,161495,1,8,0:0:0:0:
256,192,161848,1,8,0:0:0:0:
256,192,162201,1,8,0:0:0:0:
256,192,162554,1,0,0:0:0:0:
256,192,162907,1,4,0:0:0:0:
256,192,163083,1,8,0:0:0:0:
256,192,163171,1,8,0:0:0:0:
256,192,163260,1,0,0:0:0:0:
256,192,163436,1,0,0:0:0:0:
256,192,163612,1,8,0:0:0:0:
256,192,163789,1,0,0:0:0:0:
256,192,163877,1,0,0:0:0:0:
256,192,163965,1,8,0:0:0:0:
256,192,164054,1,0,0:0:0:0:
256,192,164142,1,8,0:0:0:0:
256,192,164318,1,0,0:0:0:0:
256,192,164495,1,8,0:0:0:0:
256,192,164583,1,8,0:0:0:0:
256,192,164671,1,0,0:0:0:0:
256,192,164848,1,8,0:0:0:0:
256,192,165024,1,0,0:0:0:0:
256,192,165112,1,0,0:0:0:0:
256,192,165201,1,0,0:0:0:0:
256,192,165289,1,0,0:0:0:0:
256,192,165377,1,8,0:0:0:0:
256,192,165554,1,8,0:0:0:0:
256,192,165730,1,0,0:0:0:0:
256,192,165907,1,8,0:0:0:0:
256,192,165995,1,8,0:0:0:0:
256,192,166083,1,0,0:0:0:0:
256,192,166260,1,0,0:0:0:0:
256,192,166436,1,8,0:0:0:0:
256,192,166524,1,0,0:0:0:0:
256,192,166612,1,0,0:0:0:0:
256,192,166701,1,0,0:0:0:0:
256,192,166789,1,8,0:0:0:0:
256,192,166965,1,8,0:0:0:0:
256,192,167142,1,0,0:0:0:0:
256,192,167318,1,8,0:0:0:0:
256,192,167407,1,8,0:0:0:0:
256,192,167495,1,0,0:0:0:0:
256,192,167671,1,8,0:0:0:0:
256,192,167848,1,0,0:0:0:0:
256,192,168201,1,8,0:0:0:0:
256,192,168554,1,0,0:0:0:0:
256,192,168730,1,8,0:0:0:0:
256,192,168818,1,8,0:0:0:0:
256,192,168907,1,8,0:0:0:0:
256,192,169083,1,0,0:0:0:0:
256,192,169260,1,8,0:0:0:0:
256,192,169612,1,0,0:0:0:0:
256,192,169789,1,8,0:0:0:0:
256,192,170142,1,8,0:0:0:0:
256,192,170318,1,0,0:0:0:0:
256,192,170495,1,0,0:0:0:0:
256,192,170671,1,8,0:0:0:0:
256,192,170789,1,8,0:0:0:0:
256,192,170907,1,8,0:0:0:0:
256,192,171024,1,0,0:0:0:0:
256,192,171377,1,4,0:0:0:0:
256,192,171554,1,8,0:0:0:0:
256,192,171642,1,8,0:0:0:0:
256,192,171730,1,0,0:0:0:0:
256,192,171907,1,0,0:0:0:0:
256,192,172083,1,8,0:0:0:0:
256,192,172171,1,0,0:0:0:0:
256,192,172260,1,0,0:0:0:0:
256,192,172348,1,0,0:0:0:0:
256,192,172436,1,8,0:0:0:0:
256,192,172612,1,8,0:0:0:0:
256,192,172789,1,0,0:0:0:0:
256,192,172965,1,8,0:0:0:0:
256,192,173054,1,8,0:0:0:0:
256,192,173142,1,0,0:0:0:0:
256,192,173318,1,8,0:0:0:0:
256,192,173495,1,0,0:0:0:0:
256,192,173848,1,8,0:0:0:0:
256,192,174201,1,0,0:0:0:0:
256,192,174377,1,8,0:0:0:0:
256,192,174465,1,8,0:0:0:0:
256,192,174554,1,0,0:0:0:0:
256,192,174730,1,0,0:0:0:0:
256,192,174907,1,8,0:0:0:0:
256,192,175083,1,0,0:0:0:0:
256,192,175171,1,0,0:0:0:0:
256,192,175260,1,8,0:0:0:0:
256,192,175348,1,0,0:0:0:0:
256,192,175436,1,8,0:0:0:0:
256,192,175612,1,0,0:0:0:0:
256,192,175789,1,8,0:0:0:0:
256,192,175877,1,8,0:0:0:0:
256,192,175965,1,0,0:0:0:0:
256,192,176142,1,8,0:0:0:0:
256,192,176318,1,0,0:0:0:0:
256,192,176407,1,0,0:0:0:0:
256,192,176495,1,0,0:0:0:0:
256,192,176583,1,0,0:0:0:0:
256,192,176671,1,8,0:0:0:0:
256,192,176848,1,8,0:0:0:0:
256,192,177024,1,0,0:0:0:0:
256,192,177201,1,8,0:0:0:0:
256,192,177289,1,8,0:0:0:0:
256,192,177377,1,0,0:0:0:0:
256,192,177554,1,0,0:0:0:0:
256,192,177730,1,8,0:0:0:0:
256,192,177818,1,0,0:0:0:0:
256,192,177907,1,0,0:0:0:0:
256,192,177995,1,0,0:0:0:0:
256,192,178083,1,8,0:0:0:0:
256,192,178260,1,8,0:0:0:0:
256,192,178436,1,0,0:0:0:0:
256,192,178612,1,8,0:0:0:0:
256,192,178701,1,8,0:0:0:0:
256,192,178789,1,0,0:0:0:0:
256,192,178965,1,8,0:0:0:0:
256,192,179142,1,0,0:0:0:0:
256,192,179495,1,8,0:0:0:0:
256,192,179848,1,0,0:0:0:0:
256,192,180024,1,8,0:0:0:0:
256,192,180112,1,8,0:0:0:0:
256,192,180201,1,8,0:0:0:0:
256,192,180377,1,0,0:0:0:0:
256,192,180554,1,8,0:0:0:0:
256,192,180907,1,0,0:0:0:0:
256,192,181083,1,8,0:0:0:0:
256,192,181436,1,8,0:0:0:0:
256,192,181612,1,0,0:0:0:0:
256,192,181789,1,0,0:0:0:0:
256,192,181965,1,8,0:0:0:0:
256,192,182318,1,8,0:0:0:0:
256,192,182671,1,4,0:0:0:0:
