osu file format v14

[General]
AudioFilename: audio.mp3
AudioLeadIn: 0
PreviewTime: 92296
Countdown: 0
SampleSet: Normal
StackLeniency: 0
Mode: 1
LetterboxInBreaks: 0
WidescreenStoryboard: 0

[Editor]
Bookmarks: 13260,35848,58436,81024,92318,114907,137495,182671
DistanceSpacing: 1.3
BeatDivisor: 4
GridSize: 32
TimelineZoom: 2.76

[Metadata]
Title:DERO
TitleUnicode:DERO
Artist:DUSTCELL
ArtistUnicode:DUSTCELL
Creator:Genjuro
Version:MUZUKASHII
Source:
Tags:EMA E MA Misumi Kamitsubaki Studio Japanese Hip Hop Hip-Hop
BeatmapID:3034889
BeatmapSetID:1478599

[Difficulty]
HPDrainRate:5
CircleSize:2
OverallDifficulty:5
ApproachRate:10
SliderMultiplier:1.4
SliderTickRate:1

[Events]
//Background and Video events
0,0,"bg.jpg",0,0
//Break Periods
//Storyboard Layer 0 (Background)
//Storyboard Layer 1 (Fail)
//Storyboard Layer 2 (Pass)
//Storyboard Layer 3 (Foreground)
//Storyboard Layer 4 (Overlay)
//Storyboard Sound Samples

[TimingPoints]
555,352.941176470588,4,1,0,50,1,8
1966,352.941176470588,4,1,0,50,1,0
13230,-100,4,1,0,65,0,0
36024,-100,4,1,0,50,0,0
47098,-100,4,1,0,65,0,0
58392,-100,4,1,0,80,0,0
81201,-100,4,1,0,50,0,0
92274,-100,4,1,0,80,0,0
92318,-100,4,1,0,80,0,1
114907,-100,4,1,0,80,0,0
115083,-100,4,1,0,50,0,0
126157,-100,4,1,0,65,0,0
137098,-100,4,1,0,80,0,0

[HitObjects]
256,192,1966,5,0,0:0:0:0:
256,192,2671,1,8,0:0:0:0:
256,192,3024,1,0,0:0:0:0:
256,192,3201,1,0,0:0:0:0:
256,192,3377,1,0,0:0:0:0:
256,192,3554,1,8,0:0:0:0:
256,192,3730,1,0,0:0:0:0:
256,192,4083,1,8,0:0:0:0:
256,192,4436,1,0,0:0:0:0:
256,192,4613,1,8,0:0:0:0:
256,192,4789,1,0,0:0:0:0:
256,192,5495,1,8,0:0:0:0:
256,192,5848,1,0,0:0:0:0:
256,192,6024,1,0,0:0:0:0:
256,192,6201,1,8,0:0:0:0:
256,192,6377,1,8,0:0:0:0:
256,192,6554,1,0,0:0:0:0:
256,192,6907,1,8,0:0:0:0:
256,192,7260,1,0,0:0:0:0:
256,192,7436,1,8,0:0:0:0:
256,192,7613,1,0,0:0:0:0:
256,192,8318,1,8,0:0:0:0:
256,192,8671,1,0,0:0:0:0:
256,192,8848,1,0,0:0:0:0:
256,192,9024,1,0,0:0:0:0:
256,192,9201,1,8,0:0:0:0:
256,192,9377,1,0,0:0:0:0:
256,192,9730,1,8,0:0:0:0:
256,192,10083,1,0,0:0:0:0:
256,192,10260,1,8,0:0:0:0:
256,192,12554,1,8,0:0:0:0:
256,192,12730,1,0,0:0:0:0:
256,192,12907,1,8,0:0:0:0:
256,192,13260,1,4,0:0:0:0:
256,192,13613,1,8,0:0:0:0:
256,192,13789,1,8,0:0:0:0:
256,192,13965,1,0,0:0:0:0:
256,192,14142,1,8,0:0:0:0:
256,192,14318,1,8,0:0:0:0:
256,192,14671,1,0,0:0:0:0:
256,192,14848,1,0,0:0:0:0:
256,192,15024,1,8,0:0:0:0:
256,192,15377,1,8,0:0:0:0:
256,192,15554,1,8,0:0:0:0:
256,192,15730,1,0,0:0:0:0:
256,192,16083,1,8,0:0:0:0:
256,192,16436,1,0,0:0:0:0:
256,192,16613,1,0,0:0:0:0:
256,192,16789,1,8,0:0:0:0:
256,192,16965,1,0,0:0:0:0:
256,192,17142,1,0,0:0:0:0:
256,192,17495,1,8,0:0:0:0:
256,192,17671,1,8,0:0:0:0:
256,192,17848,1,0,0:0:0:0:
256,192,18201,1,8,0:0:0:0:
256,192,18907,1,0,0:0:0:0:
256,192,19260,1,8,0:0:0:0:
256,192,19436,1,0,0:0:0:0:
256,192,19613,1,8,0:0:0:0:
256,192,19789,1,8,0:0:0:0:
256,192,19965,1,0,0:0:0:0:
256,192,20318,1,8,0:0:0:0:
256,192,20495,1,0,0:0:0:0:
256,192,20671,1,8,0:0:0:0:
256,192,21024,1,0,0:0:0:0:
256,192,21201,1,8,0:0:0:0:
256,192,21377,1,0,0:0:0:0:
256,192,21730,1,8,0:0:0:0:
256,192,22083,1,0,0:0:0:0:
256,192,22260,1,8,0:0:0:0:
256,192,22436,1,8,0:0:0:0:
256,192,22613,1,8,0:0:0:0:
256,192,22789,1,0,0:0:0:0:
256,192,23142,1,8,0:0:0:0:
256,192,23318,1,0,0:0:0:0:
256,192,23495,1,0,0:0:0:0:
256,192,23671,1,0,0:0:0:0:
256,192,23848,1,8,0:0:0:0:
256,192,24554,1,4,0:0:0:0:
256,192,24907,1,8,0:0:0:0:
256,192,25083,1,0,0:0:0:0:
256,192,25260,1,8,0:0:0:0:
256,192,25613,1,0,0:0:0:0:
256,192,25965,1,8,0:0:0:0:
256,192,26142,1,8,0:0:0:0:
256,192,26318,1,0,0:0:0:0:
256,192,26495,1,8,0:0:0:0:
256,192,26671,1,0,0:0:0:0:
256,192,27024,1,0,0:0:0:0:
256,192,27377,1,8,0:0:0:0:
256,192,27730,1,0,0:0:0:0:
256,192,27907,1,8,0:0:0:0:
256,192,28083,1,0,0:0:0:0:
256,192,28260,1,8,0:0:0:0:
256,192,28436,1,0,0:0:0:0:
256,192,28789,1,8,0:0:0:0:
256,192,28965,1,8,0:0:0:0:
256,192,29142,1,0,0:0:0:0:
256,192,29495,1,8,0:0:0:0:
256,192,30201,1,0,0:0:0:0:
256,192,30554,1,8,0:0:0:0:
256,192,30907,1,0,0:0:0:0:
256,192,31083,1,0,0:0:0:0:
256,192,31260,1,8,0:0:0:0:
256,192,31436,1,8,0:0:0:0:
256,192,31613,1,0,0:0:0:0:
256,192,31965,1,8,0:0:0:0:
256,192,32318,1,0,0:0:0:0:
256,192,32495,1,8,0:0:0:0:
256,192,32671,1,8,0:0:0:0:
256,192,32848,1,8,0:0:0:0:
256,192,33024,1,0,0:0:0:0:
256,192,33377,1,8,0:0:0:0:
256,192,33730,1,0,0:0:0:0:
256,192,33907,1,0,0:0:0:0:
256,192,34083,1,8,0:0:0:0:
256,192,34260,1,8,0:0:0:0:
256,192,34436,1,0,0:0:0:0:
256,192,34789,1,8,0:0:0:0:
256,192,35142,1,8,0:0:0:0:
256,192,35318,1,8,0:0:0:0:
256,192,35495,1,8,0:0:0:0:
256,192,35848,1,4,0:0:0:0:
256,192,36201,1,8,0:0:0:0:
256,192,36907,1,0,0:0:0:0:
256,192,37613,1,8,0:0:0:0:
256,192,38671,1,0,0:0:0:0:
256,192,39024,1,8,0:0:0:0:
256,192,39377,1,0,0:0:0:0:
256,192,39554,1,0,0:0:0:0:
256,192,39730,1,0,0:0:0:0:
256,192,40083,1,8,0:0:0:0:
256,192,40436,1,8,0:0:0:0:
256,192,40789,1,0,0:0:0:0:
256,192,41495,1,0,0:0:0:0:
256,192,41848,1,8,0:0:0:0:
256,192,42554,1,0,0:0:0:0:
256,192,43260,1,8,0:0:0:0:
256,192,44318,1,0,0:0:0:0:
256,192,44671,1,8,0:0:0:0:
256,192,45024,1,0,0:0:0:0:
256,192,45201,1,0,0:0:0:0:
256,192,45377,1,0,0:0:0:0:
256,192,45730,1,8,0:0:0:0:
256,192,45907,1,8,0:0:0:0:
256,192,46083,1,8,0:0:0:0:
256,192,46436,1,0,0:0:0:0:
256,192,47142,1,4,0:0:0:0:
256,192,47495,1,8,0:0:0:0:
256,192,47671,1,0,0:0:0:0:
256,192,47848,1,0,0:0:0:0:
256,192,48201,1,8,0:0:0:0:
256,192,48554,1,0,0:0:0:0:
256,192,48730,1,0,0:0:0:0:
256,192,48907,1,0,0:0:0:0:
256,192,49260,1,8,0:0:0:0:
256,192,49965,1,0,0:0:0:0:
256,192,50318,1,8,0:0:0:0:
256,192,50495,1,0,0:0:0:0:
256,192,50671,1,0,0:0:0:0:
256,192,50848,1,0,0:0:0:0:
256,192,51024,1,8,0:0:0:0:
256,192,51377,1,0,0:0:0:0:
256,192,51554,1,8,0:0:0:0:
256,192,51730,1,0,0:0:0:0:
256,192,52083,1,8,0:0:0:0:
256,192,52789,1,0,0:0:0:0:
256,192,52965,1,0,0:0:0:0:
256,192,53142,1,8,0:0:0:0:
256,192,53495,1,8,0:0:0:0:
256,192,53671,1,8,0:0:0:0:
256,192,53848,1,0,0:0:0:0:
256,192,54201,1,0,0:0:0:0:
256,192,54377,1,0,0:0:0:0:
256,192,54554,1,8,0:0:0:0:
256,192,54730,1,0,0:0:0:0:
256,192,54907,1,0,0:0:0:0:
256,192,55260,1,8,0:0:0:0:
256,192,55613,1,0,0:0:0:0:
256,192,57024,1,0,0:0:0:0:
256,192,57377,1,8,0:0:0:0:
256,192,57554,1,0,0:0:0:0:
256,192,57642,1,0,0:0:0:0:
256,192,57818,1,0,0:0:0:0:
256,192,57907,1,0,0:0:0:0:
256,192,58083,1,8,0:0:0:0:
256,192,58436,1,4,0:0:0:0:
256,192,58789,1,8,0:0:0:0:
256,192,58965,1,0,0:0:0:0:
256,192,59142,1,8,0:0:0:0:
256,192,59318,1,0,0:0:0:0:
256,192,59407,1,0,0:0:0:0:
256,192,59495,1,0,0:0:0:0:
256,192,59671,1,8,0:0:0:0:
256,192,60024,1,8,0:0:0:0:
256,192,60201,1,0,0:0:0:0:
256,192,60377,1,8,0:0:0:0:
256,192,60554,1,8,0:0:0:0:
256,192,60907,1,8,0:0:0:0:
256,192,61260,1,0,0:0:0:0:
256,192,61613,1,8,0:0:0:0:
256,192,61789,1,0,0:0:0:0:
256,192,61965,1,8,0:0:0:0:
256,192,62142,1,0,0:0:0:0:
256,192,62230,1,0,0:0:0:0:
256,192,62318,1,0,0:0:0:0:
256,192,62495,1,8,0:0:0:0:
256,192,62848,1,0,0:0:0:0:
256,192,63024,1,8,0:0:0:0:
256,192,63113,1,8,0:0:0:0:
256,192,63201,1,8,0:0:0:0:
256,192,63377,1,0,0:0:0:0:
256,192,64083,1,0,0:0:0:0:
256,192,64436,1,8,0:0:0:0:
256,192,64613,1,0,0:0:0:0:
256,192,64789,1,8,0:0:0:0:
256,192,64965,1,0,0:0:0:0:
256,192,65054,1,0,0:0:0:0:
256,192,65142,1,0,0:0:0:0:
256,192,65318,1,8,0:0:0:0:
256,192,65671,1,8,0:0:0:0:
256,192,65848,1,0,0:0:0:0:
256,192,66024,1,8,0:0:0:0:
256,192,66201,1,8,0:0:0:0:
256,192,66554,1,8,0:0:0:0:
256,192,66907,1,0,0:0:0:0:
256,192,67083,1,8,0:0:0:0:
256,192,67260,1,0,0:0:0:0:
256,192,67348,1,0,0:0:0:0:
256,192,67436,1,0,0:0:0:0:
256,192,67613,1,8,0:0:0:0:
256,192,67789,1,8,0:0:0:0:
256,192,67965,1,0,0:0:0:0:
256,192,68318,1,8,0:0:0:0:
256,192,68495,1,0,0:0:0:0:
256,192,68671,1,8,0:0:0:0:
256,192,68760,1,8,0:0:0:0:
256,192,68848,1,8,0:0:0:0:
256,192,69024,1,0,0:0:0:0:
256,192,69730,1,4,0:0:0:0:
256,192,70083,1,8,0:0:0:0:
256,192,70260,1,0,0:0:0:0:
256,192,70436,1,8,0:0:0:0:
256,192,70613,1,0,0:0:0:0:
256,192,70701,1,0,0:0:0:0:
256,192,70789,1,0,0:0:0:0:
256,192,70965,1,8,0:0:0:0:
256,192,71318,1,8,0:0:0:0:
256,192,71495,1,0,0:0:0:0:
256,192,71671,1,8,0:0:0:0:
256,192,71848,1,8,0:0:0:0:
256,192,72201,1,8,0:0:0:0:
256,192,72554,1,0,0:0:0:0:
256,192,72907,1,8,0:0:0:0:
256,192,73083,1,0,0:0:0:0:
256,192,73260,1,8,0:0:0:0:
256,192,73436,1,0,0:0:0:0:
256,192,73524,1,0,0:0:0:0:
256,192,73613,1,0,0:0:0:0:
256,192,73789,1,8,0:0:0:0:
256,192,74142,1,0,0:0:0:0:
256,192,74318,1,8,0:0:0:0:
256,192,74407,1,8,0:0:0:0:
256,192,74495,1,8,0:0:0:0:
256,192,74671,1,0,0:0:0:0:
256,192,75377,1,0,0:0:0:0:
256,192,75730,1,8,0:0:0:0:
256,192,75907,1,0,0:0:0:0:
256,192,76083,1,8,0:0:0:0:
256,192,76260,1,0,0:0:0:0:
256,192,76348,1,0,0:0:0:0:
256,192,76436,1,0,0:0:0:0:
256,192,76613,1,8,0:0:0:0:
256,192,76965,1,8,0:0:0:0:
256,192,77142,1,0,0:0:0:0:
256,192,77318,1,8,0:0:0:0:
256,192,77495,1,8,0:0:0:0:
256,192,77848,1,8,0:0:0:0:
256,192,78201,1,0,0:0:0:0:
256,192,78377,1,8,0:0:0:0:
256,192,78554,1,0,0:0:0:0:
256,192,78642,1,0,0:0:0:0:
256,192,78730,1,0,0:0:0:0:
256,192,78907,1,8,0:0:0:0:
256,192,79083,1,8,0:0:0:0:
256,192,79260,1,0,0:0:0:0:
256,192,79613,1,8,0:0:0:0:
256,192,79789,1,0,0:0:0:0:
256,192,79965,1,8,0:0:0:0:
256,192,80054,1,8,0:0:0:0:
256,192,80142,1,8,0:0:0:0:
256,192,80318,1,0,0:0:0:0:
256,192,80495,1,0,0:0:0:0:
256,192,80671,1,8,0:0:0:0:
256,192,81024,1,4,0:0:0:0:
256,192,81730,1,8,0:0:0:0:
256,192,82260,1,0,0:0:0:0:
256,192,82789,1,0,0:0:0:0:
256,192,83142,1,8,0:0:0:0:
256,192,83848,1,0,0:0:0:0:
256,192,84377,1,0,0:0:0:0:
256,192,84554,1,8,0:0:0:0:
256,192,85083,1,0,0:0:0:0:
256,192,85613,1,0,0:0:0:0:
256,192,85965,1,8,0:0:0:0:
256,192,86142,1,8,0:0:0:0:
256,192,86318,1,8,0:0:0:0:
256,192,86671,1,0,0:0:0:0:
256,192,87377,1,8,0:0:0:0:
256,192,87907,1,0,0:0:0:0:
256,192,88436,1,0,0:0:0:0:
256,192,88789,1,8,0:0:0:0:
256,192,89495,1,0,0:0:0:0:
256,192,90024,1,0,0:0:0:0:
256,192,90201,1,8,0:0:0:0:
256,192,90377,1,0,0:0:0:0:
256,192,90554,1,0,0:0:0:0:
256,192,90730,1,8,0:0:0:0:
256,192,92318,1,0,0:0:0:0:
256,192,92495,1,8,0:0:0:0:
256,192,92583,1,8,0:0:0:0:
256,192,92671,1,8,0:0:0:0:
256,192,92848,1,0,0:0:0:0:
256,192,93024,1,8,0:0:0:0:
256,192,93201,1,8,0:0:0:0:
256,192,93377,1,0,0:0:0:0:
256,192,93730,1,8,0:0:0:0:
256,192,93907,1,0,0:0:0:0:
256,192,93995,1,0,0:0:0:0:
256,192,94083,1,0,0:0:0:0:
256,192,94260,1,8,0:0:0:0:
256,192,94436,1,0,0:0:0:0:
256,192,94613,1,0,0:0:0:0:
256,192,94789,1,8,0:0:0:0:
256,192,95142,1,0,0:0:0:0:
256,192,95318,1,8,0:0:0:0:
256,192,95407,1,8,0:0:0:0:
256,192,95495,1,8,0:0:0:0:
256,192,95671,1,0,0:0:0:0:
256,192,95760,1,0,0:0:0:0:
256,192,95848,1,0,0:0:0:0:
256,192,96024,1,8,0:0:0:0:
256,192,96201,1,0,0:0:0:0:
256,192,96554,1,8,0:0:0:0:
256,192,96730,1,8,0:0:0:0:
256,192,96907,1,0,0:0:0:0:
256,192,97083,1,0,0:0:0:0:
256,192,97260,1,8,0:0:0:0:
256,192,97436,1,0,0:0:0:0:
256,192,97965,1,0,0:0:0:0:
256,192,98142,1,8,0:0:0:0:
256,192,98230,1,8,0:0:0:0:
256,192,98318,1,8,0:0:0:0:
256,192,98495,1,0,0:0:0:0:
256,192,98671,1,0,0:0:0:0:
256,192,98848,1,8,0:0:0:0:
256,192,99024,1,0,0:0:0:0:
256,192,99377,1,8,0:0:0:0:
256,192,99554,1,0,0:0:0:0:
256,192,99642,1,0,0:0:0:0:
256,192,99730,1,0,0:0:0:0:
256,192,99907,1,8,0:0:0:0:
256,192,100083,1,8,0:0:0:0:
256,192,100260,1,0,0:0:0:0:
256,192,100436,1,8,0:0:0:0:
256,192,100789,1,0,0:0:0:0:
256,192,100965,1,8,0:0:0:0:
256,192,101054,1,8,0:0:0:0:
256,192,101142,1,8,0:0:0:0:
256,192,101318,1,0,0:0:0:0:
256,192,101407,1,0,0:0:0:0:
256,192,101495,1,0,0:0:0:0:
256,192,101671,1,8,0:0:0:0:
256,192,101848,1,8,0:0:0:0:
256,192,102201,1,8,0:0:0:0:
256,192,102377,1,8,0:0:0:0:
256,192,102554,1,8,0:0:0:0:
256,192,102730,1,0,0:0:0:0:
256,192,102907,1,8,0:0:0:0:
256,192,103083,1,0,0:0:0:0:
256,192,103613,1,4,0:0:0:0:
256,192,103789,1,8,0:0:0:0:
256,192,103877,1,8,0:0:0:0:
256,192,103965,1,8,0:0:0:0:
256,192,104142,1,0,0:0:0:0:
256,192,104318,1,8,0:0:0:0:
256,192,104407,1,8,0:0:0:0:
256,192,104495,1,8,0:0:0:0:
256,192,104671,1,0,0:0:0:0:
256,192,105024,1,8,0:0:0:0:
256,192,105201,1,0,0:0:0:0:
256,192,105289,1,0,0:0:0:0:
256,192,105377,1,0,0:0:0:0:
256,192,105554,1,8,0:0:0:0:
256,192,105730,1,0,0:0:0:0:
256,192,105818,1,0,0:0:0:0:
256,192,105907,1,0,0:0:0:0:
256,192,106083,1,8,0:0:0:0:
256,192,106436,1,0,0:0:0:0:
256,192,106613,1,8,0:0:0:0:
256,192,106965,1,8,0:0:0:0:
256,192,107142,1,0,0:0:0:0:
256,192,107318,1,0,0:0:0:0:
256,192,107495,1,8,0:0:0:0:
256,192,107848,1,8,0:0:0:0:
256,192,108024,1,8,0:0:0:0:
256,192,108201,1,0,0:0:0:0:
256,192,108377,1,8,0:0:0:0:
256,192,108554,1,8,0:0:0:0:
256,192,108730,1,0,0:0:0:0:
256,192,109260,1,0,0:0:0:0:
256,192,109436,1,8,0:0:0:0:
256,192,109524,1,8,0:0:0:0:
256,192,109613,1,8,0:0:0:0:
256,192,109789,1,8,0:0:0:0:
256,192,109965,1,0,0:0:0:0:
256,192,110054,1,0,0:0:0:0:
256,192,110142,1,0,0:0:0:0:
256,192,110318,1,8,0:0:0:0:
256,192,110671,1,8,0:0:0:0:
256,192,110848,1,0,0:0:0:0:
256,192,110936,1,0,0:0:0:0:
256,192,111024,1,0,0:0:0:0:
256,192,111201,1,0,0:0:0:0:
256,192,111377,1,8,0:0:0:0:
256,192,111465,1,8,0:0:0:0:
256,192,111554,1,8,0:0:0:0:
256,192,111730,1,0,0:0:0:0:
256,192,112083,1,0,0:0:0:0:
256,192,112260,1,8,0:0:0:0:
256,192,112348,1,8,0:0:0:0:
256,192,112436,1,8,0:0:0:0:
256,192,112613,1,0,0:0:0:0:
256,192,112701,1,0,0:0:0:0:
256,192,112789,1,0,0:0:0:0:
256,192,112965,1,8,0:0:0:0:
256,192,113142,1,0,0:0:0:0:
256,192,113495,1,8,0:0:0:0:
256,192,113671,1,8,0:0:0:0:
256,192,113848,1,0,0:0:0:0:
256,192,114024,1,0,0:0:0:0:
256,192,114201,1,8,0:0:0:0:
256,192,114377,1,0,0:0:0:0:
256,192,114554,1,8,0:0:0:0:
256,192,114907,1,4,0:0:0:0:
256,192,115965,1,8,0:0:0:0:
256,192,120554,1,0,0:0:0:0:
256,192,121613,1,8,0:0:0:0:
256,192,126201,1,4,0:0:0:0:
256,192,126554,1,8,0:0:0:0:
256,192,126730,1,8,0:0:0:0:
256,192,126907,1,0,0:0:0:0:
256,192,127260,1,8,0:0:0:0:
256,192,127613,1,0,0:0:0:0:
256,192,127789,1,0,0:0:0:0:
256,192,127966,1,0,0:0:0:0:
256,192,128319,1,8,0:0:0:0:
256,192,129024,1,0,0:0:0:0:
256,192,129377,1,8,0:0:0:0:
256,192,129554,1,8,0:0:0:0:
256,192,129730,1,0,0:0:0:0:
256,192,129907,1,0,0:0:0:0:
256,192,130083,1,8,0:0:0:0:
256,192,130436,1,0,0:0:0:0:
256,192,130613,1,8,0:0:0:0:
256,192,130789,1,0,0:0:0:0:
256,192,131142,1,8,0:0:0:0:
256,192,131848,1,0,0:0:0:0:
256,192,132024,1,0,0:0:0:0:
256,192,132201,1,8,0:0:0:0:
256,192,132554,1,8,0:0:0:0:
256,192,132730,1,8,0:0:0:0:
256,192,132907,1,0,0:0:0:0:
256,192,133260,1,0,0:0:0:0:
256,192,133436,1,8,0:0:0:0:
256,192,133613,1,8,0:0:0:0:
256,192,133789,1,8,0:0:0:0:
256,192,133966,1,0,0:0:0:0:
256,192,134319,1,8,0:0:0:0:
256,192,134672,1,0,0:0:0:0:
256,192,136083,1,0,0:0:0:0:
256,192,136436,1,8,0:0:0:0:
256,192,136613,1,0,0:0:0:0:
256,192,136701,1,0,0:0:0:0:
256,192,136877,1,0,0:0:0:0:
256,192,136966,1,0,0:0:0:0:
256,192,137142,1,12,0:0:0:0:
256,192,137495,1,4,0:0:0:0:
256,192,137848,1,8,0:0:0:0:
256,192,138024,1,0,0:0:0:0:
256,192,138201,1,8,0:0:0:0:
256,192,138377,1,0,0:0:0:0:
256,192,138466,1,0,0:0:0:0:
256,192,138554,1,0,0:0:0:0:
256,192,138730,1,8,0:0:0:0:
256,192,139083,1,8,0:0:0:0:
256,192,139260,1,0,0:0:0:0:
256,192,139436,1,8,0:0:0:0:
256,192,139613,1,8,0:0:0:0:
256,192,139966,1,8,0:0:0:0:
256,192,140319,1,0,0:0:0:0:
256,192,140672,1,8,0:0:0:0:
256,192,140848,1,0,0:0:0:0:
256,192,141024,1,8,0:0:0:0:
256,192,141201,1,0,0:0:0:0:
256,192,141289,1,0,0:0:0:0:
256,192,141377,1,0,0:0:0:0:
256,192,141554,1,8,0:0:0:0:
256,192,141907,1,0,0:0:0:0:
256,192,142083,1,8,0:0:0:0:
256,192,142172,1,8,0:0:0:0:
256,192,142260,1,8,0:0:0:0:
256,192,142436,1,0,0:0:0:0:
256,192,143142,1,0,0:0:0:0:
256,192,143495,1,8,0:0:0:0:
256,192,143672,1,0,0:0:0:0:
256,192,143848,1,8,0:0:0:0:
256,192,144024,1,0,0:0:0:0:
256,192,144113,1,0,0:0:0:0:
256,192,144201,1,0,0:0:0:0:
256,192,144377,1,8,0:0:0:0:
256,192,144730,1,8,0:0:0:0:
256,192,144907,1,0,0:0:0:0:
256,192,145083,1,8,0:0:0:0:
256,192,145260,1,8,0:0:0:0:
256,192,145613,1,8,0:0:0:0:
256,192,145966,1,0,0:0:0:0:
256,192,146142,1,8,0:0:0:0:
256,192,146319,1,0,0:0:0:0:
256,192,146407,1,0,0:0:0:0:
256,192,146495,1,0,0:0:0:0:
256,192,146672,1,8,0:0:0:0:
256,192,146848,1,8,0:0:0:0:
256,192,147024,1,0,0:0:0:0:
256,192,147377,1,8,0:0:0:0:
256,192,147554,1,0,0:0:0:0:
256,192,147730,1,8,0:0:0:0:
256,192,147819,1,8,0:0:0:0:
256,192,147907,1,8,0:0:0:0:
256,192,148083,1,0,0:0:0:0:
256,192,148789,1,4,0:0:0:0:
256,192,149142,1,8,0:0:0:0:
256,192,149319,1,0,0:0:0:0:
256,192,149495,1,8,0:0:0:0:
256,192,149672,1,0,0:0:0:0:
256,192,149760,1,0,0:0:0:0:
256,192,149848,1,0,0:0:0:0:
256,192,150024,1,8,0:0:0:0:
256,192,150377,1,8,0:0:0:0:
256,192,150554,1,0,0:0:0:0:
256,192,150730,1,8,0:0:0:0:
256,192,150907,1,8,0:0:0:0:
256,192,151260,1,8,0:0:0:0:
256,192,151613,1,0,0:0:0:0:
256,192,151966,1,8,0:0:0:0:
256,192,152142,1,0,0:0:0:0:
256,192,152319,1,8,0:0:0:0:
256,192,152495,1,0,0:0:0:0:
256,192,152583,1,0,0:0:0:0:
256,192,152672,1,0,0:0:0:0:
256,192,152848,1,8,0:0:0:0:
256,192,153201,1,0,0:0:0:0:
256,192,153377,1,8,0:0:0:0:
256,192,153466,1,8,0:0:0:0:
256,192,153554,1,8,0:0:0:0:
256,192,153730,1,0,0:0:0:0:
256,192,154436,1,0,0:0:0:0:
256,192,154789,1,8,0:0:0:0:
256,192,154966,1,0,0:0:0:0:
256,192,155142,1,8,0:0:0:0:
256,192,155319,1,0,0:0:0:0:
256,192,155407,1,0,0:0:0:0:
256,192,155495,1,0,0:0:0:0:
256,192,155672,1,8,0:0:0:0:
256,192,156024,1,8,0:0:0:0:
256,192,156201,1,0,0:0:0:0:
256,192,156377,1,8,0:0:0:0:
256,192,156554,1,8,0:0:0:0:
256,192,156907,1,8,0:0:0:0:
256,192,157260,1,0,0:0:0:0:
256,192,157436,1,8,0:0:0:0:
256,192,157613,1,0,0:0:0:0:
256,192,157966,1,8,0:0:0:0:
256,192,158319,1,0,0:0:0:0:
256,192,158495,1,8,0:0:0:0:
256,192,158848,1,8,0:0:0:0:
256,192,159024,1,0,0:0:0:0:
256,192,159377,1,8,0:0:0:0:
256,192,160083,1,8,0:0:0:0:
256,192,160171,1,8,0:0:0:0:
256,192,160260,1,8,0:0:0:0:
256,192,160436,1,0,0:0:0:0:
256,192,160524,1,0,0:0:0:0:
256,192,160613,1,0,0:0:0:0:
256,192,160789,1,8,0:0:0:0:
256,192,160877,1,8,0:0:0:0:
256,192,160965,1,8,0:0:0:0:
256,192,161142,1,0,0:0:0:0:
256,192,161230,1,0,0:0:0:0:
256,192,161318,1,0,0:0:0:0:
256,192,161495,1,8,0:0:0:0:
256,192,161848,1,8,0:0:0:0:
256,192,162201,1,8,0:0:0:0:
256,192,162907,1,4,0:0:0:0:
256,192,163260,1,8,0:0:0:0:
256,192,163436,1,0,0:0:0:0:
256,192,163612,1,8,0:0:0:0:
256,192,163789,1,0,0:0:0:0:
256,192,163877,1,0,0:0:0:0:
256,192,163965,1,0,0:0:0:0:
256,192,164142,1,8,0:0:0:0:
256,192,164495,1,0,0:0:0:0:
256,192,164671,1,8,0:0:0:0:
256,192,164760,1,8,0:0:0:0:
256,192,164848,1,8,0:0:0:0:
256,192,165024,1,0,0:0:0:0:
256,192,165730,1,0,0:0:0:0:
256,192,166083,1,8,0:0:0:0:
256,192,166260,1,0,0:0:0:0:
256,192,166436,1,8,0:0:0:0:
256,192,166612,1,0,0:0:0:0:
256,192,166701,1,0,0:0:0:0:
256,192,166789,1,0,0:0:0:0:
256,192,166965,1,8,0:0:0:0:
256,192,167318,1,8,0:0:0:0:
256,192,167495,1,0,0:0:0:0:
256,192,167671,1,8,0:0:0:0:
256,192,167760,1,8,0:0:0:0:
256,192,167848,1,8,0:0:0:0:
256,192,168024,1,0,0:0:0:0:
256,192,168201,1,8,0:0:0:0:
256,192,168554,1,0,0:0:0:0:
256,192,168730,1,8,0:0:0:0:
256,192,168907,1,0,0:0:0:0:
256,192,169260,1,8,0:0:0:0:
256,192,169612,1,0,0:0:0:0:
256,192,169789,1,8,0:0:0:0:
256,192,170142,1,8,0:0:0:0:
256,192,170318,1,0,0:0:0:0:
256,192,170671,1,8,0:0:0:0:
256,192,171377,1,4,0:0:0:0:
256,192,171730,1,8,0:0:0:0:
256,192,171907,1,0,0:0:0:0:
256,192,172083,1,8,0:0:0:0:
256,192,172260,1,0,0:0:0:0:
256,192,172348,1,0,0:0:0:0:
256,192,172436,1,0,0:0:0:0:
256,192,172612,1,8,0:0:0:0:
256,192,172965,1,8,0:0:0:0:
256,192,173142,1,0,0:0:0:0:
256,192,173318,1,8,0:0:0:0:
256,192,173407,1,8,0:0:0:0:
256,192,173495,1,8,0:0:0:0:
256,192,173671,1,0,0:0:0:0:
256,192,173848,1,8,0:0:0:0:
256,192,174201,1,0,0:0:0:0:
256,192,174554,1,8,0:0:0:0:
256,192,174730,1,0,0:0:0:0:
256,192,174907,1,8,0:0:0:0:
256,192,175083,1,0,0:0:0:0:
256,192,175171,1,0,0:0:0:0:
256,192,175260,1,0,0:0:0:0:
256,192,175436,1,8,0:0:0:0:
256,192,175789,1,0,0:0:0:0:
256,192,175965,1,8,0:0:0:0:
256,192,176054,1,8,0:0:0:0:
256,192,176142,1,8,0:0:0:0:
256,192,176318,1,0,0:0:0:0:
256,192,177024,1,0,0:0:0:0:
256,192,177377,1,8,0:0:0:0:
256,192,177554,1,0,0:0:0:0:
256,192,177730,1,8,0:0:0:0:
256,192,177907,1,0,0:0:0:0:
256,192,177995,1,0,0:0:0:0:
256,192,178083,1,0,0:0:0:0:
256,192,178260,1,8,0:0:0:0:
256,192,178612,1,8,0:0:0:0:
256,192,178789,1,0,0:0:0:0:
256,192,178965,1,8,0:0:0:0:
256,192,179054,1,8,0:0:0:0:
256,192,179142,1,8,0:0:0:0:
256,192,179318,1,0,0:0:0:0:
256,192,179495,1,8,0:0:0:0:
256,192,179848,1,0,0:0:0:0:
256,192,180024,1,8,0:0:0:0:
256,192,180201,1,0,0:0:0:0:
256,192,180554,1,8,0:0:0:0:
256,192,180907,1,0,0:0:0:0:
256,192,181083,1,8,0:0:0:0:
256,192,181436,1,8,0:0:0:0:
256,192,181612,1,0,0:0:0:0:
256,192,181965,1,8,0:0:0:0:
256,192,182318,1,8,0:0:0:0:
256,192,182671,1,4,0:0:0:0:
