osu file format v14

[General]
AudioFilename: audio.mp3
AudioLeadIn: 0
PreviewTime: 92296
Countdown: 0
SampleSet: Normal
StackLeniency: 0
Mode: 1
LetterboxInBreaks: 0
WidescreenStoryboard: 0

[Editor]
Bookmarks: 13260,35848,58436,81024,92318,114907,137495,182671
DistanceSpacing: 1.3
BeatDivisor: 2
GridSize: 32
TimelineZoom: 2.76

[Metadata]
Title:DERO
TitleUnicode:DERO
Artist:DUSTCELL
ArtistUnicode:DUSTCELL
Creator:Genjuro
Version:KANTAN
Source:
Tags:EMA E MA Misumi Kamitsubaki Studio Japanese Hip Hop Hip-Hop
BeatmapID:3035792
BeatmapSetID:1478599

[Difficulty]
HPDrainRate:7
CircleSize:2
OverallDifficulty:3
ApproachRate:10
SliderMultiplier:1.4
SliderTickRate:1

[Events]
//Background and Video events
0,0,"bg.jpg",0,0
//Break Periods
//Storyboard Layer 0 (Background)
//Storyboard Layer 1 (Fail)
//Storyboard Layer 2 (Pass)
//Storyboard Layer 3 (Foreground)
//Storyboard Layer 4 (Overlay)
//Storyboard Sound Samples

[TimingPoints]
555,352.941176470588,4,1,0,50,1,8
1966,352.941176470588,4,1,0,50,1,0
13230,-100,4,1,0,65,0,0
36024,-100,4,1,0,50,0,0
47098,-100,4,1,0,65,0,0
58392,-100,4,1,0,80,0,0
81201,-100,4,1,0,50,0,0
92274,-100,4,1,0,80,0,0
92318,-100,4,1,0,80,0,1
114907,-100,4,1,0,80,0,0
115083,-100,4,1,0,50,0,0
126157,-100,4,1,0,65,0,0
137098,-100,4,1,0,80,0,0

[HitObjects]
256,192,1966,5,0,0:0:0:0:
256,192,2671,1,8,0:0:0:0:
256,192,3730,1,0,0:0:0:0:
256,192,4083,1,8,0:0:0:0:
256,192,4789,1,0,0:0:0:0:
256,192,5495,1,8,0:0:0:0:
256,192,5848,1,0,0:0:0:0:
256,192,6554,1,0,0:0:0:0:
256,192,6907,1,8,0:0:0:0:
256,192,7613,1,0,0:0:0:0:
256,192,8318,1,8,0:0:0:0:
256,192,9377,1,0,0:0:0:0:
256,192,9730,1,8,0:0:0:0:
256,192,12554,1,8,0:0:0:0:
256,192,13260,1,4,0:0:0:0:
256,192,13965,1,8,0:0:0:0:
256,192,14318,1,0,0:0:0:0:
256,192,14671,1,0,0:0:0:0:
256,192,15377,1,8,0:0:0:0:
256,192,16083,1,0,0:0:0:0:
256,192,16436,1,0,0:0:0:0:
256,192,16789,1,0,0:0:0:0:
256,192,17495,1,8,0:0:0:0:
256,192,18907,1,0,0:0:0:0:
256,192,19613,1,8,0:0:0:0:
256,192,19965,1,8,0:0:0:0:
256,192,20318,1,0,0:0:0:0:
256,192,21024,1,8,0:0:0:0:
256,192,21730,1,0,0:0:0:0:
256,192,22083,1,8,0:0:0:0:
256,192,22436,1,0,0:0:0:0:
256,192,23142,1,8,0:0:0:0:
256,192,24554,1,4,0:0:0:0:
256,192,25260,1,8,0:0:0:0:
256,192,25965,1,0,0:0:0:0:
256,192,26318,1,0,0:0:0:0:
256,192,26671,1,8,0:0:0:0:
256,192,27024,1,8,0:0:0:0:
256,192,27377,1,0,0:0:0:0:
256,192,28083,1,8,0:0:0:0:
256,192,28789,1,0,0:0:0:0:
256,192,30201,1,0,0:0:0:0:
256,192,30907,1,8,0:0:0:0:
256,192,31260,1,8,0:0:0:0:
256,192,31613,1,0,0:0:0:0:
256,192,32318,1,8,0:0:0:0:
256,192,32671,1,8,0:0:0:0:
256,192,33024,1,8,0:0:0:0:
256,192,33730,1,0,0:0:0:0:
256,192,34436,1,8,0:0:0:0:
256,192,35848,1,4,0:0:0:0:
256,192,36907,1,8,0:0:0:0:
256,192,38671,1,0,0:0:0:0:
256,192,39377,1,0,0:0:0:0:
256,192,40083,1,8,0:0:0:0:
256,192,40789,1,8,0:0:0:0:
256,192,41495,1,0,0:0:0:0:
256,192,42554,1,8,0:0:0:0:
256,192,44318,1,0,0:0:0:0:
256,192,45024,1,8,0:0:0:0:
256,192,45730,1,8,0:0:0:0:
256,192,46436,1,8,0:0:0:0:
256,192,47142,1,4,0:0:0:0:
256,192,47848,1,8,0:0:0:0:
256,192,48201,1,8,0:0:0:0:
256,192,48554,1,8,0:0:0:0:
256,192,49260,1,0,0:0:0:0:
256,192,49965,1,8,0:0:0:0:
256,192,50671,1,0,0:0:0:0:
256,192,51024,1,0,0:0:0:0:
256,192,51377,1,0,0:0:0:0:
256,192,52789,1,8,0:0:0:0:
256,192,53142,1,8,0:0:0:0:
256,192,53495,1,0,0:0:0:0:
256,192,54201,1,0,0:0:0:0:
256,192,54554,1,0,0:0:0:0:
256,192,54907,1,8,0:0:0:0:
256,192,55613,1,0,0:0:0:0:
256,192,57024,1,8,0:0:0:0:
256,192,58436,1,4,0:0:0:0:
256,192,59142,1,8,0:0:0:0:
256,192,59671,1,0,0:0:0:0:
256,192,60201,1,0,0:0:0:0:
256,192,60554,1,8,0:0:0:0:
256,192,61260,1,0,0:0:0:0:
256,192,61965,1,8,0:0:0:0:
256,192,62318,1,8,0:0:0:0:
256,192,62671,1,0,0:0:0:0:
256,192,64083,1,0,0:0:0:0:
256,192,64789,1,8,0:0:0:0:
256,192,65318,1,8,0:0:0:0:
256,192,65848,1,0,0:0:0:0:
256,192,66201,1,8,0:0:0:0:
256,192,66907,1,0,0:0:0:0:
256,192,67260,1,0,0:0:0:0:
256,192,67613,1,8,0:0:0:0:
256,192,67965,1,8,0:0:0:0:
256,192,68318,1,0,0:0:0:0:
256,192,69730,1,4,0:0:0:0:
256,192,70436,1,8,0:0:0:0:
256,192,70965,1,0,0:0:0:0:
256,192,71495,1,0,0:0:0:0:
256,192,71848,1,8,0:0:0:0:
256,192,72554,1,0,0:0:0:0:
256,192,73260,1,8,0:0:0:0:
256,192,73613,1,0,0:0:0:0:
256,192,73965,1,8,0:0:0:0:
256,192,75377,1,0,0:0:0:0:
256,192,76083,1,8,0:0:0:0:
256,192,76613,1,8,0:0:0:0:
256,192,77142,1,0,0:0:0:0:
256,192,77495,1,8,0:0:0:0:
256,192,78201,1,0,0:0:0:0:
256,192,78554,1,0,0:0:0:0:
256,192,78907,1,8,0:0:0:0:
256,192,79260,1,0,0:0:0:0:
256,192,79613,1,8,0:0:0:0:
256,192,80318,1,8,0:0:0:0:
256,192,81024,1,4,0:0:0:0:
256,192,82260,1,0,0:0:0:0:
256,192,82789,1,0,0:0:0:0:
256,192,83848,1,0,0:0:0:0:
256,192,84554,1,8,0:0:0:0:
256,192,85083,1,0,0:0:0:0:
256,192,85965,1,8,0:0:0:0:
256,192,86671,1,0,0:0:0:0:
256,192,87907,1,0,0:0:0:0:
256,192,88436,1,0,0:0:0:0:
256,192,89495,1,0,0:0:0:0:
256,192,90201,1,8,0:0:0:0:
256,192,90730,1,0,0:0:0:0:
256,192,92318,1,8,0:0:0:0:
256,192,92671,1,0,0:0:0:0:
256,192,93024,1,8,0:0:0:0:
256,192,93377,1,8,0:0:0:0:
256,192,93730,1,0,0:0:0:0:
256,192,94436,1,0,0:0:0:0:
256,192,95142,1,8,0:0:0:0:
256,192,95495,1,0,0:0:0:0:
256,192,95848,1,8,0:0:0:0:
256,192,96554,1,8,0:0:0:0:
256,192,97965,1,0,0:0:0:0:
256,192,98318,1,8,0:0:0:0:
256,192,98671,1,0,0:0:0:0:
256,192,99024,1,0,0:0:0:0:
256,192,99377,1,8,0:0:0:0:
256,192,100083,1,8,0:0:0:0:
256,192,100789,1,0,0:0:0:0:
256,192,101142,1,8,0:0:0:0:
256,192,101495,1,0,0:0:0:0:
256,192,102201,1,0,0:0:0:0:
256,192,103613,1,8,0:0:0:0:
256,192,103965,1,8,0:0:0:0:
256,192,104318,1,0,0:0:0:0:
256,192,104671,1,8,0:0:0:0:
256,192,105024,1,8,0:0:0:0:
256,192,105730,1,0,0:0:0:0:
256,192,106436,1,8,0:0:0:0:
256,192,106789,1,8,0:0:0:0:
256,192,107142,1,0,0:0:0:0:
256,192,107848,1,8,0:0:0:0:
256,192,109260,1,0,0:0:0:0:
256,192,109613,1,0,0:0:0:0:
256,192,109965,1,8,0:0:0:0:
256,192,110318,1,0,0:0:0:0:
256,192,110671,1,0,0:0:0:0:
256,192,111377,1,8,0:0:0:0:
256,192,112083,1,0,0:0:0:0:
256,192,112436,1,0,0:0:0:0:
256,192,112789,1,8,0:0:0:0:
256,192,113495,1,0,0:0:0:0:
256,192,114201,1,8,0:0:0:0:
256,192,114907,1,4,0:0:0:0:
256,192,115965,1,8,0:0:0:0:
256,192,120554,1,0,0:0:0:0:
256,192,121613,1,8,0:0:0:0:
256,192,126201,1,4,0:0:0:0:
256,192,126907,1,8,0:0:0:0:
256,192,127260,1,8,0:0:0:0:
256,192,127613,1,8,0:0:0:0:
256,192,128319,1,0,0:0:0:0:
256,192,129024,1,8,0:0:0:0:
256,192,129730,1,0,0:0:0:0:
256,192,130083,1,0,0:0:0:0:
256,192,130436,1,0,0:0:0:0:
256,192,131848,1,8,0:0:0:0:
256,192,132201,1,8,0:0:0:0:
256,192,132554,1,0,0:0:0:0:
256,192,133260,1,0,0:0:0:0:
256,192,133613,1,0,0:0:0:0:
256,192,133966,1,8,0:0:0:0:
256,192,134672,1,0,0:0:0:0:
256,192,136083,1,8,0:0:0:0:
256,192,137495,1,4,0:0:0:0:
256,192,138201,1,8,0:0:0:0:
256,192,138730,1,0,0:0:0:0:
256,192,139260,1,0,0:0:0:0:
256,192,139613,1,8,0:0:0:0:
256,192,140319,1,0,0:0:0:0:
256,192,141024,1,8,0:0:0:0:
256,192,141377,1,8,0:0:0:0:
256,192,141730,1,0,0:0:0:0:
256,192,143142,1,0,0:0:0:0:
256,192,143848,1,8,0:0:0:0:
256,192,144377,1,8,0:0:0:0:
256,192,144907,1,0,0:0:0:0:
256,192,145260,1,8,0:0:0:0:
256,192,145966,1,0,0:0:0:0:
256,192,146319,1,0,0:0:0:0:
256,192,146672,1,8,0:0:0:0:
256,192,147024,1,8,0:0:0:0:
256,192,147377,1,0,0:0:0:0:
256,192,148789,1,4,0:0:0:0:
256,192,149495,1,8,0:0:0:0:
256,192,150024,1,0,0:0:0:0:
256,192,150554,1,0,0:0:0:0:
256,192,150907,1,8,0:0:0:0:
256,192,151613,1,0,0:0:0:0:
256,192,152319,1,8,0:0:0:0:
256,192,152672,1,0,0:0:0:0:
256,192,153024,1,8,0:0:0:0:
256,192,154436,1,0,0:0:0:0:
256,192,155142,1,8,0:0:0:0:
256,192,155672,1,8,0:0:0:0:
256,192,156201,1,0,0:0:0:0:
256,192,156554,1,8,0:0:0:0:
256,192,157260,1,0,0:0:0:0:
256,192,157613,1,0,0:0:0:0:
256,192,157966,1,8,0:0:0:0:
256,192,159377,1,8,0:0:0:0:
256,192,160083,1,0,0:0:0:0:
256,192,160436,1,0,0:0:0:0:
256,192,160789,1,0,0:0:0:0:
256,192,161142,1,0,0:0:0:0:
256,192,161495,1,8,0:0:0:0:
256,192,162201,1,8,0:0:0:0:
256,192,162907,1,4,0:0:0:0:
256,192,163612,1,8,0:0:0:0:
256,192,163965,1,8,0:0:0:0:
256,192,164318,1,0,0:0:0:0:
256,192,164671,1,8,0:0:0:0:
256,192,165730,1,0,0:0:0:0:
256,192,166436,1,8,0:0:0:0:
256,192,166965,1,8,0:0:0:0:
256,192,167495,1,0,0:0:0:0:
256,192,167848,1,8,0:0:0:0:
256,192,168201,1,8,0:0:0:0:
256,192,168554,1,0,0:0:0:0:
256,192,169260,1,8,0:0:0:0:
256,192,170671,1,8,0:0:0:0:
256,192,171377,1,4,0:0:0:0:
256,192,172083,1,8,0:0:0:0:
256,192,172612,1,0,0:0:0:0:
256,192,173142,1,0,0:0:0:0:
256,192,173495,1,8,0:0:0:0:
256,192,174201,1,0,0:0:0:0:
256,192,174907,1,8,0:0:0:0:
256,192,175260,1,0,0:0:0:0:
256,192,175612,1,8,0:0:0:0:
256,192,175965,1,8,0:0:0:0:
256,192,177024,1,0,0:0:0:0:
256,192,177730,1,8,0:0:0:0:
256,192,178260,1,8,0:0:0:0:
256,192,178789,1,0,0:0:0:0:
256,192,179142,1,8,0:0:0:0:
256,192,179495,1,8,0:0:0:0:
256,192,179848,1,0,0:0:0:0:
256,192,180554,1,8,0:0:0:0:
256,192,181965,1,8,0:0:0:0:
256,192,182671,1,4,0:0:0:0:
