osu file format v14

[General]
AudioFilename: audio.mp3
AudioLeadIn: 0
PreviewTime: 92296
Countdown: 0
SampleSet: Normal
StackLeniency: 0
Mode: 1
LetterboxInBreaks: 0
WidescreenStoryboard: 0

[Editor]
Bookmarks: 13260,35848,58436,81024,92318,114907,137495,182671
DistanceSpacing: 1.3
BeatDivisor: 4
GridSize: 32
TimelineZoom: 2.76

[Metadata]
Title:DERO
TitleUnicode:DERO
Artist:DUSTCELL
ArtistUnicode:DUSTCELL
Creator:Genjuro
Version:INNER ONI
Source:
Tags:EMA E MA Misumi Kamitsubaki Studio Japanese Hip Hop Hip-Hop
BeatmapID:3033441
BeatmapSetID:1478599

[Difficulty]
HPDrainRate:6
CircleSize:2
OverallDifficulty:6
ApproachRate:10
SliderMultiplier:1.4
SliderTickRate:1

[Events]
//Background and Video events
0,0,"bg.jpg",0,0
//Break Periods
//Storyboard Layer 0 (Background)
//Storyboard Layer 1 (Fail)
//Storyboard Layer 2 (Pass)
//Storyboard Layer 3 (Foreground)
//Storyboard Layer 4 (Overlay)
//Storyboard Sound Samples

[TimingPoints]
555,352.941176470588,4,1,0,50,1,8
1966,352.941176470588,4,1,0,50,1,0
1966,-133.333333333333,4,1,0,50,0,0
12554,-106.722105242937,4,1,0,50,0,0
12730,-104.976186152171,4,1,0,50,0,0
12789,-104.406802311984,4,1,0,50,0,0
12848,-103.843561751093,4,1,0,50,0,0
12907,-103.286365580025,4,1,0,50,0,0
13083,-101.650189171002,4,1,0,50,0,0
13142,-101.116221974375,4,1,0,50,0,0
13201,-100.587835309549,4,1,0,50,0,0
13230,-100.064942147454,4,1,0,65,0,0
36024,-114.285714285714,4,1,0,50,0,0
47098,-100,4,1,0,65,0,0
58392,-87.5,4,1,0,80,0,0
81201,-133.333333333333,4,1,0,50,0,0
92274,-133.333333333333,4,1,0,80,0,0
92318,-75.187969924812,4,1,0,80,0,1
92407,-75.5920177852899,4,1,0,80,0,1
92495,-76.000489443152,4,1,0,80,0,1
92583,-76.4133411580595,4,1,0,80,0,1
92671,-76.8307027781214,4,1,0,80,0,1
92760,-77.2527082868208,4,1,0,80,0,1
92848,-77.6793149305858,4,1,0,80,0,1
93024,-78.546882670594,4,1,0,80,0,1
93113,-78.9879432803377,4,1,0,80,0,1
93201,-79.434048292724,4,1,0,80,0,1
93289,-79.8851570981557,4,1,0,80,0,1
93377,-80.3414188937308,4,1,0,80,0,1
93465,-80.8029877712758,4,1,0,80,0,1
93554,-81.2698247578769,4,1,0,80,0,1
93730,-82.2199383350463,4,1,0,80,0,1
93818,-82.7033406360383,4,1,0,80,0,1
93907,-83.1925299763484,4,1,0,80,0,1
93995,-83.6874708139946,4,1,0,80,0,1
94083,-84.1883360427946,4,1,0,80,0,1
94260,-85.2083429192719,4,1,0,80,0,1
94436,-86.2533692722372,4,1,0,80,0,1
94524,-86.7855165387159,4,1,0,80,0,1
94613,-87.3243470758569,4,1,0,80,0,1
94701,-87.8698331439738,4,1,0,80,0,1
94789,-88.4221769893663,4,1,0,80,0,1
94965,-89.548042076834,4,1,0,80,0,1
95142,-90.702947845805,4,1,0,80,0,1
95230,-91.2916027245066,4,1,0,80,0,1
95318,-91.8880325945229,4,1,0,80,0,1
95495,-93.1044082144157,4,1,0,80,0,1
95671,-94.3535086295719,4,1,0,80,0,1
95848,-95.6365809922295,4,1,0,80,0,1
95936,-96.2912463553763,4,1,0,80,0,1
96024,-96.955030317838,4,1,0,80,0,1
96201,-98.3102435341353,4,1,0,80,0,1
96377,-99.7039788866854,4,1,0,80,0,1
96554,-101.137800252844,4,1,0,80,0,1
96642,-101.870235656416,4,1,0,80,0,1
96730,-102.613462270569,4,1,0,80,0,1
96818,-103.367506631026,4,1,0,80,0,1
96907,-104.132715062693,4,1,0,80,0,1
96995,-104.909447410468,4,1,0,80,0,1
97083,-105.697742507616,4,1,0,80,0,1
97171,-106.498087294352,4,1,0,80,0,1
97260,-107.310529845741,4,1,0,80,0,1
97436,-108.973297183258,4,1,0,80,0,1
97613,-110.688281874351,4,1,0,80,0,1
97965,-75.187969924812,4,1,0,80,0,1
98054,-75.5915035150049,4,1,0,80,0,1
98142,-75.999392004864,4,1,0,80,0,1
98230,-76.4117062734011,4,1,0,80,0,1
98318,-76.8285777724169,4,1,0,80,0,1
98407,-77.2499631131426,4,1,0,80,0,1
98495,-77.6759963305859,4,1,0,80,0,1
98671,-78.5423174224925,4,1,0,80,0,1
98760,-78.9827651708121,4,1,0,80,0,1
98848,-79.4281806419227,4,1,0,80,0,1
98936,-79.8786483574154,4,1,0,80,0,1
99024,-80.3343193032122,4,1,0,80,0,1
99113,-80.7951535835074,4,1,0,80,0,1
99201,-81.2613054791248,4,1,0,80,0,1
99377,-82.2099345773341,4,1,0,80,0,1
99465,-82.6926034773894,4,1,0,80,0,1
99554,-83.1809735168416,4,1,0,80,0,1
99642,-83.6751463059933,4,1,0,80,0,1
99730,-84.1752967389648,4,1,0,80,0,1
99907,-85.1936067309765,4,1,0,80,0,1
100083,-86.2368564251201,4,1,0,80,0,1
100171,-86.7681217391455,4,1,0,80,0,1
100260,-87.3059733873932,4,1,0,80,0,1
100348,-87.8506117916605,4,1,0,80,0,1
100436,-88.4020099080973,4,1,0,80,0,1
100613,-89.5258353655698,4,1,0,80,0,1
100789,-90.6786023888371,4,1,0,80,0,1
100877,-91.2661906222164,4,1,0,80,0,1
100965,-91.8614435474685,4,1,0,80,0,1
101142,-93.0756379171534,4,1,0,80,0,1
101318,-94.3222709029943,4,1,0,80,0,1
101495,-95.6027514471866,4,1,0,80,0,1
101583,-96.2561182795181,4,1,0,80,0,1
101671,-96.9184770230521,4,1,0,80,0,1
101848,-98.2710196797544,4,1,0,80,0,1
102024,-99.6617480271957,4,1,0,80,0,1
102201,-101.092404523279,4,1,0,80,0,1
102289,-101.82324706189,4,1,0,80,0,1
102377,-102.564838927049,4,1,0,80,0,1
102465,-103.317205517552,4,1,0,80,0,1
102554,-104.080691678645,4,1,0,80,0,1
102642,-104.855545757387,4,1,0,80,0,1
102730,-105.642023551833,4,1,0,80,0,1
102818,-106.440388592571,4,1,0,80,0,1
102907,-107.250912437138,4,1,0,80,0,1
103083,-108.909683377768,4,1,0,80,0,1
103260,-110.620447968566,4,1,0,80,0,1
103613,-75.187969924812,4,1,0,80,0,1
103701,-75.5920177852899,4,1,0,80,0,1
103789,-76.000489443152,4,1,0,80,0,1
103877,-76.4133411580595,4,1,0,80,0,1
103965,-76.8307027781214,4,1,0,80,0,1
104054,-77.2527082868208,4,1,0,80,0,1
104142,-77.6793149305858,4,1,0,80,0,1
104318,-78.546882670594,4,1,0,80,0,1
104407,-78.9879432803377,4,1,0,80,0,1
104495,-79.434048292724,4,1,0,80,0,1
104583,-79.8851570981557,4,1,0,80,0,1
104671,-80.3414188937308,4,1,0,80,0,1
104760,-80.8029877712758,4,1,0,80,0,1
104848,-81.2698247578769,4,1,0,80,0,1
105024,-82.2199383350463,4,1,0,80,0,1
105113,-82.7033406360383,4,1,0,80,0,1
105201,-83.1925299763484,4,1,0,80,0,1
105289,-83.6874708139946,4,1,0,80,0,1
105377,-84.1883360427946,4,1,0,80,0,1
105554,-85.2083429192719,4,1,0,80,0,1
105730,-86.2533692722372,4,1,0,80,0,1
105818,-86.7855165387159,4,1,0,80,0,1
105907,-87.3243470758569,4,1,0,80,0,1
105995,-87.8698331439738,4,1,0,80,0,1
106083,-88.4221769893663,4,1,0,80,0,1
106260,-89.548042076834,4,1,0,80,0,1
106436,-90.702947845805,4,1,0,80,0,1
106524,-91.2916027245066,4,1,0,80,0,1
106613,-91.8880325945229,4,1,0,80,0,1
106965,-94.3535086295719,4,1,0,80,0,1
107142,-95.6365809922295,4,1,0,80,0,1
107230,-96.2912463553763,4,1,0,80,0,1
107318,-96.955030317838,4,1,0,80,0,1
107495,-98.3102435341353,4,1,0,80,0,1
107671,-99.7039788866854,4,1,0,80,0,1
107848,-101.137800252844,4,1,0,80,0,1
107936,-101.870235656416,4,1,0,80,0,1
108024,-102.613462270569,4,1,0,80,0,1
108113,-103.367506631026,4,1,0,80,0,1
108201,-104.132715062693,4,1,0,80,0,1
108289,-104.909447410468,4,1,0,80,0,1
108377,-105.697742507616,4,1,0,80,0,1
108465,-106.498087294352,4,1,0,80,0,1
108554,-107.310529845741,4,1,0,80,0,1
108730,-108.973297183258,4,1,0,80,0,1
108907,-110.688281874351,4,1,0,80,0,1
109260,-75.187969924812,4,1,0,80,0,1
109348,-75.5920177852899,4,1,0,80,0,1
109436,-76.000489443152,4,1,0,80,0,1
109524,-76.4133411580595,4,1,0,80,0,1
109613,-76.8307027781214,4,1,0,80,0,1
109701,-77.2527082868208,4,1,0,80,0,1
109789,-77.6793149305858,4,1,0,80,0,1
109965,-78.546882670594,4,1,0,80,0,1
110054,-78.9879432803377,4,1,0,80,0,1
110142,-79.434048292724,4,1,0,80,0,1
110230,-79.8851570981557,4,1,0,80,0,1
110318,-80.3414188937308,4,1,0,80,0,1
110407,-80.8029877712758,4,1,0,80,0,1
110495,-81.2698247578769,4,1,0,80,0,1
110671,-82.2199383350463,4,1,0,80,0,1
110760,-82.7033406360383,4,1,0,80,0,1
110848,-83.1925299763484,4,1,0,80,0,1
110936,-83.6874708139946,4,1,0,80,0,1
111024,-84.1883360427946,4,1,0,80,0,1
111201,-85.2083429192719,4,1,0,80,0,1
111377,-86.2533692722372,4,1,0,80,0,1
111465,-86.7855165387159,4,1,0,80,0,1
111554,-87.3243470758569,4,1,0,80,0,1
111642,-87.8698331439738,4,1,0,80,0,1
111730,-88.4221769893663,4,1,0,80,0,1
111907,-89.548042076834,4,1,0,80,0,1
112083,-90.702947845805,4,1,0,80,0,1
112171,-91.2916027245066,4,1,0,80,0,1
112260,-91.8880325945229,4,1,0,80,0,1
112436,-93.1044082144157,4,1,0,80,0,1
112613,-94.3535086295719,4,1,0,80,0,1
112789,-95.6365809922295,4,1,0,80,0,1
112877,-96.2912463553763,4,1,0,80,0,1
112965,-96.955030317838,4,1,0,80,0,1
113142,-98.3102435341353,4,1,0,80,0,1
113318,-99.7039788866854,4,1,0,80,0,1
113495,-101.132686084142,4,1,0,80,0,1
113583,-99.0084305678628,4,1,0,80,0,1
113671,-96.9716716655563,4,1,0,80,0,1
113760,-95.0169320172855,4,1,0,80,0,1
113848,-93.1395286022178,4,1,0,80,0,1
113936,-91.33479408114,4,1,0,80,0,1
114024,-89.5987499182411,4,1,0,80,0,1
114113,-87.9273930758936,4,1,0,80,0,1
114201,-86.3173231962269,4,1,0,80,0,1
114377,-83.2677599723551,4,1,0,80,0,1
114465,-81.8223473194999,4,1,0,80,0,1
114554,-80.4263238575039,4,1,0,80,0,1
114642,-79.0770756348505,4,1,0,80,0,1
114730,-77.7724114813856,4,1,0,80,0,1
114907,-75.2880520872859,4,1,0,80,0,0
115083,-133.333333333333,4,1,0,50,0,0
126157,-100,4,1,0,65,0,0
137098,-66.6666666666667,4,1,0,80,0,0
137495,-87.5,4,1,0,80,0,0
160142,-87.928243519029,4,1,0,80,0,0
160201,-88.3606883297621,4,1,0,80,0,0
160260,-88.7973289763444,4,1,0,80,0,0
160436,-90.1337765511572,4,1,0,80,0,0
160495,-90.58824382007,4,1,0,80,0,0
160554,-91.047317290796,4,1,0,80,0,0
160613,-91.5110673484851,4,1,0,80,0,0
160789,-92.931016377233,4,1,0,80,0,0
160848,-93.4142051245165,4,1,0,80,0,0
160907,-93.9024447501491,4,1,0,80,0,0
160965,-94.3958148671521,4,1,0,80,0,0
161142,-95.9074378136173,4,1,0,80,0,0
161201,-96.4221593549743,4,1,0,80,0,0
161260,-96.9424355817516,4,1,0,80,0,0
161318,-97.4683568979331,4,1,0,80,0,0
161495,-99.0809253365779,4,1,0,80,0,0
161539,-99.4923898271021,4,1,0,80,0,0
161848,-102.471510358333,4,1,0,80,0,0
161892,-102.911680166964,4,1,0,80,0,0
162201,-106.102371812419,4,1,0,80,0,0
162245,-106.574359061805,4,1,0,80,0,0
162554,-109.999989000001,4,1,0,80,0,0
162907,-87.5,4,1,0,80,0,0

[HitObjects]
256,192,1966,5,0,0:0:0:0:
256,192,2318,1,8,0:0:0:0:
256,192,2495,1,0,0:0:0:0:
256,192,2583,1,0,0:0:0:0:
256,192,2671,1,8,0:0:0:0:
256,192,3024,1,0,0:0:0:0:
256,192,3201,1,0,0:0:0:0:
256,192,3377,1,0,0:0:0:0:
256,192,3554,1,8,0:0:0:0:
256,192,3730,1,0,0:0:0:0:
256,192,4083,1,8,0:0:0:0:
256,192,4436,1,0,0:0:0:0:
256,192,4613,1,8,0:0:0:0:
256,192,4671,1,8,0:0:0:0:
256,192,4730,1,8,0:0:0:0:
256,192,4789,1,0,0:0:0:0:
256,192,5142,1,8,0:0:0:0:
256,192,5318,1,0,0:0:0:0:
256,192,5407,1,0,0:0:0:0:
256,192,5495,1,8,0:0:0:0:
256,192,5848,1,0,0:0:0:0:
256,192,6024,1,8,0:0:0:0:
256,192,6201,1,0,0:0:0:0:
256,192,6377,1,8,0:0:0:0:
256,192,6554,1,0,0:0:0:0:
256,192,6907,1,8,0:0:0:0:
256,192,7083,1,0,0:0:0:0:
256,192,7260,1,0,0:0:0:0:
256,192,7436,1,8,0:0:0:0:
256,192,7495,1,8,0:0:0:0:
256,192,7554,1,8,0:0:0:0:
256,192,7613,1,0,0:0:0:0:
256,192,7965,1,8,0:0:0:0:
256,192,8142,1,0,0:0:0:0:
256,192,8230,1,0,0:0:0:0:
256,192,8318,1,8,0:0:0:0:
256,192,8671,1,0,0:0:0:0:
256,192,8848,1,0,0:0:0:0:
256,192,9024,1,0,0:0:0:0:
256,192,9201,1,8,0:0:0:0:
256,192,9377,1,0,0:0:0:0:
256,192,9730,1,8,0:0:0:0:
256,192,10083,1,0,0:0:0:0:
256,192,10260,1,8,0:0:0:0:
256,192,10318,1,8,0:0:0:0:
256,192,10377,1,8,0:0:0:0:
256,192,12554,1,8,0:0:0:0:
256,192,12730,1,0,0:0:0:0:
256,192,12789,1,0,0:0:0:0:
256,192,12848,1,0,0:0:0:0:
256,192,12907,1,8,0:0:0:0:
256,192,13083,1,8,0:0:0:0:
256,192,13142,1,8,0:0:0:0:
256,192,13201,1,8,0:0:0:0:
256,192,13260,1,0,0:0:0:0:
256,192,13436,1,0,0:0:0:0:
256,192,13524,1,0,0:0:0:0:
256,192,13613,1,8,0:0:0:0:
256,192,13789,1,0,0:0:0:0:
256,192,13965,1,8,0:0:0:0:
256,192,14142,1,8,0:0:0:0:
256,192,14318,1,0,0:0:0:0:
256,192,14495,1,8,0:0:0:0:
256,192,14671,1,0,0:0:0:0:
256,192,14848,1,0,0:0:0:0:
256,192,15024,1,8,0:0:0:0:
256,192,15201,1,8,0:0:0:0:
256,192,15377,1,8,0:0:0:0:
256,192,15554,1,0,0:0:0:0:
256,192,15730,1,8,0:0:0:0:
256,192,15907,1,0,0:0:0:0:
256,192,15965,1,8,0:0:0:0:
256,192,16024,1,8,0:0:0:0:
256,192,16083,1,0,0:0:0:0:
256,192,16260,1,8,0:0:0:0:
256,192,16348,1,0,0:0:0:0:
256,192,16436,1,8,0:0:0:0:
256,192,16613,1,0,0:0:0:0:
256,192,16789,1,8,0:0:0:0:
256,192,16965,1,8,0:0:0:0:
256,192,17142,1,0,0:0:0:0:
256,192,17318,1,8,0:0:0:0:
256,192,17495,1,0,0:0:0:0:
256,192,17671,1,0,0:0:0:0:
256,192,17848,1,8,0:0:0:0:
256,192,18024,1,0,0:0:0:0:
256,192,18201,1,8,0:0:0:0:
256,192,18377,1,8,0:0:0:0:
256,192,18554,1,0,0:0:0:0:
256,192,18730,1,8,0:0:0:0:
256,192,18789,1,8,0:0:0:0:
256,192,18848,1,8,0:0:0:0:
256,192,18907,1,0,0:0:0:0:
256,192,19083,1,0,0:0:0:0:
256,192,19260,1,8,0:0:0:0:
256,192,19436,1,0,0:0:0:0:
256,192,19613,1,8,0:0:0:0:
256,192,19789,1,8,0:0:0:0:
256,192,19965,1,0,0:0:0:0:
256,192,20142,1,8,0:0:0:0:
256,192,20318,1,0,0:0:0:0:
256,192,20495,1,0,0:0:0:0:
256,192,20671,1,8,0:0:0:0:
256,192,20848,1,8,0:0:0:0:
256,192,20936,1,8,0:0:0:0:
256,192,21024,1,0,0:0:0:0:
256,192,21201,1,0,0:0:0:0:
256,192,21377,1,8,0:0:0:0:
256,192,21554,1,0,0:0:0:0:
256,192,21613,1,8,0:0:0:0:
256,192,21671,1,8,0:0:0:0:
256,192,21730,1,0,0:0:0:0:
256,192,21907,1,0,0:0:0:0:
256,192,22083,1,8,0:0:0:0:
256,192,22260,1,0,0:0:0:0:
256,192,22436,1,8,0:0:0:0:
256,192,22613,1,8,0:0:0:0:
256,192,22789,1,0,0:0:0:0:
256,192,22965,1,8,0:0:0:0:
256,192,23142,1,0,0:0:0:0:
256,192,23318,1,0,0:0:0:0:
256,192,23495,1,8,0:0:0:0:
256,192,23671,1,0,0:0:0:0:
256,192,23848,1,8,0:0:0:0:
256,192,24024,1,8,0:0:0:0:
256,192,24201,1,0,0:0:0:0:
256,192,24377,1,8,0:0:0:0:
256,192,24436,1,8,0:0:0:0:
256,192,24495,1,8,0:0:0:0:
256,192,24554,1,0,0:0:0:0:
256,192,24907,1,0,0:0:0:0:
256,192,25083,1,0,0:0:0:0:
256,192,25260,1,8,0:0:0:0:
256,192,25613,1,8,0:0:0:0:
256,192,25789,1,0,0:0:0:0:
256,192,25965,1,8,0:0:0:0:
256,192,26083,1,0,0:0:0:0:
256,192,26201,1,0,0:0:0:0:
256,192,26318,1,8,0:0:0:0:
256,192,26436,1,0,0:0:0:0:
256,192,26554,1,0,0:0:0:0:
256,192,26671,1,8,0:0:0:0:
256,192,26760,1,8,0:0:0:0:
256,192,26848,1,0,0:0:0:0:
256,192,26936,1,0,0:0:0:0:
256,192,27024,1,8,0:0:0:0:
256,192,27201,1,8,0:0:0:0:
256,192,27377,1,0,0:0:0:0:
256,192,27730,1,8,0:0:0:0:
256,192,27848,1,0,0:0:0:0:
256,192,27965,1,0,0:0:0:0:
256,192,28083,1,8,0:0:0:0:
256,192,28201,1,8,0:0:0:0:
256,192,28318,1,8,0:0:0:0:
256,192,28436,1,0,0:0:0:0:
256,192,28613,1,8,0:0:0:0:
256,192,28789,1,0,0:0:0:0:
256,192,28965,1,8,0:0:0:0:
256,192,29054,1,0,0:0:0:0:
256,192,29230,1,0,0:0:0:0:
256,192,29318,1,8,0:0:0:0:
256,192,29495,1,8,0:0:0:0:
256,192,29583,1,0,0:0:0:0:
256,192,29671,1,8,0:0:0:0:
256,192,29760,1,8,0:0:0:0:
256,192,29848,1,0,0:0:0:0:
256,192,30024,1,8,0:0:0:0:
256,192,30201,1,0,0:0:0:0:
256,192,30554,1,8,0:0:0:0:
256,192,30907,1,0,0:0:0:0:
256,192,31024,1,8,0:0:0:0:
256,192,31142,1,8,0:0:0:0:
256,192,31260,1,0,0:0:0:0:
256,192,31377,1,8,0:0:0:0:
256,192,31495,1,8,0:0:0:0:
256,192,31613,1,0,0:0:0:0:
256,192,31965,1,8,0:0:0:0:
256,192,32318,1,0,0:0:0:0:
256,192,32436,1,0,0:0:0:0:
256,192,32554,1,0,0:0:0:0:
256,192,32671,1,8,0:0:0:0:
256,192,32789,1,8,0:0:0:0:
256,192,32907,1,8,0:0:0:0:
256,192,33024,1,0,0:0:0:0:
256,192,33377,1,8,0:0:0:0:
256,192,33730,1,0,0:0:0:0:
256,192,33848,1,0,0:0:0:0:
256,192,33965,1,8,0:0:0:0:
256,192,34083,1,0,0:0:0:0:
256,192,34201,1,8,0:0:0:0:
256,192,34318,1,8,0:0:0:0:
256,192,34436,1,0,0:0:0:0:
256,192,34495,1,0,0:0:0:0:
256,192,34554,1,0,0:0:0:0:
256,192,34613,1,8,0:0:0:0:
256,192,34701,1,8,0:0:0:0:
256,192,34789,1,0,0:0:0:0:
256,192,34965,1,8,0:0:0:0:
256,192,35142,1,0,0:0:0:0:
256,192,35318,1,8,0:0:0:0:
256,192,35407,1,8,0:0:0:0:
256,192,35495,1,0,0:0:0:0:
256,192,35583,1,0,0:0:0:0:
256,192,35671,1,8,0:0:0:0:
256,192,35848,1,4,0:0:0:0:
256,192,36201,1,8,0:0:0:0:
256,192,36907,1,0,0:0:0:0:
256,192,37613,1,8,0:0:0:0:
256,192,38495,1,0,0:0:0:0:
256,192,38671,1,8,0:0:0:0:
256,192,38848,1,8,0:0:0:0:
256,192,39024,1,0,0:0:0:0:
256,192,39377,1,0,0:0:0:0:
256,192,39554,1,0,0:0:0:0:
256,192,39730,1,8,0:0:0:0:
256,192,40083,1,0,0:0:0:0:
256,192,40436,1,8,0:0:0:0:
256,192,40613,1,8,0:0:0:0:
256,192,40789,1,0,0:0:0:0:
256,192,40965,1,8,0:0:0:0:
256,192,41142,1,8,0:0:0:0:
256,192,41495,1,0,0:0:0:0:
256,192,41848,1,8,0:0:0:0:
256,192,42554,1,0,0:0:0:0:
256,192,43260,1,8,0:0:0:0:
256,192,44142,1,0,0:0:0:0:
256,192,44318,1,8,0:0:0:0:
256,192,44495,1,0,0:0:0:0:
256,192,44848,1,8,0:0:0:0:
256,192,45201,1,0,0:0:0:0:
256,192,45377,1,8,0:0:0:0:
256,192,45554,1,8,0:0:0:0:
256,192,45730,1,0,0:0:0:0:
256,192,45907,1,8,0:0:0:0:
256,192,46083,1,0,0:0:0:0:
256,192,46436,1,8,0:0:0:0:
256,192,46613,1,0,0:0:0:0:
256,192,46789,1,8,0:0:0:0:
256,192,47142,1,4,0:0:0:0:
256,192,47495,1,8,0:0:0:0:
256,192,47671,1,8,0:0:0:0:
256,192,47848,1,0,0:0:0:0:
256,192,48201,1,0,0:0:0:0:
256,192,48377,1,0,0:0:0:0:
256,192,48554,1,8,0:0:0:0:
256,192,48730,1,8,0:0:0:0:
256,192,48907,1,0,0:0:0:0:
256,192,49260,1,8,0:0:0:0:
256,192,49613,1,8,0:0:0:0:
256,192,49965,1,0,0:0:0:0:
256,192,50142,1,0,0:0:0:0:
256,192,50318,1,8,0:0:0:0:
256,192,50671,1,8,0:0:0:0:
256,192,50848,1,8,0:0:0:0:
256,192,51024,1,0,0:0:0:0:
256,192,51377,1,8,0:0:0:0:
256,192,51730,1,0,0:0:0:0:
256,192,52083,1,8,0:0:0:0:
256,192,52436,1,8,0:0:0:0:
256,192,52789,1,0,0:0:0:0:
256,192,52965,1,0,0:0:0:0:
256,192,53142,1,8,0:0:0:0:
256,192,53318,1,0,0:0:0:0:
256,192,53495,1,8,0:0:0:0:
256,192,53671,1,8,0:0:0:0:
256,192,53848,1,0,0:0:0:0:
256,192,54201,1,8,0:0:0:0:
256,192,54377,1,8,0:0:0:0:
256,192,54554,1,0,0:0:0:0:
256,192,54730,1,8,0:0:0:0:
256,192,54907,1,0,0:0:0:0:
256,192,55083,1,0,0:0:0:0:
256,192,55260,1,8,0:0:0:0:
256,192,55613,1,0,0:0:0:0:
256,192,57024,1,8,0:0:0:0:
256,192,57083,1,8,0:0:0:0:
256,192,57142,1,8,0:0:0:0:
256,192,57201,1,0,0:0:0:0:
256,192,57377,1,8,0:0:0:0:
256,192,57554,1,0,0:0:0:0:
256,192,57642,1,8,0:0:0:0:
256,192,57818,1,8,0:0:0:0:
256,192,57907,1,0,0:0:0:0:
256,192,58083,1,8,0:0:0:0:
256,192,58436,1,4,0:0:0:0:
256,192,58613,1,8,0:0:0:0:
256,192,58701,1,8,0:0:0:0:
256,192,58789,1,0,0:0:0:0:
256,192,58965,1,0,0:0:0:0:
256,192,59142,1,8,0:0:0:0:
256,192,59318,1,0,0:0:0:0:
256,192,59407,1,0,0:0:0:0:
256,192,59495,1,8,0:0:0:0:
256,192,59583,1,0,0:0:0:0:
256,192,59671,1,8,0:0:0:0:
256,192,59848,1,0,0:0:0:0:
256,192,60024,1,8,0:0:0:0:
256,192,60113,1,8,0:0:0:0:
256,192,60201,1,0,0:0:0:0:
256,192,60289,1,0,0:0:0:0:
256,192,60377,1,8,0:0:0:0:
256,192,60465,1,0,0:0:0:0:
256,192,60554,1,8,0:0:0:0:
256,192,60730,1,0,0:0:0:0:
256,192,60907,1,8,0:0:0:0:
256,192,60995,1,8,0:0:0:0:
256,192,61083,1,8,0:0:0:0:
256,192,61260,1,0,0:0:0:0:
256,192,61436,1,8,0:0:0:0:
256,192,61524,1,8,0:0:0:0:
256,192,61613,1,0,0:0:0:0:
256,192,61701,1,8,0:0:0:0:
256,192,61789,1,0,0:0:0:0:
256,192,61965,1,8,0:0:0:0:
256,192,62142,1,0,0:0:0:0:
256,192,62230,1,0,0:0:0:0:
256,192,62318,1,8,0:0:0:0:
256,192,62495,1,8,0:0:0:0:
256,192,62671,1,0,0:0:0:0:
256,192,62848,1,8,0:0:0:0:
256,192,62936,1,0,0:0:0:0:
256,192,63024,1,8,0:0:0:0:
256,192,63113,1,8,0:0:0:0:
256,192,63201,1,0,0:0:0:0:
256,192,63377,1,0,0:0:0:0:
256,192,63465,1,8,0:0:0:0:
256,192,63554,1,0,0:0:0:0:
256,192,63642,1,0,0:0:0:0:
256,192,63730,1,8,0:0:0:0:
256,192,63907,1,8,0:0:0:0:
256,192,64083,1,0,0:0:0:0:
256,192,64260,1,8,0:0:0:0:
256,192,64348,1,8,0:0:0:0:
256,192,64436,1,0,0:0:0:0:
256,192,64613,1,0,0:0:0:0:
256,192,64789,1,8,0:0:0:0:
256,192,64965,1,0,0:0:0:0:
256,192,65054,1,0,0:0:0:0:
256,192,65142,1,8,0:0:0:0:
256,192,65230,1,0,0:0:0:0:
256,192,65318,1,8,0:0:0:0:
256,192,65495,1,0,0:0:0:0:
256,192,65671,1,8,0:0:0:0:
256,192,65760,1,8,0:0:0:0:
256,192,65848,1,0,0:0:0:0:
256,192,65936,1,0,0:0:0:0:
256,192,66024,1,8,0:0:0:0:
256,192,66113,1,0,0:0:0:0:
256,192,66201,1,8,0:0:0:0:
256,192,66377,1,0,0:0:0:0:
256,192,66554,1,8,0:0:0:0:
256,192,66642,1,8,0:0:0:0:
256,192,66730,1,8,0:0:0:0:
256,192,66907,1,0,0:0:0:0:
256,192,67083,1,8,0:0:0:0:
256,192,67171,1,0,0:0:0:0:
256,192,67260,1,8,0:0:0:0:
256,192,67348,1,8,0:0:0:0:
256,192,67436,1,0,0:0:0:0:
256,192,67613,1,8,0:0:0:0:
256,192,67789,1,0,0:0:0:0:
256,192,67877,1,8,0:0:0:0:
256,192,67965,1,0,0:0:0:0:
256,192,68054,1,0,0:0:0:0:
256,192,68142,1,8,0:0:0:0:
256,192,68318,1,0,0:0:0:0:
256,192,68495,1,8,0:0:0:0:
256,192,68583,1,8,0:0:0:0:
256,192,68671,1,0,0:0:0:0:
256,192,68848,1,0,0:0:0:0:
256,192,68936,1,0,0:0:0:0:
256,192,69024,1,8,0:0:0:0:
256,192,69201,1,0,0:0:0:0:
256,192,69377,1,8,0:0:0:0:
256,192,69730,1,4,0:0:0:0:
256,192,69907,1,8,0:0:0:0:
256,192,69995,1,8,0:0:0:0:
256,192,70083,1,0,0:0:0:0:
256,192,70260,1,0,0:0:0:0:
256,192,70436,1,8,0:0:0:0:
256,192,70613,1,0,0:0:0:0:
256,192,70701,1,8,0:0:0:0:
256,192,70789,1,8,0:0:0:0:
256,192,70877,1,0,0:0:0:0:
256,192,70965,1,8,0:0:0:0:
256,192,71142,1,0,0:0:0:0:
256,192,71318,1,8,0:0:0:0:
256,192,71407,1,8,0:0:0:0:
256,192,71495,1,0,0:0:0:0:
256,192,71583,1,8,0:0:0:0:
256,192,71671,1,0,0:0:0:0:
256,192,71760,1,0,0:0:0:0:
256,192,71848,1,8,0:0:0:0:
256,192,72024,1,0,0:0:0:0:
256,192,72201,1,8,0:0:0:0:
256,192,72289,1,8,0:0:0:0:
256,192,72377,1,8,0:0:0:0:
256,192,72554,1,0,0:0:0:0:
256,192,72730,1,8,0:0:0:0:
256,192,72818,1,8,0:0:0:0:
256,192,72907,1,0,0:0:0:0:
256,192,72995,1,8,0:0:0:0:
256,192,73083,1,0,0:0:0:0:
256,192,73260,1,8,0:0:0:0:
256,192,73436,1,0,0:0:0:0:
256,192,73524,1,8,0:0:0:0:
256,192,73613,1,8,0:0:0:0:
256,192,73789,1,8,0:0:0:0:
256,192,73965,1,0,0:0:0:0:
256,192,74142,1,8,0:0:0:0:
256,192,74230,1,0,0:0:0:0:
256,192,74318,1,8,0:0:0:0:
256,192,74407,1,8,0:0:0:0:
256,192,74495,1,0,0:0:0:0:
256,192,74671,1,0,0:0:0:0:
256,192,74760,1,8,0:0:0:0:
256,192,74848,1,0,0:0:0:0:
256,192,74936,1,0,0:0:0:0:
256,192,75024,1,8,0:0:0:0:
256,192,75113,1,8,0:0:0:0:
256,192,75201,1,8,0:0:0:0:
256,192,75377,1,0,0:0:0:0:
256,192,75554,1,8,0:0:0:0:
256,192,75642,1,8,0:0:0:0:
256,192,75730,1,0,0:0:0:0:
256,192,75907,1,0,0:0:0:0:
256,192,76083,1,8,0:0:0:0:
256,192,76260,1,0,0:0:0:0:
256,192,76348,1,8,0:0:0:0:
256,192,76436,1,8,0:0:0:0:
256,192,76524,1,0,0:0:0:0:
256,192,76613,1,8,0:0:0:0:
256,192,76789,1,0,0:0:0:0:
256,192,76965,1,8,0:0:0:0:
256,192,77054,1,8,0:0:0:0:
256,192,77142,1,0,0:0:0:0:
256,192,77230,1,8,0:0:0:0:
256,192,77318,1,0,0:0:0:0:
256,192,77407,1,0,0:0:0:0:
256,192,77495,1,8,0:0:0:0:
256,192,77671,1,0,0:0:0:0:
256,192,77848,1,8,0:0:0:0:
256,192,77936,1,8,0:0:0:0:
256,192,78024,1,8,0:0:0:0:
256,192,78201,1,0,0:0:0:0:
256,192,78377,1,8,0:0:0:0:
256,192,78465,1,0,0:0:0:0:
256,192,78554,1,8,0:0:0:0:
256,192,78642,1,8,0:0:0:0:
256,192,78730,1,0,0:0:0:0:
256,192,78907,1,8,0:0:0:0:
256,192,79083,1,0,0:0:0:0:
256,192,79171,1,8,0:0:0:0:
256,192,79260,1,0,0:0:0:0:
256,192,79348,1,0,0:0:0:0:
256,192,79436,1,8,0:0:0:0:
256,192,79613,1,0,0:0:0:0:
256,192,79789,1,8,0:0:0:0:
256,192,79877,1,8,0:0:0:0:
256,192,79965,1,8,0:0:0:0:
256,192,80054,1,0,0:0:0:0:
256,192,80142,1,8,0:0:0:0:
256,192,80230,1,8,0:0:0:0:
256,192,80318,1,0,0:0:0:0:
256,192,80495,1,0,0:0:0:0:
256,192,80671,1,8,0:0:0:0:
256,192,81024,1,4,0:0:0:0:
256,192,81730,1,8,0:0:0:0:
256,192,82260,1,0,0:0:0:0:
256,192,82613,1,8,0:0:0:0:
256,192,82789,1,0,0:0:0:0:
256,192,83142,1,8,0:0:0:0:
256,192,83848,1,0,0:0:0:0:
256,192,84377,1,0,0:0:0:0:
256,192,84554,1,8,0:0:0:0:
256,192,84730,1,0,0:0:0:0:
256,192,85083,1,8,0:0:0:0:
256,192,85436,1,0,0:0:0:0:
256,192,85613,1,8,0:0:0:0:
256,192,85965,1,8,0:0:0:0:
256,192,86142,1,0,0:0:0:0:
256,192,86318,1,0,0:0:0:0:
256,192,86495,1,8,0:0:0:0:
256,192,86671,1,0,0:0:0:0:
256,192,87377,1,8,0:0:0:0:
256,192,87907,1,0,0:0:0:0:
256,192,88260,1,8,0:0:0:0:
256,192,88436,1,0,0:0:0:0:
256,192,88789,1,8,0:0:0:0:
256,192,89495,1,0,0:0:0:0:
256,192,90024,1,0,0:0:0:0:
256,192,90201,1,8,0:0:0:0:
256,192,90377,1,0,0:0:0:0:
256,192,90554,1,0,0:0:0:0:
256,192,90730,1,8,0:0:0:0:
256,192,92318,1,8,0:0:0:0:
256,192,92407,1,0,0:0:0:0:
256,192,92495,1,8,0:0:0:0:
256,192,92583,1,8,0:0:0:0:
256,192,92671,1,0,0:0:0:0:
256,192,92760,1,0,0:0:0:0:
256,192,92848,1,8,0:0:0:0:
256,192,93024,1,0,0:0:0:0:
256,192,93113,1,8,0:0:0:0:
256,192,93201,1,0,0:0:0:0:
256,192,93289,1,0,0:0:0:0:
256,192,93377,1,8,0:0:0:0:
256,192,93465,1,8,0:0:0:0:
256,192,93554,1,0,0:0:0:0:
256,192,93730,1,8,0:0:0:0:
256,192,93818,1,0,0:0:0:0:
256,192,93907,1,8,0:0:0:0:
256,192,93995,1,8,0:0:0:0:
256,192,94083,1,0,0:0:0:0:
256,192,94260,1,8,0:0:0:0:
256,192,94436,1,0,0:0:0:0:
256,192,94524,1,8,0:0:0:0:
256,192,94613,1,0,0:0:0:0:
256,192,94701,1,0,0:0:0:0:
256,192,94789,1,8,0:0:0:0:
256,192,94965,1,0,0:0:0:0:
256,192,95142,1,8,0:0:0:0:
256,192,95230,1,8,0:0:0:0:
256,192,95318,1,0,0:0:0:0:
256,192,95495,1,8,0:0:0:0:
256,192,95671,1,8,0:0:0:0:
256,192,95848,1,0,0:0:0:0:
256,192,95936,1,0,0:0:0:0:
256,192,96024,1,8,0:0:0:0:
256,192,96201,1,0,0:0:0:0:
256,192,96377,1,0,0:0:0:0:
256,192,96554,1,8,0:0:0:0:
256,192,96642,1,8,0:0:0:0:
256,192,96730,1,8,0:0:0:0:
256,192,96818,1,8,0:0:0:0:
256,192,96907,1,0,0:0:0:0:
256,192,96995,1,0,0:0:0:0:
256,192,97083,1,0,0:0:0:0:
256,192,97171,1,0,0:0:0:0:
256,192,97260,1,8,0:0:0:0:
256,192,97436,1,8,0:0:0:0:
256,192,97613,1,0,0:0:0:0:
256,192,97965,1,8,0:0:0:0:
256,192,98054,1,8,0:0:0:0:
256,192,98142,1,0,0:0:0:0:
256,192,98230,1,8,0:0:0:0:
256,192,98318,1,0,0:0:0:0:
256,192,98407,1,0,0:0:0:0:
256,192,98495,1,8,0:0:0:0:
256,192,98671,1,0,0:0:0:0:
256,192,98760,1,0,0:0:0:0:
256,192,98848,1,8,0:0:0:0:
256,192,98936,1,0,0:0:0:0:
256,192,99024,1,8,0:0:0:0:
256,192,99113,1,8,0:0:0:0:
256,192,99201,1,0,0:0:0:0:
256,192,99377,1,8,0:0:0:0:
256,192,99465,1,0,0:0:0:0:
256,192,99554,1,0,0:0:0:0:
256,192,99642,1,0,0:0:0:0:
256,192,99730,1,8,0:0:0:0:
256,192,99907,1,8,0:0:0:0:
256,192,100083,1,0,0:0:0:0:
256,192,100171,1,8,0:0:0:0:
256,192,100260,1,8,0:0:0:0:
256,192,100348,1,8,0:0:0:0:
256,192,100436,1,0,0:0:0:0:
256,192,100613,1,0,0:0:0:0:
256,192,100789,1,8,0:0:0:0:
256,192,100877,1,0,0:0:0:0:
256,192,100965,1,0,0:0:0:0:
256,192,101142,1,8,0:0:0:0:
256,192,101318,1,8,0:0:0:0:
256,192,101495,1,0,0:0:0:0:
256,192,101583,1,8,0:0:0:0:
256,192,101671,1,8,0:0:0:0:
256,192,101848,1,0,0:0:0:0:
256,192,102024,1,0,0:0:0:0:
256,192,102201,1,8,0:0:0:0:
256,192,102289,1,8,0:0:0:0:
256,192,102377,1,0,0:0:0:0:
256,192,102465,1,0,0:0:0:0:
256,192,102554,1,8,0:0:0:0:
256,192,102642,1,8,0:0:0:0:
256,192,102730,1,8,0:0:0:0:
256,192,102818,1,8,0:0:0:0:
256,192,102907,1,0,0:0:0:0:
256,192,103083,1,8,0:0:0:0:
256,192,103260,1,0,0:0:0:0:
256,192,103613,1,8,0:0:0:0:
256,192,103701,1,0,0:0:0:0:
256,192,103789,1,0,0:0:0:0:
256,192,103877,1,8,0:0:0:0:
256,192,103965,1,0,0:0:0:0:
256,192,104054,1,0,0:0:0:0:
256,192,104142,1,8,0:0:0:0:
256,192,104318,1,0,0:0:0:0:
256,192,104407,1,8,0:0:0:0:
256,192,104495,1,8,0:0:0:0:
256,192,104583,1,0,0:0:0:0:
256,192,104671,1,8,0:0:0:0:
256,192,104760,1,8,0:0:0:0:
256,192,104848,1,0,0:0:0:0:
256,192,105024,1,8,0:0:0:0:
256,192,105113,1,0,0:0:0:0:
256,192,105201,1,0,0:0:0:0:
256,192,105289,1,8,0:0:0:0:
256,192,105377,1,0,0:0:0:0:
256,192,105554,1,8,0:0:0:0:
256,192,105730,1,0,0:0:0:0:
256,192,105818,1,8,0:0:0:0:
256,192,105907,1,8,0:0:0:0:
256,192,105995,1,0,0:0:0:0:
256,192,106083,1,8,0:0:0:0:
256,192,106260,1,0,0:0:0:0:
256,192,106436,1,8,0:0:0:0:
256,192,106524,1,8,0:0:0:0:
256,192,106613,1,0,0:0:0:0:
256,192,106965,1,8,0:0:0:0:
256,192,107142,1,0,0:0:0:0:
256,192,107230,1,0,0:0:0:0:
256,192,107318,1,8,0:0:0:0:
256,192,107495,1,0,0:0:0:0:
256,192,107671,1,0,0:0:0:0:
256,192,107848,1,8,0:0:0:0:
256,192,107936,1,8,0:0:0:0:
256,192,108024,1,0,0:0:0:0:
256,192,108113,1,0,0:0:0:0:
256,192,108201,1,8,0:0:0:0:
256,192,108289,1,8,0:0:0:0:
256,192,108377,1,0,0:0:0:0:
256,192,108465,1,0,0:0:0:0:
256,192,108554,1,8,0:0:0:0:
256,192,108730,1,8,0:0:0:0:
256,192,108907,1,0,0:0:0:0:
256,192,109260,1,8,0:0:0:0:
256,192,109348,1,8,0:0:0:0:
256,192,109436,1,8,0:0:0:0:
256,192,109524,1,0,0:0:0:0:
256,192,109613,1,8,0:0:0:0:
256,192,109701,1,8,0:0:0:0:
256,192,109789,1,0,0:0:0:0:
256,192,109965,1,0,0:0:0:0:
256,192,110054,1,0,0:0:0:0:
256,192,110142,1,0,0:0:0:0:
256,192,110230,1,8,0:0:0:0:
256,192,110318,1,0,0:0:0:0:
256,192,110407,1,0,0:0:0:0:
256,192,110495,1,8,0:0:0:0:
256,192,110671,1,8,0:0:0:0:
256,192,110760,1,8,0:0:0:0:
256,192,110848,1,8,0:0:0:0:
256,192,110936,1,0,0:0:0:0:
256,192,111024,1,8,0:0:0:0:
256,192,111201,1,8,0:0:0:0:
256,192,111377,1,0,0:0:0:0:
256,192,111465,1,0,0:0:0:0:
256,192,111554,1,0,0:0:0:0:
256,192,111642,1,8,0:0:0:0:
256,192,111730,1,0,0:0:0:0:
256,192,111907,1,0,0:0:0:0:
256,192,112083,1,8,0:0:0:0:
256,192,112171,1,0,0:0:0:0:
256,192,112260,1,0,0:0:0:0:
256,192,112436,1,8,0:0:0:0:
256,192,112613,1,8,0:0:0:0:
256,192,112789,1,0,0:0:0:0:
256,192,112877,1,8,0:0:0:0:
256,192,112965,1,8,0:0:0:0:
256,192,113142,1,0,0:0:0:0:
256,192,113318,1,0,0:0:0:0:
256,192,113495,1,8,0:0:0:0:
256,192,113583,1,0,0:0:0:0:
256,192,113671,1,8,0:0:0:0:
256,192,113760,1,8,0:0:0:0:
256,192,113848,1,0,0:0:0:0:
256,192,113936,1,8,0:0:0:0:
256,192,114024,1,0,0:0:0:0:
256,192,114113,1,0,0:0:0:0:
256,192,114201,1,8,0:0:0:0:
256,192,114377,1,8,0:0:0:0:
256,192,114465,1,8,0:0:0:0:
256,192,114554,1,0,0:0:0:0:
256,192,114642,1,8,0:0:0:0:
256,192,114730,1,8,0:0:0:0:
256,192,114907,1,4,0:0:0:0:
256,192,115965,1,8,0:0:0:0:
256,192,120554,1,0,0:0:0:0:
256,192,121613,1,8,0:0:0:0:
256,192,126201,1,4,0:0:0:0:
256,192,126554,1,8,0:0:0:0:
256,192,126730,1,8,0:0:0:0:
256,192,126907,1,0,0:0:0:0:
256,192,127260,1,0,0:0:0:0:
256,192,127436,1,8,0:0:0:0:
256,192,127613,1,8,0:0:0:0:
256,192,127789,1,8,0:0:0:0:
256,192,127965,1,0,0:0:0:0:
256,192,128318,1,8,0:0:0:0:
256,192,128671,1,8,0:0:0:0:
256,192,129024,1,0,0:0:0:0:
256,192,129201,1,0,0:0:0:0:
256,192,129377,1,8,0:0:0:0:
256,192,129730,1,8,0:0:0:0:
256,192,129907,1,8,0:0:0:0:
256,192,130083,1,0,0:0:0:0:
256,192,130436,1,8,0:0:0:0:
256,192,130789,1,0,0:0:0:0:
256,192,131142,1,8,0:0:0:0:
256,192,131495,1,8,0:0:0:0:
256,192,131848,1,0,0:0:0:0:
256,192,132024,1,8,0:0:0:0:
256,192,132201,1,0,0:0:0:0:
256,192,132377,1,0,0:0:0:0:
256,192,132554,1,8,0:0:0:0:
256,192,132730,1,8,0:0:0:0:
256,192,132907,1,0,0:0:0:0:
256,192,133260,1,8,0:0:0:0:
256,192,133436,1,0,0:0:0:0:
256,192,133613,1,8,0:0:0:0:
256,192,133789,1,8,0:0:0:0:
256,192,133965,1,0,0:0:0:0:
256,192,134142,1,0,0:0:0:0:
256,192,134318,1,8,0:0:0:0:
256,192,134671,1,0,0:0:0:0:
256,192,136083,1,8,0:0:0:0:
256,192,136142,1,8,0:0:0:0:
256,192,136201,1,8,0:0:0:0:
256,192,136260,1,0,0:0:0:0:
256,192,136436,1,8,0:0:0:0:
256,192,136613,1,0,0:0:0:0:
256,192,136701,1,8,0:0:0:0:
256,192,136877,1,8,0:0:0:0:
256,192,136965,1,0,0:0:0:0:
256,192,137142,1,12,0:0:0:0:
256,192,137495,1,4,0:0:0:0:
256,192,137671,1,8,0:0:0:0:
256,192,137760,1,8,0:0:0:0:
256,192,137848,1,0,0:0:0:0:
256,192,138024,1,0,0:0:0:0:
256,192,138201,1,8,0:0:0:0:
256,192,138377,1,0,0:0:0:0:
256,192,138465,1,0,0:0:0:0:
256,192,138554,1,8,0:0:0:0:
256,192,138642,1,0,0:0:0:0:
256,192,138730,1,8,0:0:0:0:
256,192,138907,1,0,0:0:0:0:
256,192,139083,1,8,0:0:0:0:
256,192,139171,1,8,0:0:0:0:
256,192,139260,1,0,0:0:0:0:
256,192,139348,1,0,0:0:0:0:
256,192,139436,1,8,0:0:0:0:
256,192,139524,1,0,0:0:0:0:
256,192,139613,1,8,0:0:0:0:
256,192,139789,1,0,0:0:0:0:
256,192,139965,1,8,0:0:0:0:
256,192,140054,1,8,0:0:0:0:
256,192,140142,1,8,0:0:0:0:
256,192,140318,1,0,0:0:0:0:
256,192,140495,1,8,0:0:0:0:
256,192,140583,1,8,0:0:0:0:
256,192,140671,1,0,0:0:0:0:
256,192,140760,1,8,0:0:0:0:
256,192,140848,1,0,0:0:0:0:
256,192,141024,1,8,0:0:0:0:
256,192,141201,1,0,0:0:0:0:
256,192,141289,1,0,0:0:0:0:
256,192,141377,1,8,0:0:0:0:
256,192,141554,1,8,0:0:0:0:
256,192,141730,1,0,0:0:0:0:
256,192,141907,1,8,0:0:0:0:
256,192,141995,1,0,0:0:0:0:
256,192,142083,1,8,0:0:0:0:
256,192,142171,1,8,0:0:0:0:
256,192,142260,1,0,0:0:0:0:
256,192,142436,1,0,0:0:0:0:
256,192,142524,1,8,0:0:0:0:
256,192,142613,1,0,0:0:0:0:
256,192,142701,1,0,0:0:0:0:
256,192,142789,1,8,0:0:0:0:
256,192,142965,1,8,0:0:0:0:
256,192,143142,1,0,0:0:0:0:
256,192,143318,1,8,0:0:0:0:
256,192,143407,1,8,0:0:0:0:
256,192,143495,1,0,0:0:0:0:
256,192,143671,1,0,0:0:0:0:
256,192,143848,1,8,0:0:0:0:
256,192,144024,1,0,0:0:0:0:
256,192,144113,1,0,0:0:0:0:
256,192,144201,1,8,0:0:0:0:
256,192,144289,1,0,0:0:0:0:
256,192,144377,1,8,0:0:0:0:
256,192,144554,1,0,0:0:0:0:
256,192,144730,1,8,0:0:0:0:
256,192,144818,1,8,0:0:0:0:
256,192,144907,1,0,0:0:0:0:
256,192,144995,1,0,0:0:0:0:
256,192,145083,1,8,0:0:0:0:
256,192,145171,1,0,0:0:0:0:
256,192,145260,1,8,0:0:0:0:
256,192,145436,1,0,0:0:0:0:
256,192,145613,1,8,0:0:0:0:
256,192,145701,1,8,0:0:0:0:
256,192,145789,1,8,0:0:0:0:
256,192,145965,1,0,0:0:0:0:
256,192,146142,1,8,0:0:0:0:
256,192,146230,1,0,0:0:0:0:
256,192,146318,1,8,0:0:0:0:
256,192,146407,1,8,0:0:0:0:
256,192,146495,1,0,0:0:0:0:
256,192,146671,1,8,0:0:0:0:
256,192,146848,1,0,0:0:0:0:
256,192,146936,1,8,0:0:0:0:
256,192,147024,1,0,0:0:0:0:
256,192,147113,1,0,0:0:0:0:
256,192,147201,1,8,0:0:0:0:
256,192,147377,1,0,0:0:0:0:
256,192,147554,1,8,0:0:0:0:
256,192,147642,1,8,0:0:0:0:
256,192,147730,1,0,0:0:0:0:
256,192,147907,1,0,0:0:0:0:
256,192,147995,1,0,0:0:0:0:
256,192,148083,1,8,0:0:0:0:
256,192,148260,1,0,0:0:0:0:
256,192,148436,1,8,0:0:0:0:
256,192,148789,1,4,0:0:0:0:
256,192,148965,1,8,0:0:0:0:
256,192,149054,1,8,0:0:0:0:
256,192,149142,1,0,0:0:0:0:
256,192,149318,1,0,0:0:0:0:
256,192,149495,1,8,0:0:0:0:
256,192,149671,1,0,0:0:0:0:
256,192,149760,1,8,0:0:0:0:
256,192,149848,1,8,0:0:0:0:
256,192,149936,1,0,0:0:0:0:
256,192,150024,1,8,0:0:0:0:
256,192,150201,1,0,0:0:0:0:
256,192,150377,1,8,0:0:0:0:
256,192,150465,1,8,0:0:0:0:
256,192,150554,1,0,0:0:0:0:
256,192,150642,1,8,0:0:0:0:
256,192,150730,1,0,0:0:0:0:
256,192,150818,1,0,0:0:0:0:
256,192,150907,1,8,0:0:0:0:
256,192,151083,1,0,0:0:0:0:
256,192,151260,1,8,0:0:0:0:
256,192,151348,1,8,0:0:0:0:
256,192,151436,1,8,0:0:0:0:
256,192,151613,1,0,0:0:0:0:
256,192,151789,1,8,0:0:0:0:
256,192,151877,1,8,0:0:0:0:
256,192,151965,1,0,0:0:0:0:
256,192,152054,1,8,0:0:0:0:
256,192,152142,1,0,0:0:0:0:
256,192,152318,1,8,0:0:0:0:
256,192,152495,1,0,0:0:0:0:
256,192,152583,1,8,0:0:0:0:
256,192,152671,1,8,0:0:0:0:
256,192,152848,1,8,0:0:0:0:
256,192,153024,1,0,0:0:0:0:
256,192,153201,1,8,0:0:0:0:
256,192,153289,1,0,0:0:0:0:
256,192,153377,1,8,0:0:0:0:
256,192,153465,1,8,0:0:0:0:
256,192,153554,1,0,0:0:0:0:
256,192,153730,1,0,0:0:0:0:
256,192,153818,1,8,0:0:0:0:
256,192,153907,1,0,0:0:0:0:
256,192,153995,1,0,0:0:0:0:
256,192,154083,1,8,0:0:0:0:
256,192,154260,1,8,0:0:0:0:
256,192,154436,1,0,0:0:0:0:
256,192,154613,1,8,0:0:0:0:
256,192,154701,1,8,0:0:0:0:
256,192,154789,1,0,0:0:0:0:
256,192,154965,1,0,0:0:0:0:
256,192,155142,1,8,0:0:0:0:
256,192,155318,1,0,0:0:0:0:
256,192,155407,1,8,0:0:0:0:
256,192,155495,1,8,0:0:0:0:
256,192,155583,1,0,0:0:0:0:
256,192,155671,1,8,0:0:0:0:
256,192,155848,1,0,0:0:0:0:
256,192,156024,1,8,0:0:0:0:
256,192,156113,1,8,0:0:0:0:
256,192,156201,1,0,0:0:0:0:
256,192,156289,1,8,0:0:0:0:
256,192,156377,1,0,0:0:0:0:
256,192,156465,1,0,0:0:0:0:
256,192,156554,1,8,0:0:0:0:
256,192,156730,1,0,0:0:0:0:
256,192,156907,1,8,0:0:0:0:
256,192,156995,1,8,0:0:0:0:
256,192,157083,1,8,0:0:0:0:
256,192,157260,1,0,0:0:0:0:
256,192,157436,1,8,0:0:0:0:
256,192,157524,1,8,0:0:0:0:
256,192,157613,1,0,0:0:0:0:
256,192,157701,1,8,0:0:0:0:
256,192,157789,1,0,0:0:0:0:
256,192,157965,1,8,0:0:0:0:
256,192,158318,1,0,0:0:0:0:
256,192,158495,1,8,0:0:0:0:
256,192,158848,1,8,0:0:0:0:
256,192,159024,1,0,0:0:0:0:
256,192,159201,1,0,0:0:0:0:
256,192,159377,1,8,0:0:0:0:
256,192,159730,1,0,0:0:0:0:
256,192,160083,1,8,0:0:0:0:
256,192,160142,1,8,0:0:0:0:
256,192,160201,1,0,0:0:0:0:
256,192,160260,1,0,0:0:0:0:
256,192,160436,1,8,0:0:0:0:
256,192,160495,1,8,0:0:0:0:
256,192,160554,1,0,0:0:0:0:
256,192,160613,1,0,0:0:0:0:
256,192,160789,1,8,0:0:0:0:
256,192,160848,1,8,0:0:0:0:
256,192,160907,1,8,0:0:0:0:
256,192,160965,1,0,0:0:0:0:
256,192,161142,1,8,0:0:0:0:
256,192,161201,1,8,0:0:0:0:
256,192,161260,1,8,0:0:0:0:
256,192,161318,1,0,0:0:0:0:
256,192,161495,1,8,0:0:0:0:
256,192,161539,1,8,0:0:0:0:
256,192,161848,1,8,0:0:0:0:
256,192,161892,1,8,0:0:0:0:
256,192,162201,1,8,0:0:0:0:
256,192,162245,1,8,0:0:0:0:
256,192,162554,1,0,0:0:0:0:
256,192,162907,1,4,0:0:0:0:
256,192,163083,1,8,0:0:0:0:
256,192,163171,1,8,0:0:0:0:
256,192,163260,1,0,0:0:0:0:
256,192,163348,1,8,0:0:0:0:
256,192,163436,1,0,0:0:0:0:
256,192,163613,1,8,0:0:0:0:
256,192,163789,1,0,0:0:0:0:
256,192,163877,1,0,0:0:0:0:
256,192,163965,1,8,0:0:0:0:
256,192,164054,1,0,0:0:0:0:
256,192,164142,1,8,0:0:0:0:
256,192,164318,1,0,0:0:0:0:
256,192,164495,1,8,0:0:0:0:
256,192,164583,1,0,0:0:0:0:
256,192,164671,1,0,0:0:0:0:
256,192,164760,1,8,0:0:0:0:
256,192,164848,1,8,0:0:0:0:
256,192,164936,1,0,0:0:0:0:
256,192,165024,1,8,0:0:0:0:
256,192,165201,1,0,0:0:0:0:
256,192,165377,1,8,0:0:0:0:
256,192,165465,1,8,0:0:0:0:
256,192,165554,1,8,0:0:0:0:
256,192,165642,1,8,0:0:0:0:
256,192,165730,1,0,0:0:0:0:
256,192,165907,1,8,0:0:0:0:
256,192,165995,1,0,0:0:0:0:
256,192,166083,1,0,0:0:0:0:
256,192,166260,1,0,0:0:0:0:
256,192,166348,1,8,0:0:0:0:
256,192,166436,1,8,0:0:0:0:
256,192,166613,1,0,0:0:0:0:
256,192,166789,1,8,0:0:0:0:
256,192,166877,1,0,0:0:0:0:
256,192,166965,1,8,0:0:0:0:
256,192,167142,1,0,0:0:0:0:
256,192,167318,1,8,0:0:0:0:
256,192,167407,1,8,0:0:0:0:
256,192,167495,1,0,0:0:0:0:
256,192,167583,1,8,0:0:0:0:
256,192,167671,1,8,0:0:0:0:
256,192,167848,1,0,0:0:0:0:
256,192,167936,1,0,0:0:0:0:
256,192,168024,1,8,0:0:0:0:
256,192,168113,1,8,0:0:0:0:
256,192,168201,1,0,0:0:0:0:
256,192,168289,1,8,0:0:0:0:
256,192,168377,1,8,0:0:0:0:
256,192,168465,1,8,0:0:0:0:
256,192,168554,1,0,0:0:0:0:
256,192,168730,1,8,0:0:0:0:
256,192,168818,1,8,0:0:0:0:
256,192,168907,1,0,0:0:0:0:
256,192,168995,1,8,0:0:0:0:
256,192,169083,1,0,0:0:0:0:
256,192,169260,1,8,0:0:0:0:
256,192,169613,1,0,0:0:0:0:
256,192,169789,1,8,0:0:0:0:
256,192,170142,1,8,0:0:0:0:
256,192,170318,1,0,0:0:0:0:
256,192,170495,1,0,0:0:0:0:
256,192,170671,1,8,0:0:0:0:
256,192,170789,1,8,0:0:0:0:
256,192,170907,1,8,0:0:0:0:
256,192,171024,1,0,0:0:0:0:
256,192,171377,1,4,0:0:0:0:
256,192,171554,1,8,0:0:0:0:
256,192,171642,1,8,0:0:0:0:
256,192,171730,1,0,0:0:0:0:
256,192,171907,1,0,0:0:0:0:
256,192,171995,1,0,0:0:0:0:
256,192,172083,1,8,0:0:0:0:
256,192,172260,1,0,0:0:0:0:
256,192,172436,1,8,0:0:0:0:
256,192,172524,1,0,0:0:0:0:
256,192,172613,1,8,0:0:0:0:
256,192,172701,1,8,0:0:0:0:
256,192,172789,1,0,0:0:0:0:
256,192,172965,1,0,0:0:0:0:
256,192,173054,1,8,0:0:0:0:
256,192,173142,1,8,0:0:0:0:
256,192,173230,1,0,0:0:0:0:
256,192,173318,1,8,0:0:0:0:
256,192,173407,1,8,0:0:0:0:
256,192,173495,1,0,0:0:0:0:
256,192,173671,1,0,0:0:0:0:
256,192,173760,1,0,0:0:0:0:
256,192,173848,1,8,0:0:0:0:
256,192,173936,1,8,0:0:0:0:
256,192,174024,1,8,0:0:0:0:
256,192,174201,1,0,0:0:0:0:
256,192,174377,1,8,0:0:0:0:
256,192,174465,1,8,0:0:0:0:
256,192,174554,1,0,0:0:0:0:
256,192,174642,1,8,0:0:0:0:
256,192,174730,1,0,0:0:0:0:
256,192,174907,1,8,0:0:0:0:
256,192,175083,1,0,0:0:0:0:
256,192,175171,1,0,0:0:0:0:
256,192,175260,1,8,0:0:0:0:
256,192,175348,1,0,0:0:0:0:
256,192,175436,1,8,0:0:0:0:
256,192,175524,1,8,0:0:0:0:
256,192,175613,1,0,0:0:0:0:
256,192,175789,1,0,0:0:0:0:
256,192,175877,1,0,0:0:0:0:
256,192,175965,1,8,0:0:0:0:
256,192,176054,1,0,0:0:0:0:
256,192,176142,1,8,0:0:0:0:
256,192,176318,1,8,0:0:0:0:
256,192,176407,1,8,0:0:0:0:
256,192,176495,1,0,0:0:0:0:
256,192,176583,1,0,0:0:0:0:
256,192,176671,1,8,0:0:0:0:
256,192,176760,1,8,0:0:0:0:
256,192,176848,1,8,0:0:0:0:
256,192,176936,1,8,0:0:0:0:
256,192,177024,1,0,0:0:0:0:
256,192,177201,1,8,0:0:0:0:
256,192,177289,1,0,0:0:0:0:
256,192,177377,1,0,0:0:0:0:
256,192,177554,1,0,0:0:0:0:
256,192,177642,1,8,0:0:0:0:
256,192,177730,1,8,0:0:0:0:
256,192,177907,1,0,0:0:0:0:
256,192,178083,1,8,0:0:0:0:
256,192,178171,1,0,0:0:0:0:
256,192,178260,1,8,0:0:0:0:
256,192,178348,1,8,0:0:0:0:
256,192,178436,1,0,0:0:0:0:
256,192,178613,1,0,0:0:0:0:
256,192,178701,1,8,0:0:0:0:
256,192,178789,1,8,0:0:0:0:
256,192,178877,1,0,0:0:0:0:
256,192,178965,1,8,0:0:0:0:
256,192,179054,1,8,0:0:0:0:
256,192,179142,1,0,0:0:0:0:
256,192,179318,1,0,0:0:0:0:
256,192,179495,1,8,0:0:0:0:
256,192,179583,1,8,0:0:0:0:
256,192,179671,1,8,0:0:0:0:
256,192,179760,1,8,0:0:0:0:
256,192,179848,1,0,0:0:0:0:
256,192,180024,1,8,0:0:0:0:
256,192,180113,1,8,0:0:0:0:
256,192,180201,1,0,0:0:0:0:
256,192,180289,1,8,0:0:0:0:
256,192,180377,1,0,0:0:0:0:
256,192,180554,1,8,0:0:0:0:
256,192,180907,1,0,0:0:0:0:
256,192,181083,1,8,0:0:0:0:
256,192,181436,1,8,0:0:0:0:
256,192,181613,1,0,0:0:0:0:
256,192,181789,1,0,0:0:0:0:
256,192,181965,1,8,0:0:0:0:
256,192,182318,1,8,0:0:0:0:
256,192,182671,1,4,0:0:0:0:
