osu file format v14

[General]
AudioFilename: audio.mp3
AudioLeadIn: 0
PreviewTime: 118842
Countdown: 0
SampleSet: Soft
StackLeniency: 0.5
Mode: 0
LetterboxInBreaks: 0
WidescreenStoryboard: 1

[Editor]
Bookmarks: 387,2151,16269,30386,37445,48034,51563,65681,79798,93916,100975,108034,122151,132739,136269,150386,153916,164504,178622,180386
DistanceSpacing: 1.6
BeatDivisor: 4
GridSize: 32
TimelineZoom: 1.6

[Metadata]
Title:Anemone
TitleUnicode:アネモネ
Artist:DUSTCELL
ArtistUnicode:DUSTCELL
Creator:Sparhten
Version:Irrational
Source:
Tags:Bongo Neonlights agatsu Oneshotfox japanese rei sirose SUMMIT rock pop anime alt amiya arknights corsace qualifiers nomod nm4
BeatmapID:2593243
BeatmapSetID:1247651

[Difficulty]
HPDrainRate:5
CircleSize:4
OverallDifficulty:8.5
ApproachRate:9.6
SliderMultiplier:2.99999990463257
SliderTickRate:1

[Events]
//Background and Video events
0,0,"EYW4FV4UMAEucWi.jpg",0,0
//Break Periods
//Storyboard Layer 0 (Background)
//Storyboard Layer 1 (Fail)
//Storyboard Layer 2 (Pass)
//Storyboard Layer 3 (Foreground)
//Storyboard Layer 4 (Overlay)
//Storyboard Sound Samples

[TimingPoints]
387,441.176470588235,4,2,0,45,1,0
2151,-83.3333333333333,4,2,0,70,0,0
16269,-125,4,2,0,60,0,0
30386,-500,4,2,0,55,0,0
37114,-50,4,2,0,60,0,0
37445,-76.9230769230769,4,2,0,75,0,1
48254,-100,4,2,0,70,0,0
50791,-76.9230769230769,4,2,0,70,0,0
51563,-76.9230769230769,4,2,0,75,0,1
64798,-76.9230769230769,4,2,0,65,0,0
65681,-83.3333333333333,4,2,0,70,0,0
79798,-166.666666666667,4,2,0,55,0,0
86857,-333.333333333334,4,2,0,55,0,0
88622,-1000,4,2,0,55,0,0
92372,-166.666666666667,4,2,0,55,0,0
93916,-90.9090909090909,4,2,0,70,0,0
100975,-111.111111111111,4,2,0,60,0,0
108034,-249.999999999999,4,2,0,45,0,0
121710,-66.6666666666667,4,2,0,70,0,0
122151,-76.9230769230769,4,2,0,80,0,1
132739,-100,4,2,0,75,0,0
135607,-76.9230769230769,4,2,0,75,0,0
136269,-76.9230769230769,4,2,0,80,0,1
141122,-66.6666666666667,4,2,0,80,0,1
141563,-76.9230769230769,4,2,0,80,0,1
150386,-83.3333333333333,4,2,0,75,0,0
153475,-83.3333333333333,4,2,0,80,0,1
164504,-83.3333333333333,4,2,0,70,0,0
178622,-100,4,2,0,55,0,0

[Colours]
Combo1 : 196,217,217
Combo2 : 215,215,215
Combo3 : 213,186,183

[HitObjects]
34,43,387,6,0,L|38:83,1,37.4999988079071,2|0,0:0|0:0,0:0:0:0:
265,106,607,2,0,L|260:145,1,37.4999988079071,2|0,0:0|0:0,0:0:0:0:
92,215,828,2,0,L|96:254,1,37.4999988079071,2|0,0:0|0:0,0:0:0:0:
233,318,1048,2,0,L|230:354,2,37.4999988079071,2|0|2,0:0|0:0|0:0,0:0:0:0:
140,341,1379,1,2,0:0:0:0:
303,237,1489,5,10,0:0:0:0:
349,354,1600,1,0,0:0:0:0:
309,243,1710,5,8,0:0:0:0:
416,152,2151,6,0,B|457:126|457:126|506:131,1,89.9999943923952,4|0,1:2|0:2,0:0:0:0:
386,259,2372,2,0,B|344:263|344:263|303:237,1,89.9999943923952,0|0,0:2|0:2,0:0:0:0:
416,152,2592,1,8,0:2:0:0:
465,28,2703,2,0,B|397:40|397:40|371:68|371:68|286:78,1,179.99998878479,0|0,0:2|0:2,0:0:0:0:
204,147,3034,2,0,L|87:143,1,89.9999943923952,0|0,1:2|0:2,0:0:0:0:
0,106,3254,5,0,0:2:0:0:
41,187,3364,1,0,0:2:0:0:
110,63,3475,2,0,P|129:107|81:159,1,89.9999943923952,8|0,0:2|0:2,0:0:0:0:
41,187,3695,2,0,P|45:235|112:257,1,89.9999943923952,0|0,0:2|0:2,0:0:0:0:
165,239,3916,5,0,1:2:0:0:
235,207,4026,1,0,0:2:0:0:
309,226,4136,1,0,0:2:0:0:
349,293,4247,1,0,0:2:0:0:
302,372,4357,5,8,0:2:0:0:
427,369,4467,2,0,P|466:286|391:223,1,179.99998878479,0|0,0:2|0:2,0:0:0:0:
372,152,4798,2,0,P|357:104|409:55,1,89.9999943923952,0|0,1:2|0:2,0:0:0:0:
455,34,5019,5,0,0:2:0:0:
283,56,5129,1,0,0:2:0:0:
374,70,5239,5,8,0:2:0:0:
149,26,5460,1,0,0:2:0:0:
149,26,5681,6,0,B|103:16|103:16|62:32,1,89.9999943923952,0|0,1:2|0:2,0:0:0:0:
180,178,5901,2,0,B|227:182|227:182|278:149,1,89.9999943923952,0|0,0:2|0:2,0:0:0:0:
113,110,6122,1,8,0:2:0:0:
180,178,6232,2,0,L|188:360,1,179.99998878479,0|0,0:2|0:2,0:0:0:0:
16,327,6563,2,0,B|53:305|53:305|126:322,1,89.9999943923952,0|0,1:2|0:2,0:0:0:0:
273,384,6784,5,0,0:2:0:0:
326,288,6894,1,0,0:2:0:0:
424,380,7004,6,0,L|411:273,1,89.9999943923952,8|0,0:2|0:2,0:0:0:0:
270,117,7225,2,0,L|259:206,1,89.9999943923952,0|0,0:2|0:2,0:0:0:0:
447,169,7445,6,0,P|406:189|334:156,1,89.9999943923952,0|0,1:2|0:2,0:0:0:0:
395,85,7666,1,0,0:2:0:0:
395,85,7776,1,0,0:2:0:0:
236,40,7886,6,0,P|269:79|244:152,1,89.9999943923952,8|0,0:2|0:2,0:0:0:0:
169,112,8107,1,0,0:2:0:0:
169,112,8217,1,0,0:2:0:0:
189,248,8328,6,0,P|286:219|300:237,1,89.9999943923952,0|0,1:2|0:2,0:0:0:0:
274,315,8548,1,8,0:2:0:0:
274,315,8659,1,0,0:2:0:0:
448,296,8769,5,8,0:2:0:0:
259,207,8879,1,0,0:2:0:0:
435,189,8989,6,0,B|397:204|397:204|386:216|386:216|345:235,1,89.9999943923952,0|0,0:2|0:2,0:0:0:0:
356,326,9210,6,0,B|315:303|315:303|251:320,1,89.9999943923952,0|0,1:2|0:2,0:0:0:0:
20,285,9431,2,0,B|60:307|60:307|102:296,1,89.9999943923952,0|0,0:2|0:2,0:0:0:0:
186,188,9651,1,8,0:2:0:0:
186,188,9761,2,0,L|198:371,1,179.99998878479,0|0,0:2|0:2,0:0:0:0:
14,374,10092,2,0,L|20:276,1,89.9999943923952,0|0,1:2|0:2,0:0:0:0:
26,72,10313,5,0,0:2:0:0:
85,155,10423,1,0,0:2:0:0:
232,99,10534,2,0,B|200:78|200:78|135:73,1,89.9999943923952,8|0,0:2|0:2,0:0:0:0:
0,167,10754,2,0,B|39:175|39:175|84:154,1,89.9999943923952,0|0,0:2|0:2,0:0:0:0:
189,5,10975,5,0,1:2:0:0:
148,74,11085,1,0,0:2:0:0:
161,153,11195,5,0,0:2:0:0:
234,187,11306,1,0,0:2:0:0:
318,134,11416,5,8,0:2:0:0:
355,254,11526,2,0,P|348:210|213:213,1,179.99998878479,0|0,0:2|0:2,0:0:0:0:
113,266,11857,2,0,P|154:280|195:263,1,89.9999943923952,0|0,1:2|0:2,0:0:0:0:
233,186,12078,5,0,0:2:0:0:
226,354,12188,1,0,0:2:0:0:
196,263,12298,5,8,0:2:0:0:
357,356,12519,1,0,0:2:0:0:
357,356,12739,6,0,B|373:307|373:307|362:248,1,89.9999943923952,0|0,1:2|0:2,0:0:0:0:
504,152,12960,2,0,B|492:198|492:198|509:260,1,89.9999943923952,0|0,0:2|0:2,0:0:0:0:
365,269,13181,1,8,0:2:0:0:
206,199,13291,2,0,P|311:198|342:131,1,179.99998878479,0|0,0:2|0:2,0:0:0:0:
456,1,13622,2,0,B|419:15|419:15|405:30|405:30|362:42,1,89.9999943923952,0|0,1:2|0:2,0:0:0:0:
299,10,13842,5,0,0:2:0:0:
427,117,13953,1,0,0:2:0:0:
175,76,14063,6,0,L|263:99,1,89.9999943923952,8|0,0:2|0:2,0:0:0:0:
212,287,14284,2,0,L|124:264,1,89.9999943923952,0|0,0:2|0:2,0:0:0:0:
6,99,14504,6,0,P|58:89|100:140,1,89.9999943923952,0|0,1:2|0:2,0:0:0:0:
37,203,14725,1,0,0:2:0:0:
37,203,14835,1,8,0:2:0:0:
112,344,14945,2,0,P|102:300|125:263,1,89.9999943923952,8|0,0:2|0:2,0:0:0:0:
217,328,15166,1,0,0:2:0:0:
217,328,15276,1,0,0:2:0:0:
316,207,15386,6,0,P|256:208|229:158,1,89.9999943923952,0|0,1:2|0:2,0:0:0:0:
300,109,15607,1,0,0:2:0:0:
300,109,15717,1,0,0:2:0:0:
119,83,15828,5,8,0:2:0:0:
215,60,15938,1,0,0:2:0:0:
300,109,16048,1,0,0:2:0:0:
316,207,16159,1,0,0:2:0:0:
410,286,16269,6,0,B|403:254|403:254|426:216,1,59.9999980926514,6|2,1:2|0:2,0:0:0:0:
455,143,16489,1,2,0:2:0:0:
455,143,16600,6,0,L|384:151,1,59.9999980926514,2|8,0:2|0:2,0:0:0:0:
322,290,16820,2,0,L|262:283,1,59.9999980926514,2|0,0:2|0:2,0:0:0:0:
262,283,17041,1,2,0:2:0:0:
262,283,17151,1,2,1:2:0:0:
136,173,17372,6,0,B|89:182|89:182|64:173|64:173|-9:190,2,119.999996185303,2|10|2,0:2|0:2|0:2,0:0:0:0:
136,173,18034,5,0,1:2:0:0:
108,348,18254,5,2,0:2:0:0:
177,312,18364,1,2,0:2:0:0:
231,368,18475,1,10,0:2:0:0:
231,368,18585,2,0,P|261:374|301:353,1,59.9999980926514,0|0,0:2|0:2,0:0:0:0:
489,330,18806,5,2,0:2:0:0:
413,348,18916,1,2,1:2:0:0:
413,348,19026,1,2,0:2:0:0:
366,281,19136,5,2,0:2:0:0:
366,281,19247,1,2,0:2:0:0:
429,158,19357,2,0,P|468:203|438:261,1,119.999996185303,10|2,0:2|0:2,0:0:0:0:
149,301,19798,1,2,1:2:0:0:
149,301,19909,2,0,B|116:311|116:311|68:298,1,59.9999980926514,2|0,0:2|0:2,0:0:0:0:
0,212,20129,5,2,0:2:0:0:
68,174,20239,1,10,0:2:0:0:
136,210,20350,2,0,L|211:188,1,59.9999980926514,2|0,0:2|0:2,0:0:0:0:
284,166,20570,5,2,0:2:0:0:
229,93,20681,1,2,1:2:0:0:
229,93,20791,1,2,0:2:0:0:
273,19,20901,1,2,0:2:0:0:
273,19,21011,1,2,0:2:0:0:
365,27,21122,1,10,0:2:0:0:
365,27,21232,1,2,0:2:0:0:
371,110,21342,2,0,L|296:88,1,59.9999980926514,2|0,0:2|0:2,0:0:0:0:
75,30,21563,5,2,1:2:0:0:
75,30,21673,2,0,P|98:105|87:112,1,59.9999980926514,2|0,0:2|0:2,0:0:0:0:
46,192,21894,1,2,0:2:0:0:
46,192,22004,2,0,P|79:172|136:183,1,59.9999980926514,10|0,0:2|0:2,0:0:0:0:
205,273,22225,5,2,0:2:0:0:
253,210,22335,1,2,0:2:0:0:
171,141,22445,1,2,1:2:0:0:
171,141,22556,2,0,B|183:176|183:176|176:212,1,59.9999980926514,2|8,0:2|0:2,0:0:0:0:
143,312,22776,1,2,0:2:0:0:
143,312,22886,2,0,B|186:303|186:303|281:321,1,119.999996185303,10|2,0:2|0:2,0:0:0:0:
379,345,23328,5,2,1:2:0:0:
379,345,23438,1,2,0:2:0:0:
334,272,23548,1,2,0:2:0:0:
334,272,23659,1,2,0:2:0:0:
368,193,23769,1,10,0:2:0:0:
485,260,23879,2,0,P|455:271|403:245,1,59.9999980926514,2|0,0:2|0:2,0:0:0:0:
310,134,24100,5,2,0:2:0:0:
350,63,24210,1,2,1:2:0:0:
350,63,24320,1,2,0:2:0:0:
290,7,24431,1,2,0:2:0:0:
290,7,24541,1,2,0:2:0:0:
164,78,24651,1,10,0:2:0:0:
164,78,24761,2,0,P|195:66|245:71,1,59.9999980926514,2|0,0:2|0:2,0:0:0:0:
314,140,24982,5,2,0:2:0:0:
314,140,25092,2,0,B|373:129,1,59.9999980926514,2|2,1:2|0:2,0:0:0:0:
487,29,25313,2,0,B|427:20,1,59.9999980926514,2|2,0:2|0:2,0:0:0:0:
496,124,25534,2,0,B|473:168|473:168|452:253,2,119.999996185303,10|2|2,0:2|0:2|1:2,0:0:0:0:
496,124,26195,1,0,0:2:0:0:
357,235,26416,6,0,L|261:222,1,59.9999980926514,10|0,1:2|0:2,0:0:0:0:
179,328,26636,2,0,P|237:340|289:312,1,119.999996185303,2|0,0:2|1:2,0:0:0:0:
56,231,27078,5,2,0:2:0:0:
56,231,27188,1,2,0:2:0:0:
56,231,27298,2,0,L|141:219,1,59.9999980926514,10|0,0:2|0:2,0:0:0:0:
222,156,27519,2,0,B|199:165|199:165|165:155,1,59.9999980926514,2|0,0:2|0:2,0:0:0:0:
73,19,27739,6,0,L|83:145,1,119.999996185303,2|2,1:2|0:2,0:0:0:0:
227,161,28070,1,2,0:2:0:0:
227,161,28181,2,0,L|217:287,1,119.999996185303,10|2,0:2|0:2,0:0:0:0:
71,335,28511,1,2,0:2:0:0:
71,335,28622,6,0,P|119:321|144:333,1,59.9999980926514,2|0,1:2|0:2,0:0:0:0:
118,231,28842,2,0,P|176:259|181:277,1,59.9999980926514,2|0,0:2|0:2,0:0:0:0:
366,334,29063,6,0,P|318:320|293:332,1,59.9999980926514,10|0,0:2|0:2,0:0:0:0:
319,230,29283,2,0,P|261:258|256:276,1,59.9999980926514,2|0,0:2|0:2,0:0:0:0:
234,375,29504,1,2,1:2:0:0:
234,375,29614,1,2,0:2:0:0:
234,375,29725,1,2,0:2:0:0:
234,375,29835,1,2,0:2:0:0:
234,375,29945,2,0,B|261:359|261:359|293:366,1,59.9999980926514,10|0,0:2|0:2,0:0:0:0:
477,287,30166,2,0,B|449:293|449:293|422:277,1,59.9999980926514,2|0,0:2|0:2,0:0:0:0:
463,182,30386,5,2,1:2:0:0:
464,189,30497,1,2,1:2:0:0:
465,196,30607,1,2,1:2:0:0:
490,23,31048,5,0,0:2:0:0:
98,163,31269,5,10,0:2:0:0:
98,163,31710,1,0,0:2:0:0:
31,19,31931,5,8,0:2:0:0:
260,147,32151,5,2,0:2:0:0:
260,147,32813,2,0,L|262:106,1,29.9999990463257,2|10,1:2|0:2,0:0:0:0:
296,218,33254,2,0,L|330:240,1,29.9999990463257,2|2,0:2|1:2,0:0:0:0:
216,213,33695,2,0,L|179:231,1,29.9999990463257,0|0,0:2|1:2,0:0:0:0:
189,226,34026,1,0,1:2:0:0:
193,231,34578,5,2,0:2:0:0:
438,311,34798,5,8,0:2:0:0:
438,311,35239,1,0,1:2:0:0:
432,177,35460,5,2,0:2:0:0:
261,291,35681,1,2,0:2:0:0:
261,291,36122,1,2,0:2:0:0:
196,157,36342,5,2,1:2:0:0:
261,291,36563,1,2,0:2:0:0:
42,64,37004,5,2,0:2:0:0:
42,64,37114,2,0,B|131:7|197:113|187:221|98:280,1,299.999990463257,2|0,0:2|0:2,0:0:0:0:
18,347,37445,6,0,B|59:326|70:305|111:363|227:330,1,194.999984874726,4|2,1:2|0:2,0:0:0:0:
374,230,37776,2,0,P|319:215|288:235,1,97.4999924373631,2|8,0:2|0:2,0:0:0:0:
257,112,37997,2,0,P|207:140|199:176,1,97.4999924373631,2|0,0:2|0:2,0:0:0:0:
499,294,38217,5,2,0:2:0:0:
499,294,38328,2,0,B|494:258|494:258|516:170,1,97.4999924373631,0|2,1:2|0:2,0:0:0:0:
363,133,38548,2,0,L|375:244,1,97.4999924373631,2|0,0:2|0:2,0:0:0:0:
295,346,38769,2,0,B|253:321|253:321|174:344,1,97.4999924373631,10|0,0:2|0:2,0:0:0:0:
25,199,38989,5,2,0:2:0:0:
25,199,39100,1,2,0:2:0:0:
25,199,39210,6,0,P|66:229|116:205,1,97.4999924373631,2|0,1:2|0:2,0:0:0:0:
199,111,39431,5,2,0:2:0:0:
195,122,39541,1,2,0:2:0:0:
203,323,39651,6,0,P|217:274|177:235,1,97.4999924373631,10|0,0:2|0:2,0:0:0:0:
83,109,39872,5,2,0:2:0:0:
87,124,39982,1,2,0:2:0:0:
25,199,40092,6,0,P|66:229|116:205,1,97.4999924373631,2|0,1:2|0:2,0:0:0:0:
199,111,40313,5,2,0:2:0:0:
195,122,40423,1,2,0:2:0:0:
248,2,40534,5,10,0:2:0:0:
400,8,40644,1,2,0:2:0:0:
364,123,40754,5,2,0:2:0:0:
284,90,40864,1,2,0:2:0:0:
503,18,40975,6,0,B|533:76|473:123|412:118|362:81,1,194.999984874726,2|2,1:2|0:2,0:0:0:0:
107,118,41306,6,0,B|152:98|152:98|217:116,1,97.4999924373631,2|8,0:2|0:2,0:0:0:0:
277,290,41526,2,0,L|154:268,1,97.4999924373631,2|0,0:2|0:2,0:0:0:0:
0,379,41747,5,2,0:2:0:0:
0,379,41857,2,0,B|15:349|15:349|7:282,1,97.4999924373631,2|2,1:2|0:2,0:0:0:0:
125,196,42078,2,0,P|74:202|46:169,1,97.4999924373631,2|0,0:2|0:2,0:0:0:0:
191,13,42298,2,0,L|200:134,1,97.4999924373631,10|0,0:2|0:2,0:0:0:0:
209,199,42519,5,2,0:2:0:0:
209,199,42629,1,2,0:2:0:0:
293,220,42739,5,2,1:2:0:0:
339,144,42850,1,0,0:2:0:0:
280,79,42960,1,2,0:2:0:0:
198,110,43070,1,2,0:2:0:0:
264,152,43181,5,10,0:2:0:0:
188,107,43291,1,2,0:2:0:0:
106,138,43401,1,2,0:2:0:0:
19,69,43511,6,0,B|61:45|61:45|118:55,1,97.4999924373631,2|0,0:2|1:2,0:0:0:0:
185,201,43732,1,2,0:2:0:0:
185,201,43842,2,0,L|176:307,1,97.4999924373631,2|2,0:2|0:2,0:0:0:0:
0,300,44063,2,0,B|51:315|51:315|116:277,1,97.4999924373631,10|0,0:2|0:2,0:0:0:0:
302,351,44284,2,0,L|294:254,1,97.4999924373631,2|0,0:2|0:2,0:0:0:0:
420,173,44504,6,0,B|311:197|335:113|203:139,1,194.999984874726,2|2,1:2|0:2,0:0:0:0:
234,33,44835,6,0,B|269:31|269:31|343:72,1,97.4999924373631,2|8,0:2|0:2,0:0:0:0:
406,269,45056,2,0,B|441:271|441:271|495:240,1,97.4999924373631,2|0,0:2|0:2,0:0:0:0:
504,96,45276,5,2,0:2:0:0:
504,96,45386,2,0,P|475:59|429:66,1,97.4999924373631,0|2,1:2|0:2,0:0:0:0:
406,269,45607,2,0,L|419:173,1,97.4999924373631,2|0,0:2|0:2,0:0:0:0:
234,135,45828,2,0,L|247:239,1,97.4999924373631,10|0,0:2|0:2,0:0:0:0:
330,209,46048,1,2,0:2:0:0:
332,196,46159,1,2,0:2:0:0:
302,303,46269,6,0,P|262:328|217:315,1,97.4999924373631,2|0,1:2|0:2,0:0:0:0:
159,216,46489,1,2,0:2:0:0:
157,203,46600,1,2,0:2:0:0:
216,314,46710,6,0,P|261:328|302:303,1,97.4999924373631,10|0,0:2|0:2,0:0:0:0:
332,196,46931,1,2,0:2:0:0:
334,183,47042,1,2,0:2:0:0:
302,303,47151,6,0,P|262:328|217:315,1,97.4999924373631,2|0,1:2|0:2,0:0:0:0:
157,203,47372,1,2,0:2:0:0:
155,190,47483,1,2,0:2:0:0:
177,114,47592,5,10,0:2:0:0:
233,214,47703,1,2,0:2:0:0:
132,271,47813,1,2,0:2:0:0:
75,170,47923,1,2,0:2:0:0:
89,77,48034,6,0,L|113:270,1,194.999984874726,0|2,1:2|0:2,0:0:0:0:
82,372,48364,5,2,0:2:0:0:
82,372,48475,2,0,P|113:351|154:363,1,74.9999976158143,10|0,0:2|0:2,0:0:0:0:
220,322,48695,1,2,0:2:0:0:
220,322,48806,2,0,P|251:343|292:331,1,74.9999976158143,2|0,0:2|1:2,0:0:0:0:
439,190,49026,5,2,0:2:0:0:
434,274,49136,1,2,0:2:0:0:
512,288,49247,2,0,B|474:300|474:300|429:285,1,74.9999976158143,2|8,0:2|0:2,0:0:0:0:
358,237,49467,5,2,0:2:0:0:
363,321,49577,1,2,0:2:0:0:
285,335,49688,2,0,B|323:347|323:347|368:332,1,74.9999976158143,2|0,0:2|1:2,0:0:0:0:
475,113,50019,5,2,0:2:0:0:
475,113,50129,1,2,0:2:0:0:
475,113,50239,2,0,L|365:97,1,74.9999976158143,10|0,0:2|0:2,0:0:0:0:
220,21,50460,1,2,0:2:0:0:
220,21,50570,2,0,B|242:56|242:56|233:111,1,74.9999976158143,2|0,0:2|1:2,0:0:0:0:
240,177,50791,5,2,0:2:0:0:
240,177,50901,2,0,P|316:165|347:158,1,97.4999924373631,10|0,0:2|0:2,0:0:0:0:
142,74,51122,2,0,P|75:69|21:61,1,97.4999924373631,10|0,0:2|0:2,0:0:0:0:
236,88,51342,5,0,0:2:0:0:
127,187,51453,1,2,0:2:0:0:
239,176,51563,2,0,B|213:196|213:196|221:260,1,97.4999924373631,6|2,1:2|0:2,0:0:0:0:
65,349,51784,2,0,B|73:285|73:285|46:265,1,97.4999924373631,2|0,0:2|0:2,0:0:0:0:
233,357,52004,6,0,P|182:342|144:403,1,97.4999924373631,10|0,0:2|0:2,0:0:0:0:
346,347,52225,1,2,0:2:0:0:
415,282,52335,1,2,0:2:0:0:
405,187,52445,1,2,1:2:0:0:
324,135,52556,1,2,0:2:0:0:
231,218,52666,2,0,B|279:233|279:233|335:209,1,97.4999924373631,2|2,0:2|0:2,0:0:0:0:
148,64,52886,2,0,L|22:43,1,97.4999924373631,10|0,0:2|0:2,0:0:0:0:
55,150,53107,5,2,0:2:0:0:
62,163,53217,1,2,0:2:0:0:
0,65,53328,6,0,B|60:29|121:78|219:43,1,194.999984874726,2|2,1:2|0:2,0:0:0:0:
243,182,53659,1,2,0:2:0:0:
243,182,53769,2,0,L|227:297,1,97.4999924373631,8|0,0:2|0:2,0:0:0:0:
13,372,53989,2,0,L|0:275,1,97.4999924373631,2|0,0:2|0:2,0:0:0:0:
187,352,54210,6,0,B|152:371|116:341|92:292|100:241|151:191,1,194.999984874726,2|0,1:2|0:2,0:0:0:0:
337,278,54541,1,2,0:2:0:0:
337,278,54651,2,0,B|373:225|429:234|454:249|500:288|433:364|413:359|408:342,1,194.999984874726,8|0,0:2|0:2,0:0:0:0:
300,363,54982,5,2,0:2:0:0:
249,279,55092,1,2,1:2:0:0:
280,186,55203,1,2,0:2:0:0:
355,124,55313,2,0,B|404:135|404:135|466:111,1,97.4999924373631,2|2,0:2|0:2,0:0:0:0:
222,103,55534,5,10,0:2:0:0:
80,159,55644,1,2,0:2:0:0:
80,43,55754,5,2,0:2:0:0:
200,34,55864,1,2,0:2:0:0:
142,111,55975,5,2,1:2:0:0:
146,94,56085,1,2,0:2:0:0:
1,64,56195,1,2,0:2:0:0:
5,78,56306,1,2,0:2:0:0:
123,222,56416,6,0,B|80:203|80:203|24:214,1,97.4999924373631,10|0,0:2|0:2,0:0:0:0:
205,311,56636,2,0,B|213:341|263:348|334:320|322:238|401:243,1,194.999984874726,2|0,0:2|1:2,0:0:0:0:
362,251,56967,5,2,0:2:0:0:
405,185,57078,1,2,0:2:0:0:
358,121,57188,1,2,0:2:0:0:
296,177,57298,5,10,0:2:0:0:
303,190,57408,1,2,0:2:0:0:
206,158,57519,5,2,0:2:0:0:
213,145,57629,1,2,0:2:0:0:
277,99,57739,5,2,1:2:0:0:
205,132,57850,1,2,0:2:0:0:
132,103,57960,1,2,0:2:0:0:
63,139,58070,1,2,0:2:0:0:
137,194,58181,5,10,0:2:0:0:
130,181,58291,1,2,0:2:0:0:
41,275,58401,2,0,B|87:292|87:292|130:270,1,97.4999924373631,2|2,0:2|0:2,0:0:0:0:
239,230,58622,5,2,1:2:0:0:
372,209,58732,1,2,0:2:0:0:
428,372,58842,5,2,0:2:0:0:
227,332,58953,1,2,0:2:0:0:
310,292,59063,6,0,B|350:316|350:316|397:298,1,97.4999924373631,10|0,0:2|0:2,0:0:0:0:
471,211,59284,1,2,0:2:0:0:
475,197,59394,1,2,0:2:0:0:
509,91,59504,2,0,B|467:96|467:96|390:79,1,97.4999924373631,2|0,1:2|0:2,0:0:0:0:
306,0,59725,5,2,0:2:0:0:
469,15,59835,1,2,0:2:0:0:
400,162,59945,5,10,0:2:0:0:
332,116,60056,1,2,0:2:0:0:
397,171,60166,2,0,B|419:216|419:216|409:281,1,97.4999924373631,2|2,0:2|0:2,0:0:0:0:
404,384,60386,6,0,B|401:321|313:297|256:315|199:360,1,194.999984874726,2|0,1:2|0:2,0:0:0:0:
0,312,60717,1,2,0:2:0:0:
0,312,60828,2,0,B|20:352|85:358|151:340|165:256,1,194.999984874726,10|2,0:2|0:2,0:0:0:0:
320,90,61159,1,2,0:2:0:0:
320,90,61269,2,0,B|256:87|212:158|232:237|255:266,1,194.999984874726,2|0,1:2|0:2,0:0:0:0:
424,194,61600,5,2,0:2:0:0:
424,194,61710,2,0,L|286:179,1,97.4999924373631,10|0,0:2|0:2,0:0:0:0:
53,78,61931,2,0,L|176:70,1,97.4999924373631,2|0,0:2|0:2,0:0:0:0:
4,164,62151,6,0,B|46:188|46:188|113:165,1,97.4999924373631,0|0,1:2|0:2,0:0:0:0:
186,303,62372,2,0,B|140:286|140:286|97:311,1,97.4999924373631,0|0,0:2|0:2,0:0:0:0:
281,360,62592,2,0,L|291:263,1,97.4999924373631,10|0,0:2|0:2,0:0:0:0:
503,140,62813,5,2,0:2:0:0:
458,251,62923,1,2,0:2:0:0:
458,251,63034,2,0,B|339:251|381:172|270:162,1,194.999984874726,2|0,1:2|0:2,0:0:0:0:
217,31,63364,5,0,0:2:0:0:
217,31,63475,2,0,B|234:72|234:72|216:137,1,97.4999924373631,10|0,0:2|0:2,0:0:0:0:
312,55,63695,5,2,0:2:0:0:
149,86,63806,1,2,0:2:0:0:
149,86,63916,2,0,B|105:79|105:79|94:80|94:80|38:73,1,97.4999924373631,2|0,1:2|0:2,0:0:0:0:
314,318,64136,2,0,B|357:311|357:311|368:312|368:312|425:305,1,97.4999924373631,0|0,1:2|0:2,0:0:0:0:
135,295,64357,2,0,B|91:288|91:288|80:289|80:289|38:283,1,97.4999924373631,8|0,1:2|0:2,0:0:0:0:
311,54,64578,2,0,B|354:47|354:47|366:48|366:48|408:43,1,97.4999924373631,0|0,1:2|0:2,0:0:0:0:
122,169,64798,5,2,1:2:0:0:
211,196,65019,1,10,0:2:0:0:
222,190,65129,1,2,0:2:0:0:
294,145,65350,1,2,0:2:0:0:
305,151,65460,1,2,0:2:0:0:
485,238,65681,6,0,B|395:228,1,89.9999943923952,4|0,1:2|0:2,0:0:0:0:
252,58,65902,2,0,B|341:70,1,89.9999943923952,0|0,0:2|0:2,0:0:0:0:
462,93,66122,1,8,0:2:0:0:
309,156,66233,2,0,B|381:147|381:147|407:119|407:119|475:107,1,179.99998878479,0|0,0:2|0:2,0:0:0:0:
485,238,66564,2,0,B|456:226|456:226|396:229,1,89.9999943923952,0|0,1:2|0:2,0:0:0:0:
253,278,66784,5,0,0:2:0:0:
359,308,66894,1,0,0:2:0:0:
249,366,67005,2,0,P|205:360|178:326,1,89.9999943923952,8|0,0:2|0:2,0:0:0:0:
165,239,67225,2,0,P|138:204|94:199,1,89.9999943923952,0|0,0:2|0:2,0:0:0:0:
76,296,67445,5,0,1:2:0:0:
21,242,67556,1,0,0:2:0:0:
12,166,67666,1,0,0:2:0:0:
60,104,67777,1,0,0:2:0:0:
227,140,67887,5,8,0:2:0:0:
291,84,67997,2,0,P|208:45|145:120,1,179.99998878479,0|0,0:2|0:2,0:0:0:0:
354,159,68328,2,0,B|397:170|397:170|458:139,1,89.9999943923952,0|0,1:2|0:2,0:0:0:0:
419,16,68549,5,0,0:2:0:0:
437,149,68659,1,0,0:2:0:0:
384,87,68769,5,8,0:2:0:0:
512,259,68990,1,0,0:2:0:0:
512,259,69211,6,0,P|468:235|425:253,1,89.9999943923952,0|0,1:2|0:2,0:0:0:0:
312,351,69431,2,0,P|358:354|402:310,1,89.9999943923952,0|0,0:2|0:2,0:0:0:0:
355,159,69652,1,8,0:2:0:0:
341,260,69762,2,0,B|225:257|290:207|173:193,1,179.99998878479,0|0,0:2|0:2,0:0:0:0:
20,150,70093,2,0,B|63:124|63:124|124:131,1,89.9999943923952,0|0,1:2|0:2,0:0:0:0:
196,306,70314,5,0,0:2:0:0:
100,253,70424,1,0,0:2:0:0:
15,359,70534,6,0,L|10:248,1,89.9999943923952,8|0,0:2|0:2,0:0:0:0:
190,104,70755,2,0,L|179:193,1,89.9999943923952,0|0,0:2|0:2,0:0:0:0:
196,306,70975,6,0,P|227:273|306:279,1,89.9999943923952,0|0,1:2|0:2,0:0:0:0:
273,367,71196,1,0,0:2:0:0:
273,367,71306,1,0,0:2:0:0:
438,355,71416,6,0,P|393:329|392:252,1,89.9999943923952,8|0,0:2|0:2,0:0:0:0:
476,264,71637,1,0,0:2:0:0:
476,264,71747,1,0,0:2:0:0:
411,143,71858,6,0,P|329:203|310:191,1,89.9999943923952,0|0,1:2|0:2,0:0:0:0:
308,109,72078,1,8,0:2:0:0:
308,109,72189,1,0,0:2:0:0:
113,101,72299,5,8,0:2:0:0:
259,207,72409,1,0,0:2:0:0:
119,188,72519,6,0,B|157:173|157:173|168:161|168:161|209:142,1,89.9999943923952,0|0,0:2|0:2,0:0:0:0:
168,32,72740,6,0,B|127:9|127:9|63:26,1,89.9999943923952,0|0,1:2|0:2,0:0:0:0:
36,198,72961,2,0,B|76:176|76:176|118:187,1,89.9999943923952,0|0,0:2|0:2,0:0:0:0:
253,377,73181,1,8,0:2:0:0:
253,377,73291,2,0,L|265:194,1,179.99998878479,0|0,0:2|0:2,0:0:0:0:
439,171,73622,2,0,B|397:185|397:185|341:165,1,89.9999943923952,0|0,1:2|0:2,0:0:0:0:
306,63,73843,5,0,0:2:0:0:
354,170,73953,1,0,0:2:0:0:
422,0,74064,2,0,B|407:100,1,89.9999943923952,8|0,0:2|0:2,0:0:0:0:
264,194,74284,2,0,B|279:294,1,89.9999943923952,0|0,0:2|0:2,0:0:0:0:
445,371,74505,5,0,1:2:0:0:
419,294,74615,1,0,0:2:0:0:
351,252,74725,1,0,0:2:0:0:
278,284,74836,1,0,0:2:0:0:
261,383,74946,5,8,0:2:0:0:
147,333,75056,2,0,P|184:356|271:252,1,179.99998878479,0|0,0:2|0:2,0:0:0:0:
108,249,75387,2,0,P|157:233|204:263,1,89.9999943923952,0|0,1:2|0:2,0:0:0:0:
147,333,75608,5,0,0:2:0:0:
168,155,75718,1,0,0:2:0:0:
191,248,75828,5,8,0:2:0:0:
20,83,76049,1,0,0:2:0:0:
20,83,76269,6,0,B|57:90|57:90|106:74,1,89.9999943923952,0|0,1:2|0:2,0:0:0:0:
295,17,76490,2,0,B|249:5|249:5|187:22,1,89.9999943923952,0|0,0:2|0:2,0:0:0:0:
239,189,76711,1,8,0:2:0:0:
328,172,76821,2,0,P|277:102|192:113,1,179.99998878479,0|0,0:2|0:2,0:0:0:0:
11,354,77152,2,0,B|48:340|48:340|62:325|62:325|105:313,1,89.9999943923952,0|0,1:2|0:2,0:0:0:0:
175,358,77372,5,0,0:2:0:0:
19,250,77483,1,0,0:2:0:0:
152,250,77593,6,0,L|129:162,1,89.9999943923952,8|0,0:2|0:2,0:0:0:0:
327,171,77814,2,0,L|350:259,1,89.9999943923952,0|0,0:2|0:2,0:0:0:0:
175,358,78034,6,0,P|225:342|238:277,1,89.9999943923952,0|0,1:2|0:2,0:0:0:0:
152,250,78255,1,0,0:2:0:0:
152,250,78365,1,8,0:2:0:0:
152,90,78475,2,0,P|163:133|201:155,1,89.9999943923952,8|0,0:2|0:2,0:0:0:0:
253,67,78696,1,0,0:2:0:0:
253,67,78806,1,0,0:2:0:0:
399,118,78916,6,0,P|345:145|345:202,1,89.9999943923952,0|0,1:2|0:2,0:0:0:0:
428,209,79137,1,0,0:2:0:0:
428,209,79247,1,0,0:2:0:0:
468,302,79358,5,8,0:2:0:0:
428,209,79468,1,0,0:2:0:0:
338,170,79578,1,0,0:2:0:0:
251,215,79689,1,0,0:2:0:0:
251,215,79798,6,0,B|261:256|261:256|266:331,1,89.9999943923952,4|0,1:2|0:2,0:0:0:0:
189,349,80239,2,0,L|134:346,1,44.9999971961976,2|0,0:2|0:2,0:0:0:0:
127,320,80460,2,0,L|66:314,1,44.9999971961976,2|0,0:2|0:2,0:0:0:0:
6,341,80681,1,10,0:2:0:0:
82,315,80901,1,2,0:2:0:0:
111,236,81122,5,2,0:2:0:0:
70,168,81342,1,10,0:2:0:0:
176,21,81563,6,0,P|167:92|153:168,1,134.999991588593,2|0,0:2|0:2,0:0:0:0:
155,154,82004,1,2,0:2:0:0:
241,204,82225,2,0,L|297:194,1,44.9999971961976,2|0,0:2|0:2,0:0:0:0:
308,216,82445,2,0,L|364:206,1,44.9999971961976,10|0,0:2|0:2,0:0:0:0:
480,206,82666,5,0,0:2:0:0:
476,228,82776,1,2,0:2:0:0:
472,250,82886,1,2,1:2:0:0:
468,272,82997,2,0,B|446:257|446:257|400:259,1,44.9999971961976,2|0,0:2|0:2,0:0:0:0:
362,306,83217,1,2,0:2:0:0:
362,306,83328,2,0,B|343:306|343:306|321:291,1,44.9999971961976,2|0,1:2|0:2,0:0:0:0:
236,201,83548,6,0,L|241:257,1,44.9999971961976,2|2,0:2|0:2,0:0:0:0:
184,310,83769,5,2,0:2:0:0:
184,310,83879,2,0,B|158:303|158:303|114:308,1,44.9999971961976,2|0,0:2|0:2,0:0:0:0:
56,341,84100,1,2,0:2:0:0:
56,341,84210,2,0,L|46:264,1,44.9999971961976,10|0,0:2|0:2,0:0:0:0:
108,220,84431,6,0,L|113:176,1,44.9999971961976,2|2,0:2|0:2,0:0:0:0:
1,127,84651,1,2,1:2:0:0:
1,127,84761,6,0,B|27:129|27:129|72:113,1,44.9999971961976,2|0,0:2|0:2,0:0:0:0:
89,49,84982,1,2,0:2:0:0:
96,63,85092,1,2,0:2:0:0:
219,58,85313,1,2,0:2:0:0:
340,53,85534,1,2,0:2:0:0:
222,168,85754,5,2,0:2:0:0:
325,53,85975,1,10,0:2:0:0:
209,168,86195,1,2,0:2:0:0:
330,159,86416,5,2,0:2:0:0:
208,46,86636,1,2,0:2:0:0:
315,164,86857,6,0,L|311:210,1,44.9999971961976,2|0,1:2|0:2,0:0:0:0:
299,286,87298,5,2,0:2:0:0:
80,204,87519,1,2,0:2:0:0:
39,332,87739,5,10,0:2:0:0:
216,269,88181,1,2,0:2:0:0:
132,341,88622,6,0,L|130:313,1,22.4999992847443,2|0,0:2|0:2,0:0:0:0:
130,318,89063,5,2,0:2:0:0:
371,253,89284,1,2,0:2:0:0:
422,341,89504,5,10,0:2:0:0:
246,254,89945,1,2,1:2:0:0:
317,331,90386,6,0,L|316:354,1,22.4999992847443,2|0,1:2|0:2,0:0:0:0:
316,354,90828,5,2,0:2:0:0:
512,251,91048,1,2,0:2:0:0:
298,168,91269,5,10,0:2:0:0:
445,329,91710,1,2,1:2:0:0:
397,235,92151,6,0,L|387:234,1,7.49999976158143,10|0,0:2|0:2,0:0:0:0:
368,233,92372,5,10,0:2:0:0:
305,274,92482,1,2,0:2:0:0:
245,181,92592,2,0,P|271:183|305:162,1,44.9999971961976,10|0,0:2|0:2,0:0:0:0:
341,96,92813,2,0,L|335:56,2,22.4999985980988,10|8|8,0:2|0:2|0:2,0:0:0:0:
421,158,93034,2,0,L|424:113,1,44.9999971961976,10|8,0:2|0:2,0:0:0:0:
252,44,93254,2,0,L|257:87,1,44.9999971961976,2|0,0:2|0:2,0:0:0:0:
257,88,93475,1,2,0:2:0:0:
422,26,93695,1,2,0:2:0:0:
454,325,93916,6,0,B|467:276|417:248|363:248|295:320,1,164.999999790192,4|2,1:2|0:2,0:0:0:0:
242,276,94247,1,2,0:2:0:0:
242,276,94357,2,0,B|260:236|260:236|243:177,1,82.4999998950959,10|0,0:2|0:2,0:0:0:0:
166,207,94578,1,2,0:2:0:0:
169,220,94688,1,2,0:2:0:0:
16,258,94798,5,2,1:2:0:0:
24,172,94909,1,2,0:2:0:0:
87,218,95019,1,2,0:2:0:0:
92,228,95129,1,2,0:2:0:0:
24,172,95239,1,10,0:2:0:0:
29,162,95349,1,2,0:2:0:0:
84,41,95460,5,2,0:2:0:0:
195,134,95570,2,0,B|158:140|158:140|94:117,1,82.4999998950959,2|0,0:2|1:2,0:0:0:0:
280,30,95901,5,2,0:2:0:0:
283,38,96011,1,2,0:2:0:0:
354,62,96122,1,10,0:2:0:0:
416,15,96232,1,2,0:2:0:0:
512,120,96342,5,2,0:2:0:0:
356,144,96453,1,2,0:2:0:0:
433,99,96563,5,2,1:2:0:0:
430,110,96673,2,0,B|437:153|437:153|425:194,1,82.4999998950959,2|2,0:2|0:2,0:0:0:0:
419,278,96894,5,2,0:2:0:0:
336,239,97004,1,10,0:2:0:0:
329,244,97114,1,2,0:2:0:0:
319,341,97224,5,2,0:2:0:0:
494,298,97335,2,0,B|458:274|458:274|406:279,1,82.4999998950959,2|0,0:2|1:2,0:0:0:0:
102,302,97666,5,2,0:2:0:0:
108,309,97776,1,2,0:2:0:0:
182,328,97886,5,10,0:2:0:0:
244,288,97997,1,2,0:2:0:0:
259,194,98107,5,2,0:2:0:0:
102,167,98217,1,2,0:2:0:0:
173,237,98328,1,2,1:2:0:0:
169,245,98438,1,2,0:2:0:0:
187,236,98548,6,0,L|179:154,1,82.4999998950959,2|0,0:2|0:2,0:0:0:0:
167,56,98769,5,10,0:2:0:0:
165,65,98879,1,2,0:2:0:0:
80,45,98989,5,2,0:2:0:0:
16,150,99100,2,0,B|60:157|60:157|104:133,1,82.4999998950959,2|0,0:2|1:2,0:0:0:0:
313,18,99431,6,0,L|205:7,1,82.4999998950959,2|0,0:2|0:2,0:0:0:0:
389,156,99651,2,0,L|497:145,1,82.4999998950959,10|0,0:2|0:2,0:0:0:0:
313,111,99872,6,0,B|272:121|272:121|199:101,1,82.4999998950959,2|0,0:2|0:2,0:0:0:0:
402,54,100092,2,0,B|443:37|443:37|516:44,1,82.4999998950959,2|0,1:2|0:2,0:0:0:0:
471,147,100313,6,0,L|464:229,1,82.4999998950959,2|0,0:2|0:2,0:0:0:0:
269,301,100534,2,0,L|262:218,1,82.4999998950959,10|0,0:2|0:2,0:0:0:0:
262,218,100754,1,2,0:2:0:0:
422,291,100975,5,2,1:2:0:0:
348,327,101122,1,2,0:2:0:0:
269,301,101269,1,2,0:2:0:0:
269,301,101416,2,0,P|236:305|187:199,1,134.999991588593,10|0,0:2|0:2,0:0:0:0:
45,157,101710,1,2,0:2:0:0:
45,157,101857,2,0,B|101:151|101:151|120:145|120:145|189:138,1,134.999991588593,2|0,1:2|0:2,0:0:0:0:
274,104,102151,1,2,0:2:0:0:
274,104,102298,2,0,P|202:42|174:74,1,134.999991588593,10|0,0:2|0:2,0:0:0:0:
320,198,102739,5,2,1:2:0:0:
326,191,102813,2,0,L|426:182,1,89.9999943923953,2|0,0:2|0:2,0:0:0:0:
508,166,103034,5,2,0:2:0:0:
491,73,103181,1,10,0:2:0:0:
415,182,103328,5,2,0:2:0:0:
399,90,103475,1,2,0:2:0:0:
485,60,103622,6,0,B|435:52|435:52|396:60|396:60|335:51,1,134.999991588593,2|0,1:2|0:2,0:0:0:0:
205,35,103916,1,2,0:2:0:0:
205,35,104063,2,0,P|257:53|245:138,1,134.999991588593,10|0,0:2|0:2,0:0:0:0:
247,250,104504,5,2,1:2:0:0:
241,257,104578,2,0,L|141:248,1,89.9999943923953,2|0,0:2|0:2,0:0:0:0:
4,108,104798,1,2,0:2:0:0:
151,101,104945,1,10,0:2:0:0:
7,248,105092,1,2,0:2:0:0:
5,255,105239,1,2,0:2:0:0:
67,181,105386,6,0,P|120:233|67:302,1,134.999991588593,2|0,1:2|0:2,0:0:0:0:
103,283,105681,1,2,0:2:0:0:
179,362,105828,2,0,L|322:351,1,134.999991588593,10|0,0:2|0:2,0:0:0:0:
416,292,106269,2,0,P|373:247|384:201,1,89.9999943923953,2|0,1:2|0:2,0:0:0:0:
373,222,106489,1,2,0:2:0:0:
298,124,106710,2,0,P|358:109|392:141,1,89.9999943923953,10|0,0:2|0:2,0:0:0:0:
379,121,106930,1,2,0:2:0:0:
499,110,107151,2,0,P|481:169|436:183,1,89.9999943923953,2|0,1:2|0:2,0:0:0:0:
461,181,107371,1,2,0:2:0:0:
283,210,107592,6,0,B|203:194|251:155|150:146,2,134.999991588593,10|2|4,0:2|0:2|1:2,0:0:0:0:
288,215,108475,5,2,0:2:0:0:
302,225,108695,2,0,L|294:294,1,59.9999980926514,2|8,0:2|0:2,0:0:0:0:
91,112,109357,5,2,1:2:0:0:
77,122,109577,2,0,L|85:191,1,59.9999980926514,2|0,0:2|0:2,0:0:0:0:
83,181,110239,5,2,1:2:0:0:
61,291,110460,1,2,0:2:0:0:
76,305,110570,2,0,B|104:288|104:288|138:293,1,59.9999980926514,2|0,0:2|0:2,0:0:0:0:
198,351,110901,1,2,0:2:0:0:
285,324,111122,1,2,0:2:0:0:
291,232,111342,1,2,0:2:0:0:
213,268,111563,6,0,L|215:253,1,14.9999995231629,0|0,1:2|0:0,0:0:0:0:
152,177,111784,5,2,0:2:0:0:
148,165,111894,1,2,0:2:0:0:
106,60,112004,6,0,L|69:53,1,29.9999990463257,2|0,0:2|0:2,0:0:0:0:
218,105,112225,2,0,L|255:98,1,29.9999990463257,2|0,1:2|0:2,0:0:0:0:
42,156,112445,6,0,L|79:149,1,29.9999990463257,10|0,0:2|0:2,0:0:0:0:
219,224,112666,2,0,L|248:229,1,29.9999990463257,2|0,0:2|0:2,0:0:0:0:
136,239,112886,6,0,L|141:268,1,29.9999990463257,2|0,1:2|0:2,0:0:0:0:
282,338,113107,2,0,L|287:308,1,29.9999990463257,2|0,0:2|0:2,0:0:0:0:
136,239,113328,6,0,L|141:268,1,29.9999990463257,2|2,0:2|0:2,0:0:0:0:
282,338,113549,2,0,L|287:308,1,29.9999990463257,2|0,1:2|0:2,0:0:0:0:
162,348,113769,2,0,L|201:342,1,29.9999990463257,2|0,1:2|0:2,0:0:0:0:
360,381,113989,2,0,L|391:372,1,29.9999990463257,2|0,0:2|0:2,0:0:0:0:
461,253,114210,2,0,L|451:318,1,59.9999980926514,10|0,0:2|1:2,0:0:0:0:
451,312,114651,1,0,0:2:0:0:
358,234,114872,2,0,L|340:233,3,9.99999968210857,0|0|0|0,1:2|1:0|1:0|1:2,0:0:0:0:
377,154,115092,6,0,B|380:177|380:177|377:187|377:187|383:222,1,59.9999980926514,4|0,1:2|0:2,0:0:0:0:
483,73,115534,5,2,0:2:0:0:
473,87,115754,2,0,L|404:79,1,59.9999980926514,2|8,1:2|0:2,0:0:0:0:
226,111,116416,5,2,1:2:0:0:
236,125,116636,2,0,L|305:117,1,59.9999980926514,2|0,0:2|0:2,0:0:0:0:
295,118,117298,5,2,1:2:0:0:
442,250,117519,1,2,0:2:0:0:
427,264,117629,2,0,B|399:247|399:247|365:252,1,59.9999980926514,2|0,0:2|0:2,0:0:0:0:
166,299,117960,1,2,0:2:0:0:
255,277,118180,1,2,0:2:0:0:
306,352,118401,1,2,0:2:0:0:
422,146,118622,5,0,1:2:0:0:
334,239,118842,5,2,0:2:0:0:
179,118,119063,5,2,0:2:0:0:
326,154,119284,1,2,0:2:0:0:
188,134,119504,5,10,0:2:0:0:
316,126,119725,1,2,0:2:0:0:
209,155,119945,5,2,1:2:0:0:
283,117,120166,1,2,0:2:0:0:
268,206,120386,5,2,1:2:0:0:
248,232,120607,1,2,0:2:0:0:
254,245,120828,1,2,1:2:0:0:
244,258,121048,1,2,0:2:0:0:
248,270,121269,1,2,0:2:0:0:
60,157,121489,5,12,0:2:0:0:
127,343,121710,6,0,B|86:314|90:247|168:217|254:237|269:309,1,225.000001430512,14|2,0:2|0:2,0:0:0:0:
494,328,122151,2,0,B|527:309|499:269|456:285|423:380|357:351,1,194.999984874726,6|2,1:2|0:2,0:0:0:0:
200,187,122482,5,0,0:2:0:0:
247,269,122592,1,10,0:2:0:0:
393,210,122703,6,0,B|363:218|363:218|261:184,1,97.4999924373631,2|0,0:2|0:2,0:0:0:0:
53,156,122923,2,0,B|102:159|102:159|140:130,1,97.4999924373631,2|0,0:2|1:2,0:0:0:0:
176,47,123144,1,2,0:2:0:0:
247,113,123254,1,2,0:2:0:0:
340,78,123364,1,2,0:2:0:0:
441,72,123475,6,0,L|318:58,1,97.4999924373631,10|0,0:2|0:2,0:0:0:0:
163,51,123695,1,2,0:2:0:0:
176,47,123806,1,2,0:2:0:0:
56,27,123916,6,0,P|79:108|118:113,1,97.4999924373631,2|0,1:2|0:2,0:0:0:0:
163,136,124136,1,2,0:2:0:0:
159,124,124247,1,2,0:2:0:0:
97,196,124357,1,10,0:2:0:0:
93,208,124468,1,2,0:2:0:0:
115,307,124578,5,2,0:2:0:0:
111,295,124689,1,2,0:2:0:0:
92,207,124798,2,0,P|139:203|173:237,1,97.4999924373631,2|0,1:2|0:2,0:0:0:0:
212,373,125019,5,2,0:2:0:0:
267,266,125129,1,2,0:2:0:0:
418,247,125239,5,10,0:2:0:0:
457,380,125350,1,2,0:2:0:0:
321,340,125460,5,2,0:2:0:0:
329,336,125570,1,2,0:2:0:0:
491,154,125681,6,0,B|497:201|456:255|366:234|296:156,1,194.999984874726,2|2,1:2|0:2,0:0:0:0:
240,53,126011,2,0,B|273:21|273:21|336:19,1,97.4999924373631,2|8,0:2|0:2,0:0:0:0:
415,118,126232,2,0,L|298:104,1,97.4999924373631,2|0,0:2|0:2,0:0:0:0:
92,107,126453,2,0,B|132:128|132:128|182:117,1,97.4999924373631,2|0,0:2|1:2,0:0:0:0:
151,36,126673,5,2,0:2:0:0:
38,171,126784,2,0,L|53:284,1,97.4999924373631,2|0,0:2|0:2,0:0:0:0:
239,264,127004,2,0,L|251:167,1,97.4999924373631,10|0,0:2|0:2,0:0:0:0:
264,76,127225,5,2,0:2:0:0:
264,76,127335,1,2,0:2:0:0:
347,51,127445,5,2,1:2:0:0:
396,124,127556,1,2,0:2:0:0:
341,192,127666,5,2,0:2:0:0:
407,135,127776,1,2,0:2:0:0:
483,177,127886,1,10,0:2:0:0:
483,177,127997,1,2,0:2:0:0:
462,262,128107,1,2,0:2:0:0:
381,368,128217,2,0,B|360:323|360:323|375:271,1,97.4999924373631,2|0,0:2|1:2,0:0:0:0:
483,177,128438,5,2,0:2:0:0:
483,177,128548,2,0,B|433:187|433:187|367:146,1,97.4999924373631,2|2,0:2|0:2,0:0:0:0:
250,167,128769,5,10,0:2:0:0:
403,46,128879,1,2,0:2:0:0:
311,24,128989,6,0,L|323:137,1,97.4999924373631,2|0,0:2|0:2,0:0:0:0:
334,210,129210,5,2,1:2:0:0:
251,182,129320,1,2,0:2:0:0:
186,242,129431,1,2,0:2:0:0:
186,242,129541,1,2,0:2:0:0:
38,187,129651,6,0,B|78:160|78:160|145:178,1,97.4999924373631,10|2,0:2|0:2,0:0:0:0:
264,263,129872,1,2,0:2:0:0:
299,341,129982,2,0,B|251:353|251:353|211:326,1,97.4999924373631,2|0,0:2|1:2,0:0:0:0:
232,171,130203,5,2,0:2:0:0:
107,348,130313,6,0,L|98:241,1,97.4999924373631,2|0,0:2|0:2,0:0:0:0:
342,112,130534,2,0,L|333:209,1,97.4999924373631,10|0,0:2|0:2,0:0:0:0:
473,367,130754,5,2,0:2:0:0:
470,357,130864,1,2,0:2:0:0:
460,249,130975,2,0,P|407:255|385:306,1,97.4999924373631,2|0,1:2|0:2,0:0:0:0:
327,371,131195,5,2,0:2:0:0:
330,361,131305,1,2,0:2:0:0:
385,289,131416,5,10,0:2:0:0:
382,279,131526,1,2,0:2:0:0:
332,209,131636,5,2,0:2:0:0:
336,200,131747,1,2,0:2:0:0:
423,172,131857,5,2,1:2:0:0:
341,25,131967,1,2,0:2:0:0:
407,77,132078,6,0,B|449:89|449:89|513:80,1,97.4999924373631,2|2,0:2|0:2,0:0:0:0:
457,5,132298,5,10,0:2:0:0:
335,115,132409,1,2,0:2:0:0:
241,45,132519,1,2,0:2:0:0:
241,45,132629,1,2,0:2:0:0:
181,109,132739,6,0,B|147:124|147:124|79:108,1,74.9999976158143,0|0,1:2|0:2,0:0:0:0:
21,45,132960,5,2,0:2:0:0:
21,45,133070,1,2,0:2:0:0:
21,45,133181,2,0,L|29:154,1,74.9999976158143,10|0,0:2|0:2,0:0:0:0:
176,207,133401,1,2,0:2:0:0:
176,207,133512,2,0,L|168:281,1,74.9999976158143,2|0,0:2|1:2,0:0:0:0:
78,342,133732,5,2,0:2:0:0:
73,258,133842,1,2,0:2:0:0:
0,243,133953,2,0,B|38:231|38:231|83:246,1,74.9999976158143,2|8,0:2|0:2,0:0:0:0:
248,341,134173,5,2,0:2:0:0:
263,258,134283,1,2,0:2:0:0:
342,263,134394,2,0,B|308:242|308:242|260:245,1,74.9999976158143,2|0,0:2|1:2,0:0:0:0:
404,202,134725,5,2,0:2:0:0:
404,202,134835,1,2,0:2:0:0:
404,202,134945,2,0,L|388:92,1,74.9999976158143,10|0,0:2|0:2,0:0:0:0:
376,39,135166,1,2,0:2:0:0:
376,39,135276,2,0,B|411:17|411:17|466:26,1,74.9999976158143,2|0,0:2|1:2,0:0:0:0:
268,110,135497,5,2,0:2:0:0:
268,110,135607,2,0,P|256:34|249:3,1,97.4999924373631,10|0,0:2|0:2,0:0:0:0:
512,96,135828,2,0,P|506:144|502:193,1,97.4999924373631,10|0,0:2|0:2,0:0:0:0:
495,282,136048,5,0,0:2:0:0:
393,127,136159,1,2,0:2:0:0:
412,218,136269,6,0,B|368:225|368:225|288:172,1,97.4999924373631,6|2,1:2|0:2,0:0:0:0:
79,119,136489,2,0,L|203:108,1,97.4999924373631,2|0,0:2|0:2,0:0:0:0:
241,28,136710,5,10,0:2:0:0:
268,110,136820,1,0,0:2:0:0:
233,192,136931,5,2,0:2:0:0:
147,214,137041,1,2,0:2:0:0:
74,104,137151,5,2,1:2:0:0:
79,119,137261,1,2,0:2:0:0:
12,317,137372,2,0,B|60:329|60:329|104:311,1,97.4999924373631,2|0,0:2|0:2,0:0:0:0:
244,221,137592,2,0,L|129:212,1,97.4999924373631,10|0,0:2|0:2,0:0:0:0:
52,211,137813,5,2,0:2:0:0:
55,228,137923,1,2,0:2:0:0:
196,319,138034,6,0,B|183:340|195:365|238:381|281:368|318:348|336:270,1,194.999984874726,2|0,1:2|0:2,0:0:0:0:
231,124,138365,1,2,0:2:0:0:
231,124,138475,2,0,L|244:221,1,97.4999924373631,10|0,0:2|0:2,0:0:0:0:
454,347,138695,2,0,L|467:250,1,97.4999924373631,2|0,0:2|0:2,0:0:0:0:
512,114,138916,6,0,B|475:135|422:121|427:65|354:56|281:113,1,194.999984874726,2|0,1:2|0:2,0:0:0:0:
243,220,139247,1,2,0:2:0:0:
243,220,139357,2,0,B|279:273|335:264|371:251|398:217|382:173|359:183,1,194.999984874726,10|0,0:2|0:2,0:0:0:0:
163,83,139688,5,2,0:2:0:0:
245,132,139798,1,2,1:2:0:0:
312,10,139909,1,2,0:2:0:0:
109,9,140019,5,2,0:2:0:0:
152,174,140129,1,2,0:2:0:0:
234,35,140239,5,10,0:2:0:0:
234,35,140350,2,0,L|244:134,1,97.4999924373631,2|0,0:2|0:2,0:0:0:0:
46,230,140570,2,0,L|56:133,1,97.4999924373631,2|0,0:2|1:2,0:0:0:0:
362,110,140791,2,0,L|351:206,1,97.4999924373631,2|0,0:2|0:2,0:0:0:0:
341,320,141011,1,2,0:2:0:0:
221,271,141122,6,0,B|191:293|191:293|112:273,1,112.500000715256,10|0,0:2|0:2,0:0:0:0:
142,193,141342,2,0,B|183:149|308:161|232:229|369:205,1,225.000001430512,2|0,0:2|1:2,0:0:0:0:
433,154,141673,5,2,0:2:0:0:
364,115,141784,1,2,0:2:0:0:
288,134,141894,1,2,0:2:0:0:
351,207,142004,1,10,0:2:0:0:
354,192,142114,1,2,0:2:0:0:
270,110,142225,1,2,0:2:0:0:
273,125,142335,1,2,0:2:0:0:
210,174,142445,5,2,1:2:0:0:
138,142,142556,1,2,0:2:0:0:
77,191,142666,1,2,0:2:0:0:
80,202,142776,1,2,0:2:0:0:
12,95,142886,6,0,B|56:67|56:67|143:79,1,97.4999924373631,10|2,0:2|0:2,0:0:0:0:
251,250,143107,2,0,B|207:261|207:261|160:239,1,97.4999924373631,2|2,0:2|0:2,0:0:0:0:
80,202,143328,5,2,1:2:0:0:
57,297,143438,1,2,0:2:0:0:
201,304,143548,5,2,0:2:0:0:
138,142,143659,1,2,0:2:0:0:
311,187,143769,5,10,0:2:0:0:
314,199,143879,1,2,0:2:0:0:
159,238,143989,5,2,0:2:0:0:
162,226,144099,1,2,0:2:0:0:
230,172,144210,5,2,1:2:0:0:
339,276,144320,1,2,0:2:0:0:
415,207,144431,5,2,0:2:0:0:
421,124,144541,1,2,0:2:0:0:
512,132,144651,6,0,B|470:146|470:146|406:118,1,97.4999924373631,10|0,0:2|0:2,0:0:0:0:
475,39,144872,1,2,0:2:0:0:
472,54,144982,1,2,0:2:0:0:
108,105,145092,6,0,B|118:62|163:59|243:67|277:137,1,194.999984874726,2|2,1:2|0:2,2:0:0:0:
250,384,145423,1,2,0:2:0:0:
250,384,145534,2,0,B|221:348|195:273|215:232|250:198|283:188,1,194.999984874726,10|2,0:2|0:2,0:0:0:0:
512,218,145865,1,2,0:2:0:0:
512,218,145975,2,0,B|490:155|421:107|339:120|266:182|385:296,1,292.499977312089,2|0,1:2|0:2,0:0:0:0:
412,355,146416,6,0,L|426:221,1,97.4999924373631,10|0,0:2|0:2,0:0:0:0:
178,251,146636,2,0,L|164:117,1,97.4999924373631,2|2,0:2|0:2,0:0:0:0:
19,81,146857,6,0,B|71:98|71:98|153:63,1,97.4999924373631,0|0,1:2|0:2,0:0:0:0:
329,59,147078,2,0,L|315:191,1,97.4999924373631,0|0,0:2|0:2,0:0:0:0:
182,37,147298,5,10,0:2:0:0:
247,122,147409,2,0,P|183:210|201:221,1,97.4999924373631,2|0,0:0|0:0,0:0:0:0:
85,336,147629,1,2,0:0:0:0:
85,336,147740,2,0,B|204:336|162:257|273:247,1,194.999984874726,2|0,1:2|0:2,0:0:0:0:
349,333,148070,5,0,0:2:0:0:
349,333,148181,2,0,B|336:282|336:282|362:222,1,97.4999924373631,10|0,0:2|0:2,0:0:0:0:
439,292,148401,1,2,0:2:0:0:
235,131,148512,1,2,0:2:0:0:
235,131,148622,2,0,B|191:124|191:124|180:125|180:125|124:118,1,97.4999924373631,2|0,1:2|0:2,0:0:0:0:
416,379,148842,2,0,B|459:372|459:372|470:373|470:373|527:366,1,97.4999924373631,0|0,1:2|0:2,0:0:0:0:
158,280,149063,2,0,B|114:273|114:273|103:274|103:274|61:268,1,97.4999924373631,8|0,1:2|0:2,0:0:0:0:
356,55,149284,2,0,B|399:48|399:48|411:49|411:49|453:44,1,97.4999924373631,0|2,1:2|0:2,0:0:0:0:
256,31,149504,5,2,1:2:0:0:
229,120,149725,1,10,0:2:0:0:
235,131,149835,1,2,0:2:0:0:
280,203,150056,1,2,0:2:0:0:
274,214,150166,1,2,0:2:0:0:
191,235,150386,6,0,B|232:209|232:209|281:214,1,89.9999943923952,4|0,1:2|0:2,0:0:0:0:
437,341,150607,2,0,B|395:345|395:345|354:319,1,89.9999943923952,0|0,0:2|0:2,0:0:0:0:
450,244,150827,1,8,0:2:0:0:
366,139,150938,2,0,B|353:331,1,179.99998878479,0|0,0:2|0:2,0:0:0:0:
234,384,151269,2,0,B|258:343|258:343|249:295,1,89.9999943923952,0|0,1:2|0:2,0:0:0:0:
81,283,151489,5,0,0:2:0:0:
173,249,151599,1,0,0:2:0:0:
155,169,151710,2,0,P|181:216|160:263,1,89.9999943923952,8|0,0:2|0:2,0:0:0:0:
98,362,151931,2,0,P|73:326|81:283,1,89.9999943923952,0|0,0:2|0:2,0:0:0:0:
188,98,152151,5,0,1:2:0:0:
155,169,152261,1,0,0:2:0:0:
82,195,152371,1,0,0:2:0:0:
10,170,152482,1,0,0:2:0:0:
66,67,152592,5,8,0:2:0:0:
82,195,152702,2,0,B|155:182|155:182|191:190|191:190|280:177,1,179.99998878479,0|0,0:2|0:2,0:0:0:0:
412,98,153033,2,0,P|369:71|308:108,1,89.9999943923952,0|0,1:2|0:2,0:0:0:0:
356,160,153254,5,0,0:2:0:0:
263,51,153364,1,0,0:2:0:0:
507,64,153475,6,0,L|496:166,1,89.9999943923952,10|0,0:2|0:2,0:0:0:0:
296,362,153695,2,0,L|287:273,1,89.9999943923952,2|0,0:2|0:2,0:0:0:0:
496,282,153916,5,2,1:2:0:0:
441,208,154026,1,0,0:2:0:0:
352,212,154136,1,0,0:2:0:0:
286,272,154247,1,0,0:2:0:0:
163,226,154357,1,8,0:2:0:0:
260,100,154467,6,0,L|250:189,1,89.9999943923952,0|0,0:2|0:2,0:0:0:0:
401,378,154688,2,0,L|391:288,1,89.9999943923952,0|0,0:2|1:2,0:0:0:0:
213,313,154909,5,0,0:2:0:0:
38,241,155019,1,0,0:2:0:0:
35,258,155129,1,0,0:2:0:0:
21,360,155239,6,0,B|73:346|73:346|112:297,1,89.9999943923952,8|0,0:2|0:2,0:0:0:0:
324,231,155460,2,0,B|272:217|272:217|233:168,1,89.9999943923952,0|0,0:2|0:2,0:0:0:0:
122,44,155681,6,0,L|131:149,1,89.9999943923952,0|0,1:2|0:2,0:0:0:0:
140,232,155901,1,0,0:2:0:0:
140,232,156011,1,0,0:2:0:0:
289,102,156122,6,0,P|231:99|200:148,1,89.9999943923952,8|0,0:2|0:2,0:0:0:0:
140,232,156342,1,0,0:2:0:0:
140,232,156453,1,0,0:2:0:0:
336,259,156563,6,0,P|296:216|240:229,1,89.9999943923952,0|0,1:2|0:2,0:0:0:0:
144,236,156784,1,8,0:2:0:0:
144,236,156894,1,0,0:2:0:0:
151,381,157004,5,10,0:2:0:0:
28,226,157114,1,0,0:2:0:0:
9,338,157225,6,0,B|50:313|50:313|119:319,1,89.9999943923952,2|0,0:2|0:2,0:0:0:0:
246,380,157445,5,2,1:2:0:0:
293,302,157556,1,0,0:2:0:0:
379,278,157666,1,0,0:2:0:0:
459,316,157776,1,0,0:2:0:0:
512,245,157886,5,8,0:2:0:0:
381,357,157997,2,0,B|370:274|370:274|376:252|376:252|366:176,1,179.99998878479,0|0,0:2|0:2,0:0:0:0:
215,144,158328,6,0,B|260:154|260:154|296:129,1,89.9999943923952,0|0,1:2|0:2,0:0:0:0:
377,95,158548,5,0,0:2:0:0:
315,10,158659,1,0,0:2:0:0:
215,144,158769,2,0,B|260:154|260:154|296:129,1,89.9999943923952,8|0,0:2|0:2,0:0:0:0:
500,30,158989,2,0,B|463:5|463:5|418:15,1,89.9999943923952,0|0,0:2|0:2,0:0:0:0:
242,57,159210,5,0,1:2:0:0:
296,128,159320,1,0,0:2:0:0:
281,216,159431,1,0,0:2:0:0:
201,259,159541,1,0,0:2:0:0:
118,189,159651,5,8,0:2:0:0:
66,278,159761,2,0,P|171:227|208:281,1,179.99998878479,0|0,0:2|0:2,0:0:0:0:
289,384,160092,5,0,1:2:0:0:
177,335,160203,1,0,0:2:0:0:
272,290,160313,5,0,0:2:0:0:
274,308,160423,1,0,0:2:0:0:
83,365,160534,5,8,0:2:0:0:
85,347,160644,1,0,0:2:0:0:
143,204,160754,2,0,B|100:219|100:219|53:192,1,89.9999943923952,0|0,0:2|0:2,0:0:0:0:
41,60,160975,5,0,1:2:0:0:
110,117,161085,1,0,0:2:0:0:
196,95,161195,1,0,0:2:0:0:
221,9,161306,1,0,0:2:0:0:
103,2,161416,5,8,0:2:0:0:
206,103,161526,2,0,B|319:110|271:56|372:47,1,179.99998878479,0|0,0:2|0:2,0:0:0:0:
505,182,161857,2,0,B|464:163|464:163|384:171,1,89.9999943923952,0|0,1:2|0:2,0:0:0:0:
301,189,162078,5,0,0:2:0:0:
401,258,162188,1,0,0:2:0:0:
324,370,162298,2,0,L|312:280,1,89.9999943923952,8|0,0:2|0:2,0:0:0:0:
167,181,162519,2,0,L|155:270,1,89.9999943923952,0|0,0:2|0:2,0:0:0:0:
16,363,162739,6,0,P|58:373|93:347,1,89.9999943923952,0|0,1:2|0:2,0:0:0:0:
42,250,162960,1,0,0:2:0:0:
42,250,163070,1,0,0:2:0:0:
232,285,163181,6,0,P|189:295|154:269,1,89.9999943923952,8|0,0:2|0:2,0:0:0:0:
228,122,163402,1,0,0:2:0:0:
228,122,163512,1,0,0:2:0:0:
77,0,163622,6,0,L|85:125,1,89.9999943923952,0|0,1:2|0:2,0:0:0:0:
93,214,163842,1,0,0:2:0:0:
93,214,163953,1,0,0:2:0:0:
6,142,164063,5,8,0:2:0:0:
144,154,164173,1,0,0:2:0:0:
171,12,164284,5,0,0:2:0:0:
3,46,164394,1,0,0:2:0:0:
144,154,164504,6,0,B|185:128|185:128|234:133,1,89.9999943923952,4|0,1:2|0:2,0:0:0:0:
398,227,164725,2,0,B|356:231|356:231|315:205,1,89.9999943923952,0|0,0:2|0:2,0:0:0:0:
249,57,164945,1,8,0:2:0:0:
315,205,165056,2,0,B|340:27,1,179.99998878479,0|0,0:2|0:2,0:0:0:0:
506,118,165387,2,0,L|512:207,1,89.9999943923952,0|0,1:2|0:2,0:0:0:0:
447,380,165607,5,0,0:2:0:0:
357,368,165717,1,0,0:2:0:0:
450,261,165828,2,0,P|406:256|374:285,1,89.9999943923952,8|0,0:2|0:2,0:0:0:0:
357,368,166048,2,0,P|315:380|277:358,1,89.9999943923952,0|0,0:2|0:2,0:0:0:0:
218,265,166269,5,0,1:2:0:0:
178,198,166380,1,0,0:2:0:0:
104,179,166490,1,0,0:2:0:0:
34,211,166600,1,0,0:2:0:0:
92,297,166710,5,8,0:2:0:0:
20,352,166820,2,0,P|73:285|33:210,1,179.99998878479,0|0,0:2|0:2,0:0:0:0:
0,124,167151,2,0,P|-15:76|37:27,1,89.9999943923952,0|0,1:2|0:2,0:0:0:0:
174,64,167372,5,8,0:2:0:0:
2,42,167482,1,0,0:2:0:0:
83,78,167592,5,8,0:2:0:0:
288,26,167813,1,0,0:2:0:0:
288,26,168034,6,0,B|293:133,1,89.9999943923952,0|0,1:2|0:2,0:0:0:0:
472,202,168254,2,0,B|476:112,1,89.9999943923952,0|0,0:2|0:2,0:0:0:0:
405,36,168475,5,8,0:2:0:0:
378,125,168585,2,0,L|386:307,1,179.99998878479,0|0,0:2|0:2,0:0:0:0:
283,325,168916,2,0,B|246:303|246:303|173:320,1,89.9999943923952,0|0,1:2|0:2,0:0:0:0:
137,384,169137,5,0,0:2:0:0:
90,288,169247,1,0,0:2:0:0:
0,298,169357,6,0,L|89:287,1,89.9999943923952,8|0,0:2|0:2,0:0:0:0:
291,187,169578,2,0,L|201:176,1,89.9999943923952,0|0,0:2|0:2,0:0:0:0:
16,192,169798,6,0,P|61:193|113:134,1,89.9999943923952,0|0,1:2|0:2,0:0:0:0:
30,96,170019,1,0,0:2:0:0:
30,96,170129,1,0,0:2:0:0:
186,0,170239,6,0,P|144:29|149:106,1,89.9999943923952,8|0,0:2|0:2,0:0:0:0:
234,91,170460,1,0,0:2:0:0:
234,91,170570,1,0,0:2:0:0:
264,228,170681,6,0,P|172:184|156:199,1,89.9999943923952,0|0,1:2|0:2,0:0:0:0:
171,272,170901,1,0,0:2:0:0:
171,272,171012,1,0,0:2:0:0:
57,375,171122,5,8,0:2:0:0:
171,272,171232,1,0,0:2:0:0:
0,268,171342,6,0,B|40:272|40:272|54:281|54:281|86:287,1,89.9999943923952,0|0,0:2|0:2,0:0:0:0:
257,372,171563,6,0,B|215:383|215:383|174:360,1,89.9999943923952,0|0,1:2|0:2,0:0:0:0:
320,297,171784,2,0,B|360:275|360:275|402:286,1,89.9999943923952,0|0,0:2|0:2,0:0:0:0:
490,384,172004,1,8,0:2:0:0:
490,384,172114,2,0,L|502:201,1,179.99998878479,0|0,0:2|0:2,0:0:0:0:
308,106,172445,2,0,L|313:195,1,89.9999943923952,0|0,1:2|0:2,0:0:0:0:
320,297,172666,5,0,0:2:0:0:
412,266,172776,1,0,0:2:0:0:
226,161,172887,2,0,B|215:197|215:197|231:261,1,89.9999943923952,8|0,0:2|0:2,0:0:0:0:
401,350,173107,2,0,B|419:314|419:314|411:265,1,89.9999943923952,0|0,0:2|0:2,0:0:0:0:
228,248,173328,5,0,1:2:0:0:
167,304,173438,1,0,0:2:0:0:
87,307,173548,1,0,0:2:0:0:
38,242,173659,1,0,0:2:0:0:
112,139,173769,5,8,0:2:0:0:
134,229,173879,2,0,B|142:154|142:154|159:133|159:133|170:30,1,179.99998878479,0|0,0:2|0:2,0:0:0:0:
0,58,174210,2,0,B|42:74|42:74|103:52,1,89.9999943923952,0|0,1:2|0:2,0:0:0:0:
241,106,174431,5,0,0:2:0:0:
84,58,174541,1,0,0:2:0:0:
167,55,174651,5,8,0:2:0:0:
428,12,174872,1,0,0:2:0:0:
428,12,175092,6,0,B|444:61|444:61|433:120,1,89.9999943923952,0|0,1:2|0:2,0:0:0:0:
240,192,175313,2,0,B|228:151|228:151|240:105,1,89.9999943923952,0|0,0:2|0:2,0:0:0:0:
331,139,175534,1,8,0:2:0:0:
287,266,175644,2,0,P|201:277|151:207,1,179.99998878479,0|0,0:2|0:2,0:0:0:0:
26,156,175975,2,0,B|65:150|65:150|82:139|82:139|126:137,1,89.9999943923952,0|0,1:2|0:2,0:0:0:0:
240,192,176195,5,0,0:2:0:0:
125,61,176306,1,0,0:2:0:0:
213,32,176416,6,0,L|200:122,1,89.9999943923952,8|0,0:2|0:2,0:0:0:0:
37,245,176636,2,0,L|24:154,1,89.9999943923952,0|0,0:2|0:2,0:0:0:0:
53,22,176857,6,0,P|104:32|124:95,1,89.9999943923952,0|0,1:2|0:2,0:0:0:0:
30,160,177078,1,0,0:2:0:0:
30,160,177188,1,0,0:2:0:0:
124,269,177298,2,0,P|131:224|166:198,1,89.9999943923952,8|0,0:2|0:2,0:0:0:0:
272,291,177519,1,0,0:2:0:0:
272,291,177629,1,0,0:2:0:0:
408,204,177739,6,0,P|351:182|345:125,1,89.9999943923952,0|0,1:2|0:2,0:0:0:0:
446,69,177960,1,0,0:2:0:0:
446,69,178070,1,0,0:2:0:0:
341,158,178181,5,8,0:2:0:0:
251,115,178291,1,0,0:2:0:0:
180,183,178401,1,0,0:2:0:0:
104,119,178511,1,0,0:2:0:0:
104,119,178622,6,0,L|110:234,1,74.9999976158143,2|2,0:0|0:0,0:0:0:0:
117,275,178842,1,2,0:0:0:0:
199,261,178953,1,2,0:0:0:0:
261,322,179063,1,2,0:0:0:0:
261,322,179173,2,0,B|292:297|292:297|352:312,1,74.9999976158143,2|0,0:0|0:0,0:0:0:0:
457,276,179394,2,0,B|417:284|417:284|378:255,1,74.9999976158143,2|0,0:0|0:0,0:0:0:0:
439,198,179614,1,2,0:0:0:0:
355,160,179725,5,2,0:0:0:0:
353,169,179835,1,2,0:0:0:0:
289,219,179945,1,2,0:0:0:0:
133,175,180166,5,2,0:0:0:0:
431,56,180386,5,6,0:0:0:0:
256,192,180497,12,0,185681,0:0:0:0:
