osu file format v14

[General]
AudioFilename: audio.mp3
AudioLeadIn: 0
PreviewTime: 118842
Countdown: 0
SampleSet: Soft
StackLeniency: 0.5
Mode: 0
LetterboxInBreaks: 0
WidescreenStoryboard: 1

[Editor]
Bookmarks: 387,2151,16269,30386,37445,48034,51563,58181,65681,79798,93916,100975,108034,122151,132739,136269,150386,153916,164504,178622,180386
DistanceSpacing: 1.4
BeatDivisor: 4
GridSize: 4
TimelineZoom: 1.6

[Metadata]
Title:Anemone
TitleUnicode:アネモネ
Artist:DUSTCELL
ArtistUnicode:DUSTCELL
Creator:Sparhten
Version:Collab Hard
Source:
Tags:Bongo Neonlights agatsu Oneshotfox japanese rei sirose SUMMIT rock pop anime alt amiya arknights corsace qualifiers nomod nm4
BeatmapID:2593242
BeatmapSetID:1247651

[Difficulty]
HPDrainRate:4
CircleSize:3.5
OverallDifficulty:7
ApproachRate:8
SliderMultiplier:1.59999990463257
SliderTickRate:1

[Events]
//Background and Video events
0,0,"EYW4FV4UMAEucWi.jpg",0,0
//Break Periods
2,108234,118622
//Storyboard Layer 0 (Background)
//Storyboard Layer 1 (Fail)
//Storyboard Layer 2 (Pass)
//Storyboard Layer 3 (Foreground)
//Storyboard Layer 4 (Overlay)
//Storyboard Sound Samples

[TimingPoints]
387,441.176470588235,4,2,0,45,1,0
2151,-83.3333333333333,4,2,0,40,0,0
16269,-100,4,2,0,40,0,0
30386,-83.3333333333333,4,2,0,40,0,0
37445,-83.3333333333333,4,2,0,40,0,1
48254,-100,4,2,0,40,0,0
51563,-83.3333333333333,4,2,0,40,0,1
64798,-100,4,2,0,40,0,0
65681,-83.3333333333333,4,2,0,40,0,0
79798,-100,4,2,0,40,0,0
86857,-100,4,2,0,40,0,0
88622,-100,4,2,0,40,0,0
92372,-100,4,2,0,40,0,0
93916,-83.3333333333333,4,2,0,40,0,0
100975,-83.3333333333333,4,2,0,40,0,0
108034,-83.3333333333333,4,2,0,40,0,0
121710,-83.3333333333333,4,2,0,40,0,0
122151,-83.3333333333333,4,2,0,40,0,1
132739,-100,4,2,0,40,0,0
135607,-83.3333333333333,4,2,0,40,0,0
136269,-83.3333333333333,4,2,0,40,0,1
141122,-83.3333333333333,4,2,0,40,0,1
141563,-83.3333333333333,4,2,0,80,0,1
141673,-83.3333333333333,4,2,0,40,0,1
150386,-83.3333333333333,4,2,0,40,0,0
153475,-83.3333333333333,4,2,0,40,0,1
164504,-83.3333333333333,4,2,0,40,0,0
178622,-100,4,2,0,40,0,0
180497,-100,4,2,0,55,0,0

[Colours]
Combo1 : 196,217,217
Combo2 : 215,215,215
Combo3 : 213,186,183

[HitObjects]
91,79,387,6,0,L|98:162,2,79.9999952316284,2|2|2,0:0|0:0|0:0,0:0:0:0:
173,57,1048,2,0,L|178:30,2,19.9999988079071,2|0|2,0:0|0:0|0:0,0:0:0:0:
232,124,1379,1,2,0:0:0:0:
232,124,1489,2,0,L|290:116,2,39.9999976158142,10|0|8,0:0|0:0|0:0,0:0:0:0:
193,210,2151,6,0,L|252:219,1,47.9999956741335,4|0,1:2|0:2,0:0:0:0:
259,241,2372,2,0,L|318:250,1,47.9999956741335,0|0,0:2|0:2,0:0:0:0:
364,253,2592,1,8,0:2:0:0:
364,253,2703,2,0,B|374:290|374:290|349:359,1,95.9999913482669,0|0,0:2|0:2,0:0:0:0:
333,347,3034,2,0,L|250:358,1,47.9999956741335,0|0,1:2|0:2,0:0:0:0:
276,377,3254,2,0,L|193:388,1,47.9999956741335,0|0,0:2|0:2,0:0:0:0:
205,363,3475,5,8,0:2:0:0:
345,172,3695,1,0,0:2:0:0:
250,232,3916,6,0,L|244:172,1,47.9999956741335,0|0,1:2|0:2,0:0:0:0:
213,170,4136,2,0,L|207:110,1,47.9999956741335,0|0,0:2|0:2,0:0:0:0:
108,68,4357,1,8,0:2:0:0:
108,68,4467,2,0,B|129:88|129:88|227:73,1,95.9999913482669,0|0,0:2|0:2,0:0:0:0:
221,49,4798,2,0,L|286:41,1,47.9999956741335,0|0,1:2|0:2,0:0:0:0:
297,15,5019,1,0,0:2:0:0:
297,15,5129,1,0,0:2:0:0:
297,15,5239,2,0,L|292:118,1,95.9999913482669,8|0,0:2|0:2,0:0:0:0:
426,168,5681,6,0,B|404:153|404:153|369:159,1,47.9999956741335,0|0,1:2|0:2,0:0:0:0:
360,185,5901,2,0,B|338:200|338:200|303:194,1,47.9999956741335,0|0,0:2|0:2,0:0:0:0:
278,199,6122,1,8,0:2:0:0:
278,199,6232,2,0,L|283:317,1,95.9999913482669,0|0,0:2|0:2,0:0:0:0:
217,320,6563,2,0,B|246:316|246:316|279:328,1,47.9999956741335,0|0,1:2|0:2,0:0:0:0:
292,346,6784,2,0,B|321:350|321:350|354:338,1,47.9999956741335,0|0,0:2|0:2,0:0:0:0:
338,343,7004,5,8,0:2:0:0:
512,202,7225,1,0,0:2:0:0:
434,374,7445,6,0,L|438:316,1,47.9999956741335,0|0,1:2|0:2,0:0:0:0:
437,326,7666,1,0,0:2:0:0:
363,232,7886,2,0,L|359:174,1,47.9999956741335,8|0,0:2|0:2,0:0:0:0:
359,184,8107,1,0,0:2:0:0:
502,63,8327,2,0,L|506:121,1,47.9999956741335,0|0,1:2|0:2,0:0:0:0:
505,110,8548,5,8,0:2:0:0:
292,61,8769,2,0,L|298:13,1,47.9999956741335,8|0,0:2|0:2,0:0:0:0:
401,56,8989,2,0,L|408:104,1,47.9999956741335,0|0,0:2|0:2,0:0:0:0:
374,139,9210,6,0,B|348:133|348:133|306:142,1,47.9999956741335,0|0,1:2|0:2,0:0:0:0:
276,167,9431,2,0,B|250:173|250:173|208:164,1,47.9999956741335,0|0,0:2|0:2,0:0:0:0:
200,151,9651,1,8,0:2:0:0:
200,151,9761,2,0,B|164:137|164:137|79:142,1,95.9999913482669,0|0,0:2|0:2,0:0:0:0:
83,169,10092,2,0,L|96:227,1,47.9999956741335,0|0,1:2|0:2,0:0:0:0:
79,253,10313,2,0,L|92:311,1,47.9999956741335,0|0,0:2|0:2,0:0:0:0:
89,299,10534,5,8,0:2:0:0:
343,236,10754,1,0,0:2:0:0:
255,253,10975,6,0,L|255:310,1,47.9999956741335,0|0,1:2|0:2,0:0:0:0:
234,320,11195,2,0,L|234:377,1,47.9999956741335,0|0,0:2|0:2,0:0:0:0:
262,384,11416,1,8,0:2:0:0:
262,384,11526,2,0,B|223:380|223:380|204:385|204:385|142:377,1,95.9999913482669,0|0,0:2|0:2,0:0:0:0:
126,379,11857,2,0,L|119:302,1,47.9999956741335,0|0,1:2|0:2,0:0:0:0:
142,290,12078,1,0,0:2:0:0:
142,290,12188,1,0,0:2:0:0:
142,290,12298,2,0,B|150:264|150:264|106:184,1,95.9999913482669,8|0,0:2|0:2,0:0:0:0:
26,86,12739,6,0,L|95:82,1,47.9999956741335,0|0,1:2|0:2,0:0:0:0:
95,53,12960,2,0,L|164:49,1,47.9999956741335,0|0,0:2|0:2,0:0:0:0:
194,83,13181,1,8,0:2:0:0:
194,83,13291,2,0,B|241:105|241:105|328:89,1,95.9999913482669,0|0,0:2|0:2,0:0:0:0:
320,95,13622,2,0,L|316:151,1,47.9999956741335,0|0,1:2|0:2,0:0:0:0:
335,166,13842,2,0,L|331:222,1,47.9999956741335,0|0,0:2|0:2,0:0:0:0:
327,257,14063,5,8,0:2:0:0:
512,195,14284,1,0,0:2:0:0:
463,335,14504,6,0,L|459:277,1,47.9999956741335,0|0,1:2|0:2,0:0:0:0:
459,287,14725,1,0,0:2:0:0:
418,208,14945,2,0,L|422:150,1,47.9999956741335,8|0,0:2|0:2,0:0:0:0:
421,160,15166,1,0,0:2:0:0:
501,116,15386,2,0,L|505:174,1,47.9999956741335,0|0,1:2|0:2,0:0:0:0:
504,163,15607,5,0,0:2:0:0:
325,172,15828,2,0,L|277:166,1,47.9999956741335,8|0,0:2|0:2,0:0:0:0:
242,196,16048,2,0,L|194:203,1,47.9999956741335,0|0,0:2|0:2,0:0:0:0:
143,199,16269,6,0,L|142:145,2,39.9999976158142,6|2|2,1:2|0:2|0:2,0:0:0:0:
102,224,16600,2,0,P|99:293|102:313,1,79.9999952316285,2|2,0:2|0:2,0:0:0:0:
185,362,17041,5,2,0:2:0:0:
185,362,17151,2,0,P|228:347|248:348,1,39.9999976158142,2|0,1:2|0:2,0:0:0:0:
256,313,17372,2,0,P|279:308|321:312,1,39.9999976158142,2|0,0:2|0:2,0:0:0:0:
336,345,17592,2,0,P|376:363|439:355,2,79.9999952316285,10|2|0,0:2|0:2|1:2,0:0:0:0:
380,235,18254,5,2,0:2:0:0:
380,235,18364,1,2,0:2:0:0:
380,235,18475,2,0,L|374:170,1,39.9999976158142,10|0,0:2|0:2,0:0:0:0:
339,157,18695,1,0,0:2:0:0:
339,157,18806,2,0,B|347:85,1,39.9999976158142,2|2,0:2|1:2,0:0:0:0:
352,74,19026,2,0,P|382:76|415:89,2,39.9999976158142,2|2|2,0:2|0:2|0:2,0:0:0:0:
306,41,19357,6,0,P|244:54|199:46,1,79.9999952316285,10|2,0:2|0:2,0:0:0:0:
165,221,19798,1,2,1:2:0:0:
165,221,19909,2,0,P|210:212|237:217,1,39.9999976158142,2|0,0:2|0:2,0:0:0:0:
246,232,20129,2,0,B|249:262|249:262|237:289|237:289|242:333,1,79.9999952316285,2|2,0:2|0:2,0:0:0:0:
362,357,20570,5,2,0:2:0:0:
362,357,20681,2,0,P|390:357|421:351,1,39.9999976158142,2|2,1:2|0:2,0:0:0:0:
442,318,20901,1,2,0:2:0:0:
442,318,21011,1,2,0:2:0:0:
442,318,21122,2,0,P|442:279|434:259,2,39.9999976158142,10|2|2,0:2|0:2|0:2,0:0:0:0:
333,222,21563,5,2,1:2:0:0:
333,222,21673,2,0,P|331:200|338:162,1,39.9999976158142,2|0,0:2|0:2,0:0:0:0:
374,156,21894,1,2,0:2:0:0:
374,156,22004,2,0,P|377:129|374:100,1,39.9999976158142,10|0,0:2|0:2,0:0:0:0:
352,74,22225,5,2,0:2:0:0:
352,74,22335,2,0,L|293:77,1,39.9999976158142,2|2,0:2|1:2,0:0:0:0:
286,69,22556,2,0,B|243:56|243:56|194:77,1,79.9999952316285,2|2,0:2|0:2,0:0:0:0:
178,90,22886,2,0,P|173:149|193:186,1,79.9999952316285,10|2,0:2|0:2,0:0:0:0:
15,278,23328,6,0,L|10:215,1,39.9999976158142,2|2,1:2|0:2,0:0:0:0:
37,209,23548,2,0,L|40:146,1,39.9999976158142,2|2,0:2|0:2,0:0:0:0:
6,130,23769,1,10,0:2:0:0:
6,130,23879,2,0,P|45:105|101:118,1,79.9999952316285,2|2,0:2|0:2,0:0:0:0:
173,165,24210,5,2,1:2:0:0:
173,165,24320,2,0,L|175:216,1,39.9999976158142,2|2,0:2|0:2,0:0:0:0:
184,246,24541,1,2,0:2:0:0:
184,246,24651,2,0,B|165:263|121:268,2,39.9999976158142,10|2|0,0:2|0:2|0:2,0:0:0:0:
227,261,24982,6,0,B|254:249|291:260|282:273|312:298|360:272,1,119.999992847443,2|2,0:2|0:2,0:0:0:0:
449,154,25534,1,10,0:2:0:0:
343,161,25754,1,2,0:2:0:0:
355,49,25975,6,0,B|311:35|311:35|245:50,1,79.9999952316285,2|0,1:2|0:2,0:0:0:0:
120,145,26416,1,10,1:2:0:0:
49,69,26636,2,0,P|84:43|151:54,1,79.9999952316285,2|0,0:2|1:2,0:0:0:0:
248,163,27078,6,0,L|242:217,1,39.9999976158142,2|0,0:2|0:2,0:0:0:0:
269,224,27298,2,0,L|273:274,1,39.9999976158142,10|0,0:2|0:2,0:0:0:0:
251,301,27519,1,2,0:2:0:0:
400,333,27739,2,0,P|448:338|494:319,2,79.9999952316285,2|2|10,1:2|0:2|0:2,0:0:0:0:
433,230,28401,1,2,0:2:0:0:
471,131,28622,6,0,P|425:119|396:121,1,39.9999976158142,2|0,1:2|0:2,0:0:0:0:
401,139,28842,2,0,P|361:150|328:148,1,39.9999976158142,2|0,0:2|0:2,0:0:0:0:
319,127,29063,2,0,P|308:85|349:52,1,79.9999952316285,10|2,0:2|0:2,0:0:0:0:
432,36,29504,2,0,B|436:93|436:93|405:140|405:140|412:211,1,159.999990463257,2|10,1:2|0:2,0:0:0:0:
426,324,30166,1,2,0:2:0:0:
292,300,30386,5,2,1:2:0:0:
362,252,31048,5,0,0:2:0:0:
370,264,31269,1,10,0:2:0:0:
138,127,31931,5,8,0:2:0:0:
130,139,32152,1,2,0:2:0:0:
246,75,32813,5,2,1:2:0:0:
329,27,33254,1,2,0:2:0:0:
370,121,33695,1,0,0:2:0:0:
375,136,33916,1,0,1:2:0:0:
37,46,34578,5,2,0:2:0:0:
42,64,34799,1,8,0:2:0:0:
423,26,35460,5,2,0:2:0:0:
420,37,35681,1,2,0:2:0:0:
439,202,36122,1,2,0:2:0:0:
279,102,36563,1,2,0:2:0:0:
347,170,37004,6,0,B|341:213|341:213|372:314,1,143.9999870224,2|0,0:2|0:2,0:0:0:0:
395,332,37445,1,4,1:2:0:0:
258,339,37666,1,2,0:2:0:0:
258,339,37776,2,0,P|199:331|174:345,1,47.9999956741335,2|8,0:2|0:2,0:0:0:0:
153,354,37997,1,2,0:2:0:0:
43,222,38217,5,2,0:2:0:0:
43,222,38328,2,0,L|47:167,1,47.9999956741335,0|2,1:2|0:2,0:0:0:0:
52,118,38548,2,0,B|101:104|101:104|148:127,1,95.9999913482669,2|10,0:2|0:2,0:0:0:0:
241,186,38989,5,2,0:2:0:0:
241,186,39100,1,2,0:2:0:0:
241,186,39210,1,2,1:2:0:0:
321,102,39431,2,0,L|319:43,2,47.9999956741335,2|2|10,0:2|0:2|0:2,0:0:0:0:
413,167,39872,2,0,L|415:226,2,47.9999956741335,2|2|2,0:2|0:2|1:2,0:0:0:0:
480,305,40313,5,2,0:2:0:0:
452,317,40423,1,2,0:2:0:0:
422,321,40533,1,10,0:2:0:0:
392,316,40643,1,2,0:2:0:0:
366,302,40754,2,0,P|341:283|319:248,1,47.9999956741335,2|2,0:2|0:2,0:0:0:0:
303,223,40975,6,0,B|256:200|256:200|202:222,1,95.9999913482669,2|2,1:2|0:2,0:0:0:0:
175,242,41306,2,0,B|132:264|132:264|74:243,1,95.9999913482669,2|2,0:2|0:2,0:0:0:0:
41,132,41747,2,0,L|35:80,1,47.9999956741335,2|0,0:2|1:2,0:0:0:0:
32,42,41967,1,2,0:2:0:0:
32,42,42078,2,0,P|65:29|101:32,1,47.9999956741335,2|0,0:2|0:2,0:0:0:0:
133,43,42298,1,10,0:2:0:0:
322,30,42519,5,2,0:2:0:0:
322,30,42629,1,2,0:2:0:0:
322,30,42739,2,0,L|316:92,2,47.9999956741335,2|0|2,1:2|0:2|0:2,0:0:0:0:
377,105,43070,1,2,0:2:0:0:
377,105,43181,2,0,L|382:162,2,47.9999956741335,10|2|2,0:2|0:2|0:2,0:0:0:0:
342,200,43511,6,0,P|313:200|276:192,1,47.9999956741335,2|0,0:2|1:2,0:0:0:0:
250,188,43732,1,2,0:2:0:0:
250,188,43842,2,0,P|238:151|221:130,2,47.9999956741335,2|2|10,0:2|0:2|0:2,0:0:0:0:
155,294,44284,1,2,0:2:0:0:
34,211,44504,6,0,P|19:157|27:97,1,95.9999913482669,2|2,1:2|0:2,0:0:0:0:
40,83,44835,2,0,P|71:83|97:93,1,47.9999956741335,2|8,0:2|0:2,0:0:0:0:
123,114,45056,1,2,0:2:0:0:
274,123,45276,6,0,L|270:65,1,47.9999956741335,2|0,0:2|1:2,0:0:0:0:
269,41,45497,1,2,0:2:0:0:
269,41,45607,1,2,0:2:0:0:
406,12,45828,1,10,0:2:0:0:
499,129,46048,5,2,0:2:0:0:
499,129,46159,1,2,0:2:0:0:
499,129,46269,1,2,1:2:0:0:
410,217,46489,2,0,P|374:220|359:231,2,47.9999956741335,2|2|10,0:2|0:2|0:2,0:0:0:0:
467,322,46931,2,0,P|503:325|518:336,2,47.9999956741335,2|2|2,0:2|0:2|1:2,0:0:0:0:
342,339,47372,5,2,0:2:0:0:
316,351,47482,1,2,0:2:0:0:
288,358,47592,1,10,0:2:0:0:
259,357,47703,1,2,0:2:0:0:
231,350,47813,2,0,P|241:312|263:284,2,47.9999956741335,2|2|0,0:2|0:2|1:2,0:0:0:0:
75,359,48254,5,2,0:2:0:0:
75,359,48364,1,2,0:2:0:0:
75,359,48475,1,10,0:2:0:0:
40,214,48695,1,2,0:2:0:0:
40,214,48806,2,0,P|71:200|126:206,1,79.9999952316285,2|2,0:2|0:2,0:0:0:0:
151,217,49136,1,2,0:2:0:0:
151,217,49247,2,0,P|137:186|145:132,1,79.9999952316285,2|2,0:2|0:2,0:0:0:0:
157,119,49578,1,2,0:2:0:0:
157,119,49688,1,2,0:2:0:0:
38,32,50019,5,2,0:2:0:0:
38,32,50129,1,2,0:2:0:0:
38,32,50239,2,0,P|104:15|143:21,1,79.9999952316285,10|2,0:2|0:2,0:0:0:0:
141,29,50570,2,0,P|174:42|238:29,1,79.9999952316285,2|2,0:2|0:2,0:0:0:0:
254,23,50901,1,10,0:2:0:0:
355,79,51122,2,0,L|348:188,1,79.9999952316285,10|0,0:2|0:2,0:0:0:0:
337,303,51563,6,0,P|362:299|407:306,1,47.9999956741335,6|2,1:2|0:2,0:0:0:0:
409,332,51784,2,0,P|449:336|482:325,1,47.9999956741335,2|0,0:2|0:2,0:0:0:0:
500,297,52004,2,0,P|500:249|478:190,1,95.9999913482669,10|2,0:2|0:2,0:0:0:0:
439,174,52335,5,2,0:2:0:0:
439,174,52445,2,0,P|441:137|446:109,2,47.9999956741335,2|2|2,1:2|0:2|0:2,0:0:0:0:
387,175,52776,1,2,0:2:0:0:
387,175,52886,2,0,P|341:187|275:165,1,95.9999913482669,10|2,0:2|0:2,0:0:0:0:
257,151,53217,5,2,0:2:0:0:
257,151,53328,2,0,P|210:141|164:153,1,95.9999913482669,2|2,1:2|0:2,0:0:0:0:
115,179,53659,1,2,0:2:0:0:
115,179,53769,2,0,L|108:64,1,95.9999913482669,8|2,0:2|0:2,0:0:0:0:
235,33,54210,2,0,B|312:25|312:25|367:81,2,143.9999870224,2|2|0,1:2|0:2|0:2,0:0:0:0:
276,195,55092,6,0,L|225:204,2,47.9999956741335,2|2|2,1:2|0:2|0:2,0:0:0:0:
362,272,55534,2,0,L|413:281,2,47.9999956741335,10|2|2,0:2|0:2|0:2,0:0:0:0:
463,190,55975,5,2,1:2:0:0:
465,161,56085,1,2,0:2:0:0:
468,132,56195,1,2,0:2:0:0:
471,103,56306,1,2,0:2:0:0:
475,74,56416,2,0,P|410:62|365:85,1,95.9999913482669,10|2,0:2|0:2,0:0:0:0:
250,158,56857,5,0,1:2:0:0:
250,158,56967,2,0,L|244:89,1,47.9999956741335,2|2,0:2|0:2,0:0:0:0:
238,66,57188,1,2,0:2:0:0:
238,66,57298,2,0,P|210:52|172:50,1,47.9999956741335,10|2,0:2|0:2,0:0:0:0:
144,75,57519,5,2,0:2:0:0:
144,75,57629,1,2,0:2:0:0:
144,75,57739,2,0,L|138:144,1,47.9999956741335,2|2,1:2|0:2,0:0:0:0:
95,133,57960,2,0,L|101:190,1,47.9999956741335,2|2,0:0|0:0,0:0:0:0:
70,199,58181,2,0,L|76:268,2,47.9999956741335,10|2|2,0:2|0:2|0:2,0:0:0:0:
53,262,58511,5,2,0:2:0:0:
53,262,58622,2,0,P|99:251|146:259,1,95.9999913482669,2|2,1:2|0:2,0:0:0:0:
197,219,58953,1,2,0:2:0:0:
197,219,59063,2,0,P|269:214|315:236,1,95.9999913482669,10|2,0:2|0:2,0:0:0:0:
353,311,59504,1,2,1:2:0:0:
466,177,59725,5,2,0:2:0:0:
466,177,59835,1,2,0:2:0:0:
466,177,59945,2,0,P|489:175|514:184,2,47.9999956741335,10|2|2,0:2|0:2|0:2,0:0:0:0:
376,59,60386,6,0,B|290:29|308:98|211:68,1,143.9999870224,2|2,1:2|0:2,0:0:0:0:
193,48,60828,2,0,P|155:103|193:178,1,143.9999870224,10|2,0:2|0:2,0:0:0:0:
227,190,61269,2,0,B|189:223|189:223|95:218,1,143.9999870224,2|0,1:2|0:2,0:0:0:0:
48,188,61710,5,10,0:2:0:0:
5,343,61931,2,0,B|76:350|76:350|130:317|130:317|198:321,1,191.999982696534,2|0,0:2|0:2,0:0:0:0:
301,373,62592,1,10,0:2:0:0:
397,323,62813,1,2,0:2:0:0:
397,323,62923,1,2,0:2:0:0:
397,323,63034,2,0,L|386:221,1,95.9999913482669,2|0,1:2|0:2,0:0:0:0:
262,263,63475,5,10,0:2:0:0:
211,151,63695,2,0,P|179:139|147:137,1,47.9999956741335,2|2,0:2|0:2,0:0:0:0:
120,149,63916,5,2,1:2:0:0:
143,56,64136,1,0,1:2:0:0:
49,33,64357,1,8,1:2:0:0:
20,124,64578,1,0,1:2:0:0:
41,252,64798,6,0,B|90:270|90:270|138:251,1,79.9999952316285,2|10,1:2|0:2,0:0:0:0:
140,234,65129,2,0,B|183:218|183:218|231:234,1,79.9999952316285,2|2,0:2|0:2,0:0:0:0:
248,255,65460,1,2,0:2:0:0:
298,93,65681,6,0,L|239:102,1,47.9999956741335,4|0,1:2|0:2,0:0:0:0:
232,124,65902,2,0,L|173:133,1,47.9999956741335,0|0,0:2|0:2,0:0:0:0:
130,145,66122,1,8,0:2:0:0:
130,145,66233,2,0,B|120:182|120:182|145:251,1,95.9999913482669,0|0,0:2|0:2,0:0:0:0:
148,258,66564,2,0,L|231:269,1,47.9999956741335,0|0,1:2|0:2,0:0:0:0:
205,288,66784,2,0,L|288:299,1,47.9999956741335,0|0,0:2|0:2,0:0:0:0:
252,294,67005,5,8,0:2:0:0:
476,231,67225,1,0,0:2:0:0:
362,222,67446,6,0,L|368:162,1,47.9999956741335,0|0,1:2|0:2,0:0:0:0:
389,164,67666,2,0,L|395:104,1,47.9999956741335,0|0,0:2|0:2,0:0:0:0:
477,50,67887,1,8,0:2:0:0:
477,50,67997,2,0,B|456:70|456:70|358:55,1,95.9999913482669,0|0,0:2|0:2,0:0:0:0:
364,31,68328,2,0,L|299:23,1,47.9999956741335,0|0,1:2|0:2,0:0:0:0:
260,25,68549,1,0,0:2:0:0:
260,25,68659,1,0,0:2:0:0:
260,25,68769,2,0,L|265:128,1,95.9999913482669,8|0,0:2|0:2,0:0:0:0:
134,193,69211,6,0,B|156:178|156:178|191:184,1,47.9999956741335,0|0,1:2|0:2,0:0:0:0:
200,210,69431,2,0,B|222:225|222:225|257:219,1,47.9999956741335,0|0,0:2|0:2,0:0:0:0:
296,219,69652,1,8,0:2:0:0:
296,219,69762,2,0,L|291:337,1,95.9999913482669,0|0,0:2|0:2,0:0:0:0:
309,333,70093,2,0,B|280:329|280:329|247:341,1,47.9999956741335,0|0,1:2|0:2,0:0:0:0:
234,359,70314,2,0,B|205:363|205:363|172:351,1,47.9999956741335,0|0,0:2|0:2,0:0:0:0:
187,356,70534,5,8,0:2:0:0:
0,262,70755,1,0,0:2:0:0:
77,377,70975,6,0,L|73:319,1,47.9999956741335,0|0,1:2|0:2,0:0:0:0:
73,329,71196,1,0,0:2:0:0:
114,232,71416,2,0,L|110:174,1,47.9999956741335,8|0,0:2|0:2,0:0:0:0:
110,184,71637,1,0,0:2:0:0:
244,133,71857,2,0,L|240:191,1,47.9999956741335,0|0,1:2|0:2,0:0:0:0:
240,180,72078,5,8,0:2:0:0:
49,112,72299,2,0,L|43:64,1,47.9999956741335,8|0,0:2|0:2,0:0:0:0:
168,32,72519,2,0,L|161:80,1,47.9999956741335,0|0,0:2|0:2,0:0:0:0:
244,133,72740,6,0,B|270:127|270:127|312:136,1,47.9999956741335,0|0,1:2|0:2,0:0:0:0:
314,158,72961,2,0,B|340:164|340:164|382:155,1,47.9999956741335,0|0,0:2|0:2,0:0:0:0:
417,174,73181,1,8,0:2:0:0:
417,174,73291,2,0,B|431:210|431:210|426:295,1,95.9999913482669,0|0,0:2|0:2,0:0:0:0:
408,299,73622,2,0,L|350:286,1,47.9999956741335,0|0,1:2|0:2,0:0:0:0:
322,289,73843,2,0,L|264:276,1,47.9999956741335,0|0,0:2|0:2,0:0:0:0:
265,235,74064,5,8,0:2:0:0:
86,353,74284,1,0,0:2:0:0:
163,225,74505,6,0,L|163:282,1,47.9999956741335,0|0,1:2|0:2,0:0:0:0:
184,292,74725,2,0,L|184:349,1,47.9999956741335,0|0,0:2|0:2,0:0:0:0:
223,379,74946,1,8,0:2:0:0:
223,379,75056,2,0,B|262:375|262:375|281:380|281:380|343:372,1,95.9999913482669,0|0,0:2|0:2,0:0:0:0:
359,374,75387,2,0,L|366:297,1,47.9999956741335,0|0,1:2|0:2,0:0:0:0:
391,287,75608,1,0,0:2:0:0:
391,287,75718,1,0,0:2:0:0:
391,287,75828,2,0,B|383:261|383:261|427:181,1,95.9999913482669,8|0,0:2|0:2,0:0:0:0:
508,53,76269,6,0,L|439:49,1,47.9999956741335,0|0,1:2|0:2,0:0:0:0:
439,20,76490,2,0,L|370:16,1,47.9999956741335,0|0,0:2|0:2,0:0:0:0:
353,58,76711,1,8,0:2:0:0:
353,58,76821,2,0,B|306:80|306:80|219:64,1,95.9999913482669,0|0,0:2|0:2,0:0:0:0:
211,89,77152,2,0,L|215:145,1,47.9999956741335,0|0,1:2|0:2,0:0:0:0:
196,160,77372,2,0,L|200:216,1,47.9999956741335,0|0,0:2|0:2,0:0:0:0:
196,233,77593,5,8,0:2:0:0:
1,193,77814,1,0,0:2:0:0:
54,332,78034,6,0,L|58:274,1,47.9999956741335,0|0,1:2|0:2,0:0:0:0:
57,284,78255,1,0,0:2:0:0:
124,196,78474,2,0,L|120:138,1,47.9999956741335,8|0,0:2|0:2,0:0:0:0:
121,149,78695,1,0,0:2:0:0:
12,53,78916,2,0,L|8:111,1,47.9999956741335,0|0,1:2|0:2,0:0:0:0:
8,100,79137,5,0,0:2:0:0:
120,59,79358,2,0,L|168:53,1,47.9999956741335,8|0,0:2|0:2,0:0:0:0:
207,80,79578,2,0,L|255:87,1,47.9999956741335,0|0,0:2|0:2,0:0:0:0:
254,86,79798,5,4,1:2:0:0:
494,42,80239,2,0,P|396:27|329:68,1,159.999990463257,2|10,0:2|0:2,0:0:0:0:
193,170,80901,2,0,L|201:78,1,79.9999952316285,2|2,0:2|0:2,0:0:0:0:
206,7,81342,1,10,0:2:0:0:
40,34,81563,6,0,L|51:211,1,159.999990463257,2|2,0:2|0:2,0:0:0:0:
72,326,82225,2,0,P|116:309|177:313,1,79.9999952316285,2|10,0:2|0:2,0:0:0:0:
277,346,82666,1,0,0:2:0:0:
277,346,82776,1,2,0:2:0:0:
277,346,82886,2,0,L|285:273,1,39.9999976158142,2|2,1:2|0:2,0:0:0:0:
294,147,83217,6,0,B|208:157,1,79.9999952316285,2|0,0:2|0:2,0:0:0:0:
163,180,83548,1,2,0:2:0:0:
163,180,83659,1,2,0:2:0:0:
163,180,83769,2,0,L|167:120,1,39.9999976158142,2|2,0:2|0:2,0:0:0:0:
152,29,84100,6,0,B|175:19|175:19|221:21,1,39.9999976158142,2|8,0:2|0:2,0:0:0:0:
364,88,84431,1,2,0:2:0:0:
364,88,84541,1,2,0:2:0:0:
364,88,84651,2,0,L|368:31,1,39.9999976158142,2|2,1:2|0:2,0:0:0:0:
472,139,84982,5,2,0:2:0:0:
472,139,85092,2,0,L|477:239,1,79.9999952316285,2|2,0:2|0:2,0:0:0:0:
369,340,85534,2,0,L|374:240,1,79.9999952316285,2|2,0:2|0:2,0:0:0:0:
341,127,85975,5,10,0:2:0:0:
197,214,86195,2,0,P|251:230|295:218,1,79.9999952316285,2|2,0:2|0:2,0:0:0:0:
105,157,86636,2,0,L|109:267,1,79.9999952316285,2|0,0:2|1:2,0:0:0:0:
70,75,87298,5,2,0:2:0:0:
139,34,87519,1,2,0:2:0:0:
213,61,87739,2,0,P|254:82|359:40,1,159.999990463257,10|2,0:2|0:2,0:0:0:0:
512,46,88622,2,0,L|507:184,1,119.999992847443,2|0,0:2|0:2,0:0:0:0:
506,206,89063,5,2,0:2:0:0:
431,175,89284,1,2,0:2:0:0:
365,220,89504,2,0,P|305:247|219:197,1,159.999990463257,10|2,0:2|1:2,0:0:0:0:
86,149,90386,2,0,B|86:182|86:182|72:207|72:207|88:228|88:228|88:296,1,119.999992847443,2|0,1:2|0:2,0:0:0:0:
93,300,90828,5,2,0:2:0:0:
165,267,91048,1,2,0:2:0:0:
232,310,91269,2,0,B|309:343|309:343|383:316,1,159.999990463257,10|2,0:2|1:2,0:0:0:0:
451,168,92151,5,10,0:2:0:0:
373,214,92372,2,0,L|318:206,1,39.9999976158142,10|2,0:2|0:2,0:0:0:0:
291,202,92592,1,10,0:2:0:0:
233,120,92813,1,10,0:2:0:0:
233,120,93034,2,0,P|283:103|325:104,1,79.9999952316285,10|2,0:2|0:2,0:0:0:0:
377,32,93475,2,0,P|339:17|300:14,1,79.9999952316285,2|2,0:2|0:2,0:0:0:0:
114,25,93916,6,0,B|119:74|119:74|111:91|111:91|118:151,1,95.9999913482669,4|2,1:2|0:2,0:0:0:0:
124,170,94247,1,2,0:2:0:0:
124,170,94357,2,0,L|181:157,1,47.9999956741335,10|0,0:2|0:2,0:0:0:0:
228,182,94578,5,2,0:2:0:0:
228,182,94688,1,2,0:2:0:0:
228,182,94798,2,0,L|237:119,1,47.9999956741335,2|2,1:2|0:2,0:0:0:0:
276,120,95019,2,0,L|339:111,1,47.9999956741335,2|2,0:2|0:2,0:0:0:0:
356,145,95239,2,0,L|419:136,1,47.9999956741335,10|2,0:2|0:2,0:0:0:0:
449,170,95460,1,2,0:2:0:0:
449,170,95570,2,0,L|443:217,1,47.9999956741335,2|0,0:2|1:2,0:0:0:0:
444,311,95901,6,0,B|417:302|417:302|389:313,1,47.9999956741335,2|2,0:2|0:2,0:0:0:0:
374,343,96122,1,10,0:2:0:0:
374,343,96232,1,2,0:2:0:0:
374,343,96342,2,0,P|339:352|288:346,1,47.9999956741335,2|2,0:2|0:2,0:0:0:0:
298,301,96563,1,2,1:2:0:0:
298,301,96673,2,0,P|247:280|192:312,1,95.9999913482669,2|2,0:2|0:2,0:0:0:0:
189,319,97004,1,10,0:2:0:0:
189,319,97114,1,2,0:2:0:0:
189,319,97225,1,2,0:2:0:0:
189,319,97335,2,0,L|182:246,1,47.9999956741335,2|0,0:2|1:2,0:0:0:0:
182,174,97666,5,2,0:2:0:0:
85,322,97886,2,0,B|63:307|63:307|33:311,1,47.9999956741335,8|0,0:2|0:2,0:0:0:0:
6,331,98107,1,2,0:2:0:0:
6,331,98217,1,2,0:2:0:0:
6,331,98328,2,0,L|5:269,1,47.9999956741335,2|2,1:2|0:2,0:0:0:0:
8,222,98548,1,2,0:2:0:0:
12,108,98769,6,0,B|34:113|34:113|65:98,1,47.9999956741335,10|2,0:2|0:2,0:0:0:0:
97,77,98989,1,2,0:2:0:0:
97,77,99100,2,0,L|95:28,1,47.9999956741335,2|0,0:2|1:2,0:0:0:0:
188,119,99431,6,0,B|238:104|238:104|299:128,1,95.9999913482669,2|10,0:2|0:2,0:0:0:0:
448,49,99872,2,0,B|407:65|407:65|357:50,1,95.9999913482669,2|2,0:2|1:2,0:0:0:0:
266,16,100313,5,2,0:2:0:0:
308,126,100534,1,10,0:2:0:0:
225,210,100754,1,2,0:2:0:0:
115,103,100975,6,0,L|120:23,2,63.999994232178,2|0|2,1:2|0:2|0:2,0:0:0:0:
109,201,101416,2,0,B|152:216|152:216|185:194|185:194|228:211,1,127.999988464356,10|2,0:2|0:2,0:0:0:0:
316,235,101857,2,0,P|317:204|308:156,1,63.999994232178,2|0,1:2|0:2,0:0:0:0:
269,95,102151,1,2,0:2:0:0:
269,95,102298,2,0,P|303:79|364:107,1,95.9999913482669,10|0,0:2|0:2,0:0:0:0:
465,138,102739,6,0,P|478:137|501:143,2,31.999997116089,2|2|0,1:2|0:2|0:2,0:0:0:0:
408,234,103034,1,2,0:2:0:0:
408,234,103181,2,0,L|414:310,2,63.999994232178,10|2|2,0:2|0:2|0:2,0:0:0:0:
330,170,103622,2,0,P|281:165|201:208,1,127.999988464356,2|2,1:2|0:2,0:0:0:0:
182,239,104063,2,0,L|172:101,1,127.999988464356,10|0,0:2|0:2,0:0:0:0:
132,32,104504,6,0,P|85:36|66:54,2,63.999994232178,2|0|2,1:2|0:2|0:2,0:0:0:0:
238,59,104945,2,0,P|258:16|251:-9,2,63.999994232178,10|2|2,0:2|0:2|0:2,0:0:0:0:
171,142,105386,2,0,P|115:177|54:175,1,127.999988464356,2|2,1:2|0:2,0:0:0:0:
27,145,105828,2,0,L|35:289,1,127.999988464356,10|0,0:2|0:2,0:0:0:0:
100,359,106269,6,0,P|159:356|193:338,1,95.9999913482669,2|2,1:2|0:2,0:0:0:0:
160,171,106710,2,0,P|133:223|131:262,1,95.9999913482669,10|2,0:2|0:2,0:0:0:0:
297,316,107151,2,0,P|264:266|232:245,1,95.9999913482669,2|2,1:2|0:2,0:0:0:0:
131,259,107592,1,10,0:2:0:0:
160,171,107813,1,2,0:2:0:0:
272,163,108034,5,4,1:2:0:0:
33,66,121489,5,12,0:2:0:0:
164,43,121710,1,14,0:2:0:0:
164,43,122151,6,0,L|155:112,1,47.9999956741335,6|2,1:2|0:2,0:0:0:0:
122,140,122372,2,0,L|129:199,1,47.9999956741335,2|0,0:2|0:2,0:0:0:0:
98,265,122592,1,10,0:2:0:0:
98,265,122703,2,0,P|143:242|174:249,1,47.9999956741335,2|0,0:2|0:2,0:0:0:0:
183,288,122923,2,0,P|206:292|229:287,1,47.9999956741335,2|0,0:2|1:2,0:0:0:0:
257,237,123144,1,2,0:2:0:0:
257,237,123254,2,0,P|304:223|319:225,1,47.9999956741335,2|2,0:2|0:2,0:0:0:0:
338,250,123475,2,0,P|358:263|382:268,1,47.9999956741335,10|0,0:2|0:2,0:0:0:0:
428,281,123695,6,0,L|420:328,2,47.9999956741335,2|2|2,0:2|0:2|1:2,0:0:0:0:
381,128,124136,2,0,L|388:175,2,47.9999956741335,2|2|10,0:2|0:2|0:2,0:0:0:0:
505,147,124578,1,2,0:2:0:0:
508,128,124688,1,2,0:2:0:0:
512,109,124798,1,2,1:2:0:0:
410,40,125019,1,2,0:2:0:0:
410,40,125129,1,2,0:2:0:0:
410,40,125239,2,0,P|353:27|349:29,1,47.9999956741335,10|2,0:2|0:2,0:0:0:0:
319,58,125460,2,0,P|262:71|258:69,1,47.9999956741335,2|2,0:2|0:2,0:0:0:0:
209,34,125681,6,0,B|217:82|217:82|213:97|213:97|220:165,1,95.9999913482669,2|2,1:2|0:2,0:0:0:0:
189,172,126011,2,0,B|165:159|165:159|125:163,1,47.9999956741335,2|8,0:2|0:2,0:0:0:0:
104,198,126232,2,0,B|80:211|80:211|40:207,1,47.9999956741335,2|0,0:2|0:2,0:0:0:0:
27,186,126453,2,0,L|20:131,1,47.9999956741335,2|0,0:2|1:2,0:0:0:0:
5,51,126673,1,2,0:2:0:0:
5,51,126784,2,0,P|60:86|107:49,1,95.9999913482669,2|10,0:2|0:2,0:0:0:0:
166,14,127225,1,2,0:2:0:0:
262,60,127445,6,0,L|254:117,1,47.9999956741335,2|2,1:2|0:2,0:0:0:0:
227,151,127666,1,2,0:2:0:0:
227,151,127776,1,2,0:2:0:0:
227,151,127886,2,0,L|172:165,2,47.9999956741335,10|2|2,0:2|0:2|0:2,0:0:0:0:
262,197,128217,6,0,L|319:205,1,47.9999956741335,2|0,0:2|1:2,0:0:0:0:
357,189,128438,1,2,0:2:0:0:
357,189,128548,1,2,0:2:0:0:
357,189,128658,1,2,0:2:0:0:
357,189,128768,2,0,L|412:175,2,47.9999956741335,10|2|2,0:2|0:2|0:2,0:0:0:0:
265,307,129210,6,0,L|272:359,1,47.9999956741335,2|2,1:2|0:2,0:0:0:0:
313,361,129431,2,0,B|339:348|339:348|365:354,1,47.9999956741335,2|2,0:2|0:2,0:0:0:0:
410,360,129651,2,0,B|443:362|443:362|468:342,1,47.9999956741335,10|2,0:2|0:2,0:0:0:0:
487,323,129872,1,2,0:2:0:0:
487,323,129982,2,0,L|490:265,1,47.9999956741335,2|0,0:2|1:2,0:0:0:0:
501,250,130203,1,2,0:2:0:0:
501,250,130313,2,0,B|484:205|484:205|497:158,1,95.9999913482669,2|10,0:2|0:2,0:0:0:0:
431,56,130754,5,2,0:2:0:0:
342,143,130975,1,2,1:2:0:0:
214,26,131195,2,0,L|164:39,2,47.9999956741335,2|2|10,0:2|0:2|0:2,0:0:0:0:
267,61,131526,1,2,0:2:0:0:
268,60,131636,2,0,L|318:69,2,47.9999956741335,2|2|2,0:2|0:2|1:2,0:0:0:0:
246,106,131967,1,2,0:2:0:0:
248,125,132078,1,2,0:2:0:0:
250,144,132188,1,2,0:2:0:0:
252,163,132298,2,0,L|259:217,1,47.9999956741335,10|2,0:2|0:2,0:0:0:0:
233,236,132519,2,0,L|227:284,1,47.9999956741335,2|2,0:2|0:2,0:0:0:0:
228,284,132739,1,0,1:2:0:0:
0,137,132960,6,0,B|41:120|41:120|98:133,1,79.9999952316285,2|10,0:2|0:2,0:0:0:0:
138,247,133401,1,2,0:2:0:0:
138,247,133511,2,0,B|116:253|116:253|81:242,1,39.9999976158142,2|0,0:2|1:2,0:0:0:0:
75,127,133732,1,2,0:2:0:0:
75,127,133842,2,0,B|97:133|97:133|113:127,1,39.9999976158142,2|2,0:2|0:2,0:0:0:0:
221,113,134173,1,2,0:2:0:0:
221,113,134284,1,2,0:2:0:0:
221,113,134394,2,0,L|220:187,1,39.9999976158142,2|0,0:2|1:2,0:0:0:0:
169,253,134725,5,2,0:2:0:0:
169,253,134835,1,2,0:2:0:0:
169,253,134945,2,0,L|176:339,1,79.9999952316285,10|2,0:2|0:2,0:0:0:0:
211,351,135276,2,0,B|236:339|236:339|273:345,1,39.9999976158142,2|0,0:2|1:2,0:0:0:0:
390,381,135607,5,10,0:2:0:0:
487,200,135828,1,10,0:2:0:0:
512,327,136269,5,6,1:2:0:0:
512,327,136379,1,2,0:2:0:0:
512,327,136489,2,0,L|451:315,1,47.9999956741335,2|0,0:2|0:2,0:0:0:0:
431,279,136710,2,0,L|370:267,1,47.9999956741335,10|0,0:2|0:2,0:0:0:0:
330,269,136931,1,2,0:2:0:0:
330,269,137041,1,2,0:2:0:0:
330,269,137151,2,0,L|337:334,2,47.9999956741335,2|2|2,1:2|0:2|0:2,0:0:0:0:
319,171,137592,1,10,0:2:0:0:
153,125,137813,5,2,0:2:0:0:
153,125,137923,1,2,0:2:0:0:
153,125,138034,2,0,B|201:140|201:140|254:112,1,95.9999913482669,2|0,1:2|0:2,0:0:0:0:
282,77,138364,1,2,0:2:0:0:
282,77,138475,2,0,B|333:66|333:66|390:101,1,95.9999913482669,10|2,0:2|0:2,0:0:0:0:
512,157,138916,2,0,B|464:142|464:142|411:170,1,95.9999913482669,2|0,1:2|0:2,0:0:0:0:
398,207,139246,1,2,0:2:0:0:
398,207,139357,2,0,B|347:218|347:218|290:183,1,95.9999913482669,10|0,0:2|0:2,0:0:0:0:
191,149,139688,5,2,0:2:0:0:
191,149,139798,2,0,L|196:207,1,47.9999956741335,2|2,1:2|0:2,0:0:0:0:
158,215,140019,2,0,L|153:262,1,47.9999956741335,2|2,0:2|0:2,0:0:0:0:
116,283,140239,1,10,0:2:0:0:
116,283,140350,2,0,P|66:270|38:278,1,47.9999956741335,2|0,0:2|0:2,0:0:0:0:
33,271,140570,2,0,B|43:237|43:237|33:204,1,47.9999956741335,2|0,0:2|1:2,0:0:0:0:
21,205,140791,1,2,0:2:0:0:
120,21,141011,5,2,0:2:0:0:
120,21,141122,2,0,L|115:84,1,47.9999956741335,10|0,0:2|0:2,0:0:0:0:
102,82,141342,2,0,L|106:130,1,47.9999956741335,2|0,0:2|0:2,0:0:0:0:
223,133,141673,5,2,0:2:0:0:
223,133,141784,2,0,L|290:125,1,47.9999956741335,2|2,0:2|0:2,0:0:0:0:
318,143,142004,2,0,L|312:205,1,47.9999956741335,10|2,0:2|0:2,0:0:0:0:
331,214,142225,2,0,L|393:208,1,47.9999956741335,2|2,0:2|0:2,0:0:0:0:
412,220,142445,2,0,L|408:268,1,47.9999956741335,2|2,1:2|0:2,0:0:0:0:
420,313,142666,1,2,0:2:0:0:
420,313,142776,1,2,0:2:0:0:
420,313,142886,2,0,B|394:319|394:319|345:306,1,47.9999956741335,10|2,0:2|0:2,0:0:0:0:
335,335,143107,2,0,B|309:329|309:329|260:342,1,47.9999956741335,2|2,0:2|0:2,0:0:0:0:
258,353,143328,5,2,1:2:0:0:
258,353,143438,1,2,0:2:0:0:
258,353,143548,2,0,P|206:360|175:339,1,47.9999956741335,2|2,0:2|0:2,0:0:0:0:
184,339,143769,1,10,0:2:0:0:
184,339,143879,1,2,0:2:0:0:
184,339,143989,2,0,P|132:332|101:353,1,47.9999956741335,2|2,0:2|0:2,0:0:0:0:
95,352,144210,1,2,1:2:0:0:
95,352,144320,1,2,0:2:0:0:
95,352,144430,2,0,P|88:300|109:269,1,47.9999956741335,2|2,0:2|0:2,0:0:0:0:
109,275,144651,5,10,0:2:0:0:
15,149,144872,5,2,0:2:0:0:
22,159,144982,1,2,0:2:0:0:
30,168,145092,6,0,B|116:138|98:207|195:177,1,143.9999870224,2|2,1:2|0:2,0:0:0:0:
204,189,145534,2,0,P|259:151|334:189,1,143.9999870224,10|2,0:2|0:2,0:0:0:0:
331,207,145975,2,0,B|298:245|298:245|303:339,1,143.9999870224,2|0,1:2|0:2,0:0:0:0:
302,338,146416,1,10,0:2:0:0:
424,259,146636,6,0,L|420:306,2,47.9999956741335,2|2|0,0:2|0:2|1:2,0:0:0:0:
490,66,147298,6,0,P|472:109|428:124,1,95.9999913482669,10|0,0:2|0:2,0:0:0:0:
396,93,147629,1,2,0:2:0:0:
396,93,147739,2,0,L|276:90,1,95.9999913482669,2|0,1:2|0:2,0:0:0:0:
81,35,148181,6,0,L|86:94,1,47.9999956741335,10|0,0:2|0:2,0:0:0:0:
138,117,148401,1,2,0:2:0:0:
138,117,148511,2,0,L|138:181,1,47.9999956741335,2|2,0:2|1:2,0:0:0:0:
155,260,148842,5,0,1:2:0:0:
56,227,149063,1,8,1:2:0:0:
10,309,149284,1,0,1:2:0:0:
26,119,149504,5,2,1:2:0:0:
110,60,149725,1,10,0:2:0:0:
116,71,149835,1,2,0:2:0:0:
195,140,150056,1,0,0:2:0:0:
201,129,150166,1,2,0:2:0:0:
315,44,150386,6,0,P|350:39|376:41,1,47.9999956741335,4|0,1:2|0:2,0:0:0:0:
389,75,150607,2,0,P|424:80|450:78,1,47.9999956741335,0|0,0:2|0:2,0:0:0:0:
488,58,150828,1,8,0:2:0:0:
488,58,150938,2,0,B|496:111|496:111|481:167,1,95.9999913482669,0|0,0:2|0:2,0:0:0:0:
440,195,151269,6,0,L|393:187,1,47.9999956741335,0|0,1:2|0:2,0:0:0:0:
348,212,151489,2,0,L|301:220,1,47.9999956741335,0|0,0:2|0:2,0:0:0:0:
241,209,151710,1,8,0:2:0:0:
210,326,151931,1,0,0:2:0:0:
98,206,152151,6,0,L|91:136,1,47.9999956741335,0|0,1:2|0:2,0:0:0:0:
112,133,152372,2,0,L|124:63,1,47.9999956741335,0|0,0:2|0:2,0:0:0:0:
87,35,152592,5,8,0:2:0:0:
87,35,152703,2,0,P|138:25|182:43,1,95.9999913482669,0|0,0:2|0:2,0:0:0:0:
196,74,153034,2,0,P|230:86|254:85,1,47.9999956741335,0|0,1:2|0:2,0:0:0:0:
302,59,153254,1,0,0:2:0:0:
302,59,153364,1,0,0:2:0:0:
302,59,153475,2,0,P|310:122|289:193,1,95.9999913482669,10|2,0:2|0:2,0:0:0:0:
263,325,153916,6,0,B|288:334|288:334|325:323,1,47.9999956741335,0|0,1:2|0:2,0:0:0:0:
331,296,154136,2,0,B|356:287|356:287|393:298,1,47.9999956741335,0|0,0:2|0:2,0:0:0:0:
433,305,154357,1,8,0:2:0:0:
433,305,154467,2,0,P|422:250|440:199,1,95.9999913482669,0|0,0:2|0:2,0:0:0:0:
447,170,154798,6,0,P|405:164|383:169,1,47.9999956741335,0|0,1:2|0:2,0:0:0:0:
375,183,155019,2,0,P|333:189|311:184,1,47.9999956741335,0|0,0:2|0:2,0:0:0:0:
272,160,155239,2,0,L|280:49,1,95.9999913482669,8|0,0:2|0:2,0:0:0:0:
91,37,155681,5,0,1:2:0:0:
79,129,155901,2,0,L|72:183,1,47.9999956741335,0|0,0:2|0:2,0:0:0:0:
72,176,156122,5,8,0:2:0:0:
171,196,156342,2,0,L|178:142,1,47.9999956741335,0|0,0:2|0:2,0:0:0:0:
177,148,156563,5,0,1:2:0:0:
277,165,156784,2,0,L|270:219,1,47.9999956741335,8|0,0:2|0:2,0:0:0:0:
276,272,157004,6,0,B|351:305|341:228|449:269,1,143.9999870224,10|0,0:2|0:2,0:0:0:0:
431,321,157445,6,0,P|435:372|432:386,1,47.9999956741335,2|0,1:2|0:2,0:0:0:0:
401,380,157666,2,0,P|350:384|336:381,1,47.9999956741335,0|0,0:2|0:2,0:0:0:0:
305,365,157886,1,8,0:2:0:0:
305,365,157997,2,0,P|246:352|185:373,1,95.9999913482669,0|0,0:2|0:2,0:0:0:0:
149,352,158328,6,0,L|142:246,1,95.9999913482669,0|0,1:2|0:2,0:0:0:0:
154,226,158659,1,0,0:2:0:0:
153,226,158769,1,8,0:2:0:0:
53,158,158989,1,0,0:2:0:0:
111,42,159210,6,0,B|136:33|136:33|161:41,1,47.9999956741335,0|0,1:2|0:2,0:0:0:0:
183,66,159431,2,0,B|208:75|208:75|228:68,1,47.9999956741335,0|0,0:2|0:2,0:0:0:0:
284,49,159651,1,8,0:2:0:0:
284,49,159761,2,0,B|309:97|309:97|288:148,1,95.9999913482669,0|0,0:2|0:2,0:0:0:0:
252,189,160092,6,0,L|255:258,1,47.9999956741335,0|0,1:2|0:2,0:0:0:0:
249,295,160313,1,0,0:2:0:0:
249,295,160423,1,0,0:2:0:0:
249,295,160534,2,0,B|185:319|185:259|104:284,1,143.9999870224,8|0,0:2|0:2,0:0:0:0:
68,313,160975,6,0,P|54:334|48:355,2,47.9999956741335,0|0|0,1:2|0:2|0:2,0:0:0:0:
45,279,161306,1,0,0:2:0:0:
45,279,161416,1,8,0:2:0:0:
45,279,161526,2,0,L|41:198,1,47.9999956741335,0|0,0:2|0:2,0:0:0:0:
49,182,161747,6,0,P|83:161|151:168,1,95.9999913482669,0|0,0:2|0:2,0:0:0:0:
168,144,162078,2,0,P|207:148|237:135,1,47.9999956741335,0|0,0:2|0:2,0:0:0:0:
242,127,162298,1,8,0:2:0:0:
370,176,162519,1,0,0:2:0:0:
472,75,162739,5,0,1:2:0:0:
321,13,162960,2,0,P|282:8|264:15,1,47.9999956741335,0|0,0:2|0:2,0:0:0:0:
236,33,163181,1,8,0:2:0:0:
117,25,163401,6,0,P|112:64|119:82,1,47.9999956741335,0|0,0:2|0:2,0:0:0:0:
143,112,163622,1,0,1:2:0:0:
161,204,163842,2,0,P|200:209|218:202,1,47.9999956741335,0|0,0:2|0:2,0:0:0:0:
258,199,164063,6,0,L|263:265,1,47.9999956741335,8|0,0:2|0:2,0:0:0:0:
290,269,164284,2,0,L|285:335,1,47.9999956741335,0|0,0:2|0:2,0:0:0:0:
318,331,164504,6,0,L|377:327,1,47.9999956741335,4|0,1:2|0:2,0:0:0:0:
399,298,164725,2,0,L|403:239,1,47.9999956741335,0|0,0:2|0:2,0:0:0:0:
396,204,164945,1,8,0:2:0:0:
396,204,165056,2,0,P|462:194|514:213,1,95.9999913482669,0|0,0:2|0:2,0:0:0:0:
502,164,165386,6,0,L|498:99,1,47.9999956741335,0|0,1:2|0:2,0:0:0:0:
495,72,165607,1,0,0:2:0:0:
495,72,165717,1,0,0:2:0:0:
495,72,165828,2,0,B|442:55|442:55|387:67,1,95.9999913482669,8|0,0:2|0:2,0:0:0:0:
255,113,166269,6,0,P|216:119|193:114,1,47.9999956741335,0|0,1:2|0:2,0:0:0:0:
182,80,166489,2,0,P|143:74|120:79,1,47.9999956741335,0|0,0:2|0:2,0:0:0:0:
86,105,166710,1,8,0:2:0:0:
86,105,166820,2,0,B|64:146|64:146|71:226,1,95.9999913482669,0|0,0:2|0:2,0:0:0:0:
66,243,167151,6,0,B|91:251|91:251|134:239,1,47.9999956741335,0|0,1:2|0:2,0:0:0:0:
159,231,167372,1,8,0:2:0:0:
159,231,167482,1,0,0:2:0:0:
159,231,167592,2,0,B|215:224|215:224|252:255|252:255|311:246,1,143.9999870224,8|0,0:2|0:2,0:0:0:0:
326,254,168034,6,0,P|321:221|328:198,1,47.9999956741335,0|0,1:2|0:2,0:0:0:0:
353,178,168254,2,0,P|358:145|351:122,1,47.9999956741335,0|0,0:2|0:2,0:0:0:0:
323,84,168475,1,8,0:2:0:0:
323,84,168585,2,0,B|368:58|368:58|427:67,1,95.9999913482669,0|0,0:2|0:2,0:0:0:0:
447,84,168916,1,0,1:2:0:0:
493,165,169136,2,0,L|499:221,1,47.9999956741335,0|0,0:2|0:2,0:0:0:0:
466,239,169357,2,0,L|463:344,1,95.9999913482669,8|0,0:2|0:2,0:0:0:0:
335,352,169798,5,0,1:2:0:0:
317,237,170019,2,0,L|308:178,1,47.9999956741335,0|0,0:2|0:2,0:0:0:0:
309,189,170239,5,8,0:2:0:0:
211,204,170460,2,0,L|218:251,1,47.9999956741335,0|0,0:2|0:2,0:0:0:0:
218,251,170680,5,0,1:2:0:0:
125,271,170901,2,0,L|117:223,1,47.9999956741335,0|0,0:2|0:2,0:0:0:0:
90,181,171122,2,0,P|44:192|33:197,2,47.9999956741335,8|0|0,0:2|0:2|0:2,0:0:0:0:
202,100,171563,6,0,P|181:58|171:51,1,47.9999956741335,0|0,1:2|0:2,0:0:0:0:
150,40,171784,2,0,P|105:25|93:27,1,47.9999956741335,0|0,0:2|0:2,0:0:0:0:
61,24,172004,1,8,0:2:0:0:
61,24,172114,2,0,B|41:56|41:56|48:123,1,95.9999913482669,0|0,0:2|0:2,0:0:0:0:
55,165,172445,6,0,P|91:153|113:155,1,47.9999956741335,0|0,1:2|0:2,0:0:0:0:
156,196,172666,1,0,0:2:0:0:
156,196,172776,1,0,0:2:0:0:
156,196,172886,2,0,P|188:199|227:187,1,47.9999956741335,8|0,0:2|0:2,0:0:0:0:
241,178,173107,1,0,0:2:0:0:
402,256,173328,6,0,P|397:282|399:311,2,47.9999956741335,0|0|0,1:2|0:2|0:2,0:0:0:0:
439,227,173659,2,0,P|439:203|434:179,1,47.9999956741335,0|8,0:2|0:2,0:0:0:0:
416,132,173879,2,0,B|371:112|371:112|313:127,1,95.9999913482669,0|0,0:2|0:2,0:0:0:0:
274,107,174210,6,0,P|261:72|244:57,1,47.9999956741335,0|0,1:2|0:2,0:0:0:0:
196,67,174431,1,0,0:2:0:0:
196,67,174541,1,0,0:2:0:0:
196,67,174651,2,0,L|207:177,1,95.9999913482669,8|0,0:2|0:2,0:0:0:0:
163,264,175092,6,0,L|113:256,1,47.9999956741335,0|0,1:2|0:2,0:0:0:0:
88,278,175313,2,0,L|40:285,1,47.9999956741335,0|0,0:2|0:2,0:0:0:0:
23,345,175534,1,8,0:2:0:0:
23,345,175644,2,0,P|73:355|131:336,1,95.9999913482669,0|0,0:2|0:2,0:0:0:0:
149,361,175975,6,0,P|173:356|203:359,1,47.9999956741335,0|0,1:2|0:2,0:0:0:0:
261,378,176195,1,0,0:2:0:0:
261,378,176306,1,0,0:2:0:0:
261,378,176416,2,0,P|325:377|357:370,2,95.9999913482669,8|0|0,0:2|0:2|1:2,0:0:0:0:
263,258,177078,5,0,0:2:0:0:
263,258,177188,1,0,0:2:0:0:
263,258,177298,1,8,0:2:0:0:
326,163,177519,2,0,P|371:164|390:170,2,47.9999956741335,0|0|0,0:2|0:2|1:2,0:0:0:0:
289,75,177960,5,0,0:2:0:0:
289,75,178070,1,0,0:2:0:0:
289,75,178181,2,0,P|248:84|237:89,2,47.9999956741335,8|0|0,0:2|0:2|0:2,0:0:0:0:
370,33,178622,5,2,0:0:0:0:
134,307,180386,1,6,0:0:0:0:
256,192,180497,12,0,185681,0:0:0:0:
