osu file format v14

[General]
AudioFilename: whatdya_wanna_be_when_you_grow_up.mp3
AudioLeadIn: 0
PreviewTime: 2257
Countdown: 0
SampleSet: Normal
StackLeniency: 0.7
Mode: 1
LetterboxInBreaks: 0
WidescreenStoryboard: 1

[Editor]
DistanceSpacing: 0.8
BeatDivisor: 4
GridSize: 32
TimelineZoom: 1

[Metadata]
Title:MICHUUL.
TitleUnicode:MICHUUL.
Artist:DUCKWRTH
ArtistUnicode:DUCKWRTH
Creator:yenmaster
Version:FUTSUU.
Source:
Tags:hip hop hiphop hip-hop english Jared Lee an XTRA UUGLY Mixtape
BeatmapID:3059071
BeatmapSetID:1487889

[Difficulty]
HPDrainRate:8
CircleSize:9.2
OverallDifficulty:3
ApproachRate:10
SliderMultiplier:1.6
SliderTickRate:0.5

[Events]
//Background and Video events
0,0,"I_just_wanna.jpg",0,-10
Video,0,"michael_jackson!.mp4"
//Break Periods
//Storyboard Layer 0 (Background)
//Storyboard Layer 1 (Fail)
//Storyboard Layer 2 (Pass)
//Storyboard Layer 3 (Foreground)
//Storyboard Layer 4 (Overlay)
//Storyboard Sound Samples

[TimingPoints]
-4062,508.474576271187,4,1,0,50,1,0
2,-111.111111111111,4,1,0,50,0,0
3056,-100,4,1,0,50,0,1
4073,-100,4,1,0,50,0,0
36613,-100,4,1,0,40,0,0
52887,-100,4,1,0,50,0,0
68141,-100,4,1,0,50,0,1
69158,-100,4,1,0,50,0,0
101573,-100,4,1,0,35,0,0
117844,-100,4,1,0,40,0,0
148480,508.474576271187,4,1,0,40,1,8
148939,508.474576271187,4,1,0,50,1,0
164193,-100,4,1,0,50,0,1
165210,-100,4,1,0,50,0,0
180464,-100,4,1,0,50,0,1
181481,-100,4,1,0,50,0,0

[HitObjects]
256,512,3056,5,12,0:0:0:0:
256,512,3565,1,12,0:0:0:0:
256,512,4073,1,12,0:0:0:0:
256,512,4582,1,8,0:0:0:0:
256,512,5090,1,0,0:0:0:0:
256,512,5344,1,8,0:0:0:0:
256,512,5599,1,0,0:0:0:0:
256,512,6107,1,8,0:0:0:0:
256,512,6361,1,0,0:0:0:0:
256,512,6615,1,8,0:0:0:0:
256,512,7124,1,0,0:0:0:0:
256,512,8141,1,4,0:0:0:0:
256,512,8649,1,0,0:0:0:0:
256,512,8904,1,8,0:0:0:0:
256,512,9158,1,0,0:0:0:0:
256,512,9666,1,0,0:0:0:0:
256,512,10175,1,4,0:0:0:0:
256,512,10683,1,8,0:0:0:0:
256,512,10938,1,4,0:0:0:0:
256,512,12209,1,12,0:0:0:0:
256,512,12717,1,8,0:0:0:0:
256,512,12971,1,8,0:0:0:0:
256,512,13226,1,8,0:0:0:0:
256,512,13734,1,0,0:0:0:0:
256,512,14243,1,8,0:0:0:0:
256,512,14497,1,0,0:0:0:0:
256,512,14751,1,8,0:0:0:0:
256,512,15260,1,8,0:0:0:0:
256,512,16276,1,4,0:0:0:0:
256,512,16785,1,8,0:0:0:0:
256,512,17039,1,8,0:0:0:0:
256,512,17293,1,0,0:0:0:0:
256,512,17802,1,8,0:0:0:0:
256,512,18310,1,4,0:0:0:0:
256,512,18819,1,8,0:0:0:0:
256,512,19073,1,4,0:0:0:0:
256,512,19327,1,8,0:0:0:0:
256,512,20344,1,12,0:0:0:0:
256,512,20853,1,0,0:0:0:0:
256,512,21107,1,8,0:0:0:0:
256,512,21361,1,0,0:0:0:0:
256,512,21870,1,8,0:0:0:0:
256,512,22124,1,8,0:0:0:0:
256,512,22378,1,4,0:0:0:0:
256,512,22887,1,0,0:0:0:0:
256,512,23141,1,8,0:0:0:0:
256,512,23395,1,0,0:0:0:0:
256,512,23649,1,0,0:0:0:0:
256,512,23904,1,8,0:0:0:0:
256,512,24412,1,12,0:0:0:0:
256,512,24921,1,8,0:0:0:0:
256,512,25175,1,8,0:0:0:0:
256,512,25429,1,0,0:0:0:0:
256,512,25938,1,8,0:0:0:0:
256,512,26446,1,4,0:0:0:0:
256,512,26954,1,8,0:0:0:0:
256,512,27209,1,4,0:0:0:0:
256,512,27463,1,8,0:0:0:0:
256,512,28480,1,12,0:0:0:0:
256,512,28734,1,0,0:0:0:0:
256,512,28988,1,0,0:0:0:0:
256,512,29497,1,8,0:0:0:0:
256,512,29751,1,0,0:0:0:0:
256,512,30005,1,8,0:0:0:0:
256,512,30514,1,4,0:0:0:0:
256,512,30768,1,8,0:0:0:0:
256,512,31022,1,8,0:0:0:0:
256,512,31276,1,0,0:0:0:0:
256,512,31531,1,8,0:0:0:0:
256,512,32039,1,0,0:0:0:0:
256,512,32548,1,12,0:0:0:0:
256,512,32802,1,0,0:0:0:0:
256,512,33056,1,8,0:0:0:0:
256,512,33565,1,8,0:0:0:0:
256,512,34073,1,0,0:0:0:0:
256,512,34327,1,8,0:0:0:0:
256,512,34582,1,4,0:0:0:0:
256,512,35090,1,8,0:0:0:0:
256,512,35344,1,4,0:0:0:0:
256,512,35599,1,8,0:0:0:0:
256,512,36615,1,0,0:0:0:0:
256,512,36870,1,0,0:0:0:0:
256,512,37124,1,8,0:0:0:0:
256,512,37632,1,0,0:0:0:0:
256,512,38141,1,0,0:0:0:0:
256,512,38395,1,8,0:0:0:0:
256,512,38649,1,0,0:0:0:0:
256,512,39158,2,8,B|267:192|267:192|256:512,7,22.8571428571429
256,512,40683,1,0,0:0:0:0:
256,512,40938,1,0,0:0:0:0:
256,512,41446,1,0,0:0:0:0:
256,512,41700,1,8,0:0:0:0:
256,512,42209,1,0,0:0:0:0:
256,512,42717,1,8,0:0:0:0:
256,512,43226,1,0,0:0:0:0:
256,512,43734,1,8,0:0:0:0:
256,512,44751,1,8,0:0:0:0:
256,512,45005,1,8,0:0:0:0:
256,512,45260,1,0,0:0:0:0:
256,512,45768,1,8,0:0:0:0:
256,512,46276,1,0,0:0:0:0:
256,512,46531,1,0,0:0:0:0:
256,512,46785,1,0,0:0:0:0:
256,512,47293,2,8,B|267:192|267:192|256:512,7,22.8571428571429
256,512,48819,1,0,0:0:0:0:
256,512,49073,1,0,0:0:0:0:
256,512,49327,1,8,0:0:0:0:
256,512,49836,1,0,0:0:0:0:
256,512,50344,1,0,0:0:0:0:
256,512,50853,1,8,0:0:0:0:
256,512,51361,1,8,0:0:0:0:
256,512,51870,1,8,0:0:0:0:
256,512,52887,1,0,0:0:0:0:
256,512,53141,1,8,0:0:0:0:
256,512,53395,1,0,0:0:0:0:
256,512,53649,1,0,0:0:0:0:
256,512,53904,1,8,0:0:0:0:
256,512,54158,1,0,0:0:0:0:
256,512,54412,1,8,0:0:0:0:
256,512,55175,1,8,0:0:0:0:
256,512,55429,1,0,0:0:0:0:
256,512,55938,1,8,0:0:0:0:
256,512,56192,1,8,0:0:0:0:
256,512,56446,1,0,0:0:0:0:
256,512,56954,1,8,0:0:0:0:
256,512,57209,1,8,0:0:0:0:
256,512,57463,1,0,0:0:0:0:
256,512,57717,1,8,0:0:0:0:
256,512,57971,1,8,0:0:0:0:
256,512,58226,1,0,0:0:0:0:
256,512,58480,1,8,0:0:0:0:
256,512,59243,1,8,0:0:0:0:
256,512,59497,1,0,0:0:0:0:
256,512,60005,1,8,0:0:0:0:
256,512,60260,1,8,0:0:0:0:
256,512,60514,1,0,0:0:0:0:
256,512,61022,1,0,0:0:0:0:
256,512,61276,1,8,0:0:0:0:
256,512,61531,1,0,0:0:0:0:
256,512,61785,1,0,0:0:0:0:
256,512,62039,1,8,0:0:0:0:
256,512,62293,1,0,0:0:0:0:
256,512,62548,1,8,0:0:0:0:
256,512,63310,1,8,0:0:0:0:
256,512,63565,1,0,0:0:0:0:
256,512,64073,1,8,0:0:0:0:
256,512,64327,1,0,0:0:0:0:
256,512,64582,1,8,0:0:0:0:
256,512,65090,1,8,0:0:0:0:
256,512,65344,1,8,0:0:0:0:
256,512,65599,1,0,0:0:0:0:
256,512,65853,1,8,0:0:0:0:
256,512,66107,1,8,0:0:0:0:
256,512,66361,1,0,0:0:0:0:
256,512,66615,1,8,0:0:0:0:
256,512,67378,1,8,0:0:0:0:
256,512,67632,1,0,0:0:0:0:
256,512,68141,5,12,0:0:0:0:
256,512,68649,1,12,0:0:0:0:
256,512,69158,1,12,0:0:0:0:
256,512,69666,1,0,0:0:0:0:
256,512,69921,1,8,0:0:0:0:
256,512,70175,1,0,0:0:0:0:
256,512,70683,1,0,0:0:0:0:
256,512,71192,1,8,0:0:0:0:
256,512,71446,1,8,0:0:0:0:
256,512,71700,1,0,0:0:0:0:
256,512,72209,1,0,0:0:0:0:
256,512,73226,1,4,0:0:0:0:
256,512,73734,1,8,0:0:0:0:
256,512,73988,1,8,0:0:0:0:
256,512,74243,1,0,0:0:0:0:
256,512,74751,1,0,0:0:0:0:
256,512,75260,1,4,0:0:0:0:
256,512,75768,1,8,0:0:0:0:
256,512,76022,1,4,0:0:0:0:
256,512,77293,1,12,0:0:0:0:
256,512,77802,1,8,0:0:0:0:
256,512,78056,1,8,0:0:0:0:
256,512,78310,1,8,0:0:0:0:
256,512,78565,1,8,0:0:0:0:
256,512,79073,1,12,0:0:0:0:
256,512,79582,1,8,0:0:0:0:
256,512,79836,1,8,0:0:0:0:
256,512,80090,1,8,0:0:0:0:
256,512,80599,1,12,0:0:0:0:
256,512,81361,1,4,0:0:0:0:
256,512,81870,1,8,0:0:0:0:
256,512,82124,1,8,0:0:0:0:
256,512,82378,1,0,0:0:0:0:
256,512,82632,1,0,0:0:0:0:
256,512,82887,1,8,0:0:0:0:
256,512,83395,1,4,0:0:0:0:
256,512,83904,1,8,0:0:0:0:
256,512,84158,1,4,0:0:0:0:
256,512,84412,1,8,0:0:0:0:
256,512,85429,1,12,0:0:0:0:
256,512,85938,1,0,0:0:0:0:
256,512,86192,1,8,0:0:0:0:
256,512,86446,1,0,0:0:0:0:
256,512,86700,1,8,0:0:0:0:
256,512,86954,1,8,0:0:0:0:
256,512,87463,1,4,0:0:0:0:
256,512,87717,1,8,0:0:0:0:
256,512,87971,1,0,0:0:0:0:
256,512,88480,1,0,0:0:0:0:
256,512,88734,1,0,0:0:0:0:
256,512,88988,1,8,0:0:0:0:
256,512,89497,1,12,0:0:0:0:
256,512,89751,1,0,0:0:0:0:
256,512,90005,1,8,0:0:0:0:
256,512,90260,1,8,0:0:0:0:
256,512,90514,1,0,0:0:0:0:
256,512,91022,1,8,0:0:0:0:
256,512,91531,1,4,0:0:0:0:
256,512,92039,1,8,0:0:0:0:
256,512,92293,1,4,0:0:0:0:
256,512,92548,1,8,0:0:0:0:
256,512,93565,1,12,0:0:0:0:
256,512,93819,1,0,0:0:0:0:
256,512,94073,1,8,0:0:0:0:
256,512,94582,1,0,0:0:0:0:
256,512,95090,1,8,0:0:0:0:
256,512,95599,1,4,0:0:0:0:
256,512,95853,1,8,0:0:0:0:
256,512,96107,1,8,0:0:0:0:
256,512,96361,1,0,0:0:0:0:
256,512,96615,1,8,0:0:0:0:
256,512,97124,1,0,0:0:0:0:
256,512,97632,1,12,0:0:0:0:
256,512,98141,1,8,0:0:0:0:
256,512,98649,1,8,0:0:0:0:
256,512,99158,1,0,0:0:0:0:
256,512,99666,1,4,0:0:0:0:
256,512,100175,1,8,0:0:0:0:
256,512,100429,1,4,0:0:0:0:
256,512,100683,1,8,0:0:0:0:
256,512,100938,1,8,0:0:0:0:
256,512,101700,1,0,0:0:0:0:
256,512,104751,1,0,0:0:0:0:
256,512,105260,1,8,0:0:0:0:
256,512,105768,1,0,0:0:0:0:
256,512,108819,1,8,0:0:0:0:
256,512,109327,1,8,0:0:0:0:
256,512,109836,1,0,0:0:0:0:
256,512,112887,1,0,0:0:0:0:
256,512,113395,1,8,0:0:0:0:
256,512,113904,1,0,0:0:0:0:
256,512,117971,1,0,0:0:0:0:
256,512,118226,1,0,0:0:0:0:
256,512,118480,1,8,0:0:0:0:
256,512,118988,1,0,0:0:0:0:
256,512,119497,1,0,0:0:0:0:
256,512,119751,1,8,0:0:0:0:
256,512,120005,1,0,0:0:0:0:
256,512,120514,2,8,B|267:192|267:192|256:512,7,22.8571428571429
256,512,122039,1,0,0:0:0:0:
256,512,122293,1,0,0:0:0:0:
256,512,122548,1,0,0:0:0:0:
256,512,123056,1,8,0:0:0:0:
256,512,123565,1,0,0:0:0:0:
256,512,124073,1,8,0:0:0:0:
256,512,124582,1,0,0:0:0:0:
256,512,125090,1,8,0:0:0:0:
256,512,126107,1,8,0:0:0:0:
256,512,126361,1,8,0:0:0:0:
256,512,126615,1,0,0:0:0:0:
256,512,127124,1,8,0:0:0:0:
256,512,127632,1,0,0:0:0:0:
256,512,127887,1,0,0:0:0:0:
256,512,128141,1,0,0:0:0:0:
256,512,128649,2,8,B|267:192|267:192|256:512,7,22.8571428571429
256,512,130175,1,0,0:0:0:0:
256,512,130429,1,0,0:0:0:0:
256,512,130683,1,8,0:0:0:0:
256,512,131192,1,0,0:0:0:0:
256,512,131700,1,0,0:0:0:0:
256,512,132209,1,8,0:0:0:0:
256,512,132717,1,8,0:0:0:0:
256,512,133226,1,8,0:0:0:0:
256,192,134243,12,0,143395,0:0:0:0:
256,192,143904,12,0,148480,0:0:0:0:
256,512,148939,5,0,0:0:0:0:
256,512,149193,5,8,0:0:0:0:
256,512,149447,1,0,0:0:0:0:
256,512,149701,5,0,0:0:0:0:
256,512,149955,1,8,0:0:0:0:
256,512,150210,1,0,0:0:0:0:
256,512,150464,1,8,0:0:0:0:
256,512,151227,1,8,0:0:0:0:
256,512,151481,1,0,0:0:0:0:
256,512,151989,1,8,0:0:0:0:
256,512,152244,1,0,0:0:0:0:
256,512,152498,1,8,0:0:0:0:
256,512,153006,1,8,0:0:0:0:
256,512,153261,1,8,0:0:0:0:
256,512,153515,1,0,0:0:0:0:
256,512,153769,1,8,0:0:0:0:
256,512,154023,1,8,0:0:0:0:
256,512,154277,1,0,0:0:0:0:
256,512,154532,1,8,0:0:0:0:
256,512,155294,1,8,0:0:0:0:
256,512,155549,1,0,0:0:0:0:
256,512,156057,1,8,0:0:0:0:
256,512,156311,1,8,0:0:0:0:
256,512,156566,1,0,0:0:0:0:
256,512,157074,1,0,0:0:0:0:
256,512,157328,1,8,0:0:0:0:
256,512,157583,1,0,0:0:0:0:
256,512,157837,1,0,0:0:0:0:
256,512,158091,1,8,0:0:0:0:
256,512,158345,1,0,0:0:0:0:
256,512,158600,1,8,0:0:0:0:
256,512,159362,1,8,0:0:0:0:
256,512,159616,1,0,0:0:0:0:
256,512,160125,1,8,0:0:0:0:
256,512,160379,1,0,0:0:0:0:
256,512,160633,1,8,0:0:0:0:
256,512,161142,1,8,0:0:0:0:
256,512,161396,1,8,0:0:0:0:
256,512,161650,1,0,0:0:0:0:
256,512,161905,1,8,0:0:0:0:
256,512,162159,1,8,0:0:0:0:
256,512,162413,1,0,0:0:0:0:
256,512,162667,1,8,0:0:0:0:
256,512,163430,1,8,0:0:0:0:
256,512,163684,5,0,0:0:0:0:
256,512,164193,5,12,0:0:0:0:
256,512,164701,5,12,0:0:0:0:
256,512,165210,5,8,0:0:0:0:
256,512,165464,5,0,0:0:0:0:
256,512,165718,1,8,0:0:0:0:
256,512,165972,5,8,0:0:0:0:
256,512,166227,1,0,0:0:0:0:
256,512,166481,1,8,0:0:0:0:
256,512,166735,1,8,0:0:0:0:
256,512,167498,1,8,0:0:0:0:
256,512,167752,1,0,0:0:0:0:
256,512,168261,1,8,0:0:0:0:
256,512,168515,1,0,0:0:0:0:
256,512,168769,1,8,0:0:0:0:
256,512,169277,1,8,0:0:0:0:
256,512,169532,1,0,0:0:0:0:
256,512,169786,1,0,0:0:0:0:
256,512,170040,1,8,0:0:0:0:
256,512,170294,1,0,0:0:0:0:
256,512,170549,1,0,0:0:0:0:
256,512,170803,1,8,0:0:0:0:
256,512,171566,1,8,0:0:0:0:
256,512,171820,1,0,0:0:0:0:
256,512,172328,1,8,0:0:0:0:
256,512,172583,1,8,0:0:0:0:
256,512,172837,1,0,0:0:0:0:
256,512,173345,1,0,0:0:0:0:
256,512,173600,1,8,0:0:0:0:
256,512,173854,1,0,0:0:0:0:
256,512,174108,1,0,0:0:0:0:
256,512,174362,1,8,0:0:0:0:
256,512,174616,1,0,0:0:0:0:
256,512,174871,1,8,0:0:0:0:
256,512,175633,1,8,0:0:0:0:
256,512,175888,1,0,0:0:0:0:
256,512,176396,1,8,0:0:0:0:
256,512,176650,1,0,0:0:0:0:
256,512,176905,1,8,0:0:0:0:
256,512,177413,1,8,0:0:0:0:
256,512,177667,1,8,0:0:0:0:
256,512,177922,1,0,0:0:0:0:
256,512,178176,1,8,0:0:0:0:
256,512,178430,1,8,0:0:0:0:
256,512,178684,1,0,0:0:0:0:
256,512,178939,1,8,0:0:0:0:
256,512,179701,1,8,0:0:0:0:
256,512,179955,5,0,0:0:0:0:
256,512,180464,5,12,0:0:0:0:
256,512,180972,5,12,0:0:0:0:
256,512,181481,5,8,0:0:0:0:
