osu file format v14

[General]
AudioFilename: audio.mp3
AudioLeadIn: 0
PreviewTime: 68441
Countdown: 0
SampleSet: Soft
StackLeniency: 0.7
Mode: 0
LetterboxInBreaks: 0
WidescreenStoryboard: 0

[Editor]
Bookmarks: 16391,28391,40391,49991,59591,69191,78791,90791,100391,112391,121991,131591,141191,153191,163991,173591,183191,192791,202391,211991,223991,234791
DistanceSpacing: 1.1
BeatDivisor: 4
GridSize: 16
TimelineZoom: 2.2

[Metadata]
Title:Veracila
TitleUnicode:Veracila
Artist:DUAL ALTER WORLD
ArtistUnicode:DUAL ALTER WORLD
Creator:Hinsvar
Version:Torment
Source:
Tags:ALTER EGO Japanese Metal Rock J-Metal JMetal J-Rock JRock 小岩井ことり Koiwai Kotori RYU Featured Artist FA Mappers' Guild MPG
BeatmapID:2940824
BeatmapSetID:1428384

[Difficulty]
HPDrainRate:6
CircleSize:4.4
OverallDifficulty:9
ApproachRate:9.4
SliderMultiplier:1.6
SliderTickRate:1

[Events]
//Background and Video events
0,0,"veracila.jpg",0,0
//Break Periods
//Storyboard Layer 0 (Background)
//Storyboard Layer 1 (Fail)
//Storyboard Layer 2 (Pass)
//Storyboard Layer 3 (Foreground)
//Storyboard Layer 4 (Overlay)
//Storyboard Sound Samples

[TimingPoints]
1236,348.837209302326,4,2,1,70,1,0
15791,300,4,2,1,70,1,0
16391,300,4,2,1,70,1,0
16841,-62.5,4,2,1,70,0,0
17066,-62.5,4,2,1,5,0,0
17141,-62.5,4,2,1,70,0,0
17366,-62.5,4,2,1,5,0,0
18491,-100,4,2,1,70,0,0
18791,-71.4285714285714,4,2,1,70,0,0
18866,-71.4285714285714,4,2,1,5,0,0
19241,-55.5555555555556,4,2,1,70,0,0
19466,-55.5555555555556,4,2,1,5,0,0
19541,-41.6666666666667,4,2,1,70,0,0
19616,-41.6666666666667,4,2,1,5,0,0
19691,-100,4,2,1,70,0,0
19991,-200,4,2,1,70,0,0
20216,-200,4,2,1,5,0,0
20291,-100,4,2,1,70,0,0
20816,-100,4,2,1,5,0,0
20891,-100,4,2,1,70,0,0
25016,-100,4,2,1,5,0,0
25091,-100,4,2,1,70,0,0
25391,-66.6666666666667,4,2,1,70,0,0
25616,-100,4,2,1,70,0,0
25691,-66.6666666666667,4,2,1,70,0,0
28391,-100,4,2,1,80,0,0
33191,-100,4,2,1,75,0,0
40391,-125,4,2,1,60,0,0
49991,-111.111111111111,4,2,1,65,0,0
51566,-111.111111111111,4,2,1,5,0,0
51791,-111.111111111111,4,2,1,65,0,0
51866,-111.111111111111,4,2,1,5,0,0
52091,-111.111111111111,4,2,1,65,0,0
52166,-111.111111111111,4,2,1,5,0,0
52391,-111.111111111111,4,2,1,65,0,0
54116,-111.111111111111,4,2,1,5,0,0
54191,-111.111111111111,4,2,1,65,0,0
54416,-111.111111111111,4,2,1,5,0,0
54491,-111.111111111111,4,2,1,65,0,0
54716,-111.111111111111,4,2,1,5,0,0
54791,-111.111111111111,4,2,1,65,0,0
59591,-100,4,2,1,70,0,0
67541,-66.6666666666667,4,2,1,70,0,0
67991,-66.6666666666667,4,2,1,75,0,0
69191,-83.3333333333333,4,2,1,85,0,1
78641,-83.3333333333333,4,2,1,85,0,0
78791,-83.3333333333333,4,2,1,85,0,1
90791,-100,4,2,1,80,0,0
95591,-166.666666666667,4,2,1,70,0,0
100391,-125,4,2,1,70,0,0
102791,-125,4,2,1,60,0,0
112391,-111.111111111111,4,2,1,65,0,0
113966,-111.111111111111,4,2,1,5,0,0
114191,-111.111111111111,4,2,1,65,0,0
114266,-111.111111111111,4,2,1,5,0,0
114491,-111.111111111111,4,2,1,65,0,0
114566,-111.111111111111,4,2,1,5,0,0
114791,-111.111111111111,4,2,1,65,0,0
116516,-111.111111111111,4,2,1,5,0,0
116591,-111.111111111111,4,2,1,65,0,0
116816,-111.111111111111,4,2,1,5,0,0
116891,-111.111111111111,4,2,1,65,0,0
117116,-111.111111111111,4,2,1,5,0,0
117191,-111.111111111111,4,2,1,65,0,0
121991,-100,4,2,1,70,0,0
129941,-66.6666666666667,4,2,1,70,0,0
130391,-66.6666666666667,4,2,1,75,0,0
131591,-83.3333333333333,4,2,1,85,0,1
141041,-83.3333333333333,4,2,1,85,0,0
141191,-83.3333333333333,4,2,1,85,0,1
153191,-100,4,2,1,70,0,0
153641,-62.5,4,2,1,70,0,0
153866,-62.5,4,2,1,5,0,0
153941,-62.5,4,2,1,70,0,0
154166,-62.5,4,2,1,5,0,0
155291,-100,4,2,1,70,0,0
155591,-71.4285714285714,4,2,1,70,0,0
155666,-71.4285714285714,4,2,1,5,0,0
156041,-55.5555555555556,4,2,1,70,0,0
156266,-55.5555555555556,4,2,1,5,0,0
156341,-41.6666666666667,4,2,1,70,0,0
156416,-41.6666666666667,4,2,1,5,0,0
156491,-100,4,2,1,70,0,0
156791,-200,4,2,1,70,0,0
157016,-200,4,2,1,5,0,0
157091,-100,4,2,1,70,0,0
157616,-100,4,2,1,5,0,0
157691,-100,4,2,1,70,0,0
161591,-83.3333333333333,4,2,1,70,0,0
161816,-83.3333333333333,4,2,1,5,0,0
161891,-100,4,2,1,70,0,0
162191,-66.6666666666667,4,2,1,70,0,0
162416,-66.6666666666667,4,2,1,5,0,0
162491,-100,4,2,1,70,0,0
162791,-200,4,2,1,70,0,0
163916,-200,4,2,1,5,0,0
163991,-100,4,2,1,65,0,0
168491,-166.666666666667,4,2,1,65,0,0
168716,-166.666666666667,4,2,1,5,0,0
168791,-100,4,2,1,65,0,0
173516,-100,4,2,1,5,0,0
173591,-100,4,2,1,75,0,0
183116,-100,4,2,1,5,0,0
183191,-100,4,2,1,80,0,0
202391,-100,4,2,1,70,0,0
207191,-100,4,2,1,75,0,0
210116,-100,4,2,1,5,0,0
210341,-100,4,2,1,75,0,0
210416,-100,4,2,1,5,0,0
210641,-100,4,2,1,75,0,0
210866,-100,4,2,1,5,0,0
210941,-100,4,2,1,75,0,0
211991,-83.3333333333333,4,2,1,85,0,1
223991,-100,4,2,1,70,0,0
224441,-71.4285714285714,4,2,1,70,0,0
224666,-71.4285714285714,4,2,1,5,0,0
224741,-71.4285714285714,4,2,1,70,0,0
224966,-71.4285714285714,4,2,1,5,0,0
226091,-100,4,2,1,70,0,0
226391,-71.4285714285714,4,2,1,70,0,0
226466,-71.4285714285714,4,2,1,5,0,0
226841,-55.5555555555556,4,2,1,70,0,0
227066,-55.5555555555556,4,2,1,5,0,0
227141,-41.6666666666667,4,2,1,70,0,0
227216,-41.6666666666667,4,2,1,5,0,0
227291,-100,4,2,1,70,0,0
227591,-200,4,2,1,70,0,0
227816,-200,4,2,1,5,0,0
227891,-100,4,2,1,70,0,0
228416,-100,4,2,1,5,0,0
228491,-100,4,2,1,70,0,0
232391,-83.3333333333333,4,2,1,75,0,0
232616,-83.3333333333333,4,2,1,5,0,0
232691,-100,4,2,1,75,0,0
232991,-71.4285714285714,4,2,1,75,0,0
233216,-71.4285714285714,4,2,1,5,0,0
233291,-100,4,2,1,75,0,0
233591,-83.3333333333333,4,2,1,80,0,0
234416,-83.3333333333333,4,2,1,5,0,0
234491,-62.5,4,2,1,80,0,0
234566,-62.5,4,2,1,5,0,0
234641,-62.5,4,2,1,80,0,0
234716,-62.5,4,2,1,5,0,0

[Colours]
Combo1 : 77,240,81
Combo2 : 64,159,255
Combo3 : 255,47,151
Combo4 : 103,245,238

[HitObjects]
175,20,16391,5,10,0:0:0:0:
244,122,16541,1,0,3:0:0:0:
242,133,16616,1,0,3:0:0:0:
240,144,16691,1,0,3:0:0:0:
238,155,16766,1,0,3:0:0:0:
236,166,16841,2,0,P|152:205|101:294,1,192,10|0,0:0|0:0,0:0:0:0:
197,280,17141,2,0,P|148:198|63:158,1,192,10|0,0:0|0:0,0:0:0:0:
64,159,18491,1,0,3:0:0:0:
75,157,18566,1,0,3:0:0:0:
86,155,18641,1,0,3:0:0:0:
97,153,18716,1,0,3:0:0:0:
108,151,18791,6,0,L|117:83,1,55.9999982910157,10|0,0:0|0:0,0:0:0:0:
72,30,19241,2,0,B|58:99|171:138|147:230,1,215.999993408203,10|0,0:0|0:0,0:0:0:0:
225,363,19541,2,0,B|244:352|246:289|267:279,1,95.9999970703126,10|0,0:0|0:0,0:0:0:0:
380,214,19691,5,0,3:0:0:0:
382,225,19766,1,0,3:0:0:0:
385,236,19841,1,0,3:0:0:0:
388,247,19916,1,0,3:0:0:0:
391,258,19991,2,0,L|384:327,1,60,6|0,3:2|0:0,0:0:0:0:
505,368,20291,5,8,0:0:0:0:
499,332,20366,1,8,0:0:0:0:
493,296,20441,1,8,0:0:0:0:
487,260,20516,1,8,0:0:0:0:
481,224,20591,2,0,L|497:90,1,120,6|0,3:2|0:0,0:0:0:0:
385,44,20891,5,8,0:0:0:0:
349,50,20966,1,8,0:0:0:0:
313,56,21041,1,8,0:0:0:0:
277,62,21116,1,8,0:0:0:0:
241,68,21191,5,6,3:2:0:0:
221,226,21491,1,0,3:0:0:0:
63,206,21791,1,2,3:2:0:0:
83,48,22091,1,2,3:2:0:0:
279,153,22391,5,6,3:2:0:0:
134,264,22691,1,0,3:0:0:0:
23,119,22991,1,2,3:2:0:0:
168,8,23291,1,2,3:2:0:0:
221,226,23591,5,14,0:0:0:0:
170,345,23741,2,0,L|84:365,1,80,10|0,0:0|3:0,0:0:0:0:
338,297,24041,1,10,0:0:0:0:
285,357,24191,1,0,3:0:0:0:
464,179,24341,1,10,0:0:0:0:
454,258,24491,1,0,3:0:0:0:
367,21,24641,1,10,0:0:0:0:
208,91,24791,6,0,P|159:74|138:9,1,120,6|0,3:2|0:0,0:0:0:0:
44,100,25091,1,8,0:0:0:0:
73,104,25166,1,8,0:0:0:0:
97,121,25241,1,8,0:0:0:0:
112,147,25316,1,8,0:0:0:0:
114,176,25391,6,0,P|104:252|34:339,1,180.000006866455,6|0,3:2|0:0,0:0:0:0:
169,373,25691,1,0,3:0:0:0:
170,328,25766,1,0,3:0:0:0:
183,285,25841,1,0,3:0:0:0:
207,247,25916,1,0,3:0:0:0:
240,216,25991,5,6,3:2:0:0:
256,192,26066,12,2,27791,0:0:0:0:
204,11,28391,5,14,3:2:0:0:
175,39,28466,1,0,3:0:0:0:
163,77,28541,1,0,3:0:0:0:
172,115,28616,1,0,3:0:0:0:
196,146,28691,2,0,L|242:127,1,40,8|0,3:2|3:0,0:0:0:0:
346,49,28841,1,2,3:2:0:0:
355,55,28916,1,0,3:0:0:0:
363,62,28991,2,0,L|356:111,1,40,8|0,3:2|3:0,0:0:0:0:
373,242,29141,1,2,3:2:0:0:
363,246,29216,1,0,3:0:0:0:
353,250,29291,2,0,L|314:219,1,40,8|0,3:2|3:0,0:0:0:0:
232,130,29441,2,0,L|196:146,1,40,2|0,3:2|3:0,0:0:0:0:
80,206,29591,5,8,3:2:0:0:
72,245,29666,1,0,3:0:0:0:
64,284,29741,1,0,3:0:0:0:
56,323,29816,1,0,3:0:0:0:
49,362,29891,2,0,L|12:318,1,40,8|0,3:2|3:0,0:0:0:0:
149,247,30041,1,2,3:2:0:0:
159,240,30116,1,2,3:2:0:0:
169,233,30191,2,0,L|206:277,1,40,10|0,3:2|3:0,0:0:0:0:
304,308,30341,1,2,3:2:0:0:
307,319,30416,1,2,3:2:0:0:
310,330,30491,2,0,L|366:319,1,40,8|0,3:2|3:0,0:0:0:0:
472,360,30641,2,0,L|516:323,1,40,2|0,3:2|3:0,0:0:0:0:
455,221,30791,5,14,0:0:0:0:
428,191,30866,1,0,3:0:0:0:
410,154,30941,1,0,3:0:0:0:
399,115,31016,1,0,3:0:0:0:
401,75,31091,2,0,P|408:49|421:23,1,40,10|0,3:2|3:0,0:0:0:0:
295,155,31241,1,2,3:2:0:0:
301,164,31316,1,0,3:0:0:0:
305,175,31391,2,0,P|298:201|285:227,1,40,12|0,3:2|3:0,0:0:0:0:
215,68,31541,1,2,3:2:0:0:
209,59,31616,1,0,3:0:0:0:
205,48,31692,2,0,P|209:28|217:10,1,40,8|0,3:2|3:0,0:0:0:0:
104,139,31841,1,2,3:2:0:0:
64,132,31916,1,2,3:2:0:0:
24,125,31991,5,14,0:0:0:0:
151,257,32141,1,0,3:0:0:0:
155,268,32216,1,0,3:0:0:0:
159,279,32291,1,8,0:0:0:0:
191,255,32366,1,0,3:0:0:0:
230,246,32441,1,0,3:0:0:0:
267,258,32516,1,0,3:0:0:0:
293,288,32591,1,14,3:2:0:0:
425,364,32741,1,2,3:2:0:0:
423,352,32816,1,0,3:0:0:0:
421,340,32891,1,0,3:0:0:0:
475,282,33041,1,0,3:0:0:0:
322,163,33191,5,6,3:2:0:0:
141,310,33341,2,0,B|97:272|97:272|164:274,1,120,8|0,3:0|3:0,0:0:0:0:
212,324,33641,1,8,0:0:0:0:
144,116,33791,1,2,3:2:0:0:
221,339,33941,1,8,0:0:0:0:
285,234,34091,1,0,3:0:0:0:
284,245,34166,1,0,3:0:0:0:
283,256,34241,1,8,0:0:0:0:
403,44,34391,5,2,3:2:0:0:
486,185,34541,2,0,B|446:225|446:225|370:205,1,120,8|0,0:0|3:0,0:0:0:0:
343,146,34841,1,8,0:0:0:0:
203,270,34991,1,2,3:2:0:0:
336,129,35141,1,8,0:0:0:0:
143,196,35291,1,0,3:0:0:0:
154,198,35366,1,0,3:0:0:0:
165,200,35441,1,8,0:0:0:0:
53,77,35591,5,6,3:2:0:0:
84,101,35666,1,0,3:0:0:0:
122,111,35741,1,8,3:2:0:0:
156,89,35816,1,0,3:0:0:0:
176,54,35891,2,0,P|176:34|171:2,1,40,0|0,3:0|3:0,0:0:0:0:
310,69,36041,1,10,3:2:0:0:
304,79,36116,1,0,3:0:0:0:
302,91,36191,2,0,P|310:107|332:133,1,40,0|0,3:0|3:0,0:0:0:0:
212,241,36341,1,10,3:2:0:0:
210,228,36416,1,0,3:0:0:0:
206,217,36491,2,0,P|190:206|158:195,1,40,0|0,3:0|3:0,0:0:0:0:
32,307,36641,1,2,3:2:0:0:
34,319,36716,1,2,3:2:0:0:
45,316,36791,5,2,3:2:0:0:
52,276,36866,1,0,3:0:0:0:
59,236,36941,1,8,3:2:0:0:
66,196,37016,1,0,3:0:0:0:
74,156,37091,2,0,L|63:110,1,40,0|0,3:0|3:0,0:0:0:0:
186,17,37241,2,0,L|175:63,1,40,8|0,3:2|3:0,0:0:0:0:
250,165,37391,1,10,0:0:0:0:
288,174,37466,1,10,0:0:0:0:
326,183,37541,1,2,3:2:0:0:
330,171,37616,1,0,3:0:0:0:
334,159,37691,2,0,L|377:144,1,40,0|0,3:0|3:0,0:0:0:0:
489,230,37841,1,2,3:2:0:0:
318,372,37991,5,4,3:2:0:0:
162,329,38291,1,0,3:0:0:0:
204,174,38591,1,0,3:0:0:0:
359,215,38891,1,0,3:0:0:0:
105,231,39191,5,10,0:0:0:0:
260,272,39341,1,10,0:0:0:0:
260,272,39416,1,10,0:0:0:0:
260,272,39491,1,10,0:0:0:0:
416,314,39641,1,8,0:0:0:0:
105,231,39941,1,10,0:0:0:0:
416,314,40241,1,8,0:0:0:0:
271,358,40391,6,0,L|233:369,2,32,6|0|0,3:2|3:0|3:0,0:0:0:0:
181,304,40691,1,8,0:0:0:0:
270,141,40841,1,2,3:2:0:0:
277,155,41141,1,2,3:2:0:0:
358,136,41291,2,0,L|363:96,2,32,8|0|0,0:0|3:0|3:0,0:0:0:0:
196,177,41591,2,0,L|191:217,2,32,2|0|0,3:2|3:0|3:0,0:0:0:0:
32,24,41891,5,8,0:0:0:0:
155,77,42041,2,0,L|201:66,2,32,2|0|0,3:2|3:0|3:0,0:0:0:0:
95,137,42341,1,0,3:0:0:0:
271,199,42491,1,10,0:0:0:0:
270,208,42566,1,0,3:0:0:0:
269,217,42641,1,0,3:0:0:0:
347,24,42791,5,2,3:2:0:0:
346,33,42866,1,0,3:0:0:0:
345,42,42941,1,0,3:0:0:0:
405,116,43091,1,8,0:0:0:0:
465,190,43241,1,2,3:2:0:0:
477,181,43541,1,2,3:2:0:0:
378,201,43691,2,0,L|347:189,2,32,8|0|0,0:0|3:0|3:0,0:0:0:0:
461,366,43991,2,0,L|492:378,2,32,2|0|0,3:2|3:0|3:0,0:0:0:0:
419,285,44291,5,8,0:0:0:0:
309,330,44441,1,2,3:2:0:0:
308,339,44516,1,0,3:0:0:0:
307,348,44591,1,0,3:0:0:0:
378,201,44741,1,0,3:0:0:0:
231,348,44891,2,0,L|233:313,2,32,10|0|0,0:0|3:0|3:0,0:0:0:0:
40,239,45191,5,6,3:2:0:0:
42,248,45266,1,0,3:0:0:0:
44,257,45341,1,0,3:0:0:0:
155,364,45491,1,8,0:0:0:0:
307,348,45641,1,2,3:2:0:0:
155,364,45941,1,2,3:2:0:0:
307,348,46091,2,0,L|344:360,2,32,10|0|0,0:0|3:0|3:0,0:0:0:0:
460,333,46391,2,0,L|497:345,2,32,2|0|0,3:2|3:0|3:0,0:0:0:0:
314,143,46691,5,8,0:0:0:0:
422,241,46841,1,2,3:2:0:0:
421,250,46916,1,0,3:0:0:0:
420,259,46991,1,0,3:0:0:0:
434,157,47141,1,0,3:0:0:0:
339,344,47291,1,10,0:0:0:0:
338,353,47366,1,0,3:0:0:0:
337,362,47441,1,0,3:0:0:0:
270,214,47591,6,0,L|313:222,2,32,2|0|0,3:2|3:0|3:0,0:0:0:0:
143,362,47891,1,8,0:0:0:0:
276,295,48041,1,2,3:2:0:0:
143,362,48341,1,2,3:2:0:0:
276,295,48491,2,0,L|308:301,2,32,8|0|0,0:0|3:0|3:0,0:0:0:0:
151,179,48791,1,2,3:2:0:0:
153,188,48866,1,0,3:0:0:0:
155,197,48941,1,0,3:0:0:0:
143,362,49091,5,8,0:0:0:0:
67,225,49241,2,0,L|60:190,2,32,2|0|0,3:2|3:0|3:0,0:0:0:0:
241,222,49541,1,0,3:0:0:0:
302,88,49691,1,10,0:0:0:0:
304,78,49766,1,0,3:0:0:0:
306,68,49841,1,0,3:0:0:0:
498,168,49991,5,14,0:0:0:0:
392,300,50141,1,0,3:0:0:0:
388,278,50216,1,0,3:0:0:0:
384,256,50291,1,0,3:0:0:0:
380,234,50366,1,0,3:0:0:0:
376,212,50441,2,0,L|363:130,1,71.9999978027344,10|0,0:0|0:0,0:0:0:0:
278,289,50741,1,0,3:0:0:0:
288,359,50891,1,0,3:0:0:0:
469,344,51041,1,10,0:0:0:0:
469,344,51491,6,0,L|511:338,1,35.9999989013672,0|0,3:0|0:0,0:0:0:0:
301,210,51791,2,0,L|343:216,1,35.9999989013672,8|0,0:0|0:0,0:0:0:0:
146,366,52091,2,0,L|188:360,1,35.9999989013672,0|0,3:0|0:0,0:0:0:0:
27,137,52391,5,10,0:0:0:0:
130,283,52541,1,0,3:0:0:0:
151,280,52616,1,0,3:0:0:0:
172,277,52691,1,0,3:0:0:0:
193,274,52766,1,0,3:0:0:0:
214,272,52841,2,0,L|294:291,1,71.9999978027344,10|0,0:0|0:0,0:0:0:0:
132,117,53141,1,0,3:0:0:0:
202,133,53291,1,0,3:0:0:0:
326,17,53441,1,10,0:0:0:0:
326,17,53891,6,0,L|390:119,1,107.999996704102,0|0,3:0|0:0,0:0:0:0:
496,185,54191,2,0,L|375:189,1,107.999996704102,8|0,0:0|0:0,0:0:0:0:
264,247,54491,2,0,L|320:140,1,107.999996704102,0|0,3:0|0:0,0:0:0:0:
383,108,54791,5,10,0:0:0:0:
470,259,54941,1,0,3:0:0:0:
476,279,55016,1,0,3:0:0:0:
482,299,55091,1,0,3:0:0:0:
488,319,55166,1,0,3:0:0:0:
494,343,55241,2,0,L|434:386,1,71.9999978027344,10|0,0:0|0:0,0:0:0:0:
348,256,55541,1,0,3:0:0:0:
328,325,55691,1,0,3:0:0:0:
168,376,55841,5,10,0:0:0:0:
150,304,55991,1,0,3:0:0:0:
150,304,56291,1,0,3:0:0:0:
348,256,56441,2,0,L|380:110,1,143.999995605469,8|0,0:0|3:0,0:0:0:0:
134,4,56891,1,8,0:0:0:0:
280,55,57041,1,8,0:0:0:0:
290,73,57116,1,8,0:0:0:0:
300,91,57191,6,0,L|268:237,1,143.999995605469,10|0,0:0|3:0,0:0:0:0:
66,311,57641,1,8,0:0:0:0:
66,311,57941,2,0,L|61:262,2,35.9999989013672,0|0|8,3:0|3:0|0:0,0:0:0:0:
211,369,58241,1,8,0:0:0:0:
215,347,58316,1,8,0:0:0:0:
219,325,58391,1,10,0:0:0:0:
117,115,58541,5,0,3:0:0:0:
121,136,58616,1,0,3:0:0:0:
125,157,58691,1,0,3:0:0:0:
144,165,58766,1,0,3:0:0:0:
163,173,58841,2,0,L|149:256,1,71.9999978027344,10|0,0:0|0:0,0:0:0:0:
325,354,59141,1,0,3:0:0:0:
344,346,59216,1,0,3:0:0:0:
363,338,59291,2,0,L|349:255,1,71.9999978027344,10|0,0:0|0:0,0:0:0:0:
454,57,59591,5,6,3:2:0:0:
314,129,59741,2,0,L|392:142,1,80,8|0,0:0|3:0,0:0:0:0:
445,189,59966,1,0,3:0:0:0:
447,200,60041,1,8,0:0:0:0:
276,270,60191,1,0,3:0:0:0:
265,357,60341,1,8,0:0:0:0:
419,327,60491,2,0,L|406:288,2,40,0|0|8,3:0|3:0|0:0,0:0:0:0:
219,204,60791,5,2,3:2:0:0:
149,313,60941,2,0,P|123:286|80:273,1,80,8|0,0:0|3:0,0:0:0:0:
20,335,61166,1,0,3:0:0:0:
25,324,61241,1,8,0:0:0:0:
83,166,61391,1,0,3:0:0:0:
45,85,61541,1,8,0:0:0:0:
197,25,61691,2,0,L|238:13,2,40,0|0|8,3:0|3:0|0:0,0:0:0:0:
352,186,61991,5,2,3:2:0:0:
395,22,62141,1,8,0:0:0:0:
290,115,62291,1,0,3:0:0:0:
287,103,62366,1,0,3:0:0:0:
284,91,62441,1,8,0:0:0:0:
441,171,62591,2,0,L|503:113,1,80,0|8,3:0|0:0,0:0:0:0:
378,278,62891,2,0,L|428:297,2,40,0|0|8,3:0|3:0|0:0,0:0:0:0:
268,360,63191,5,2,3:2:0:0:
193,250,63341,1,8,0:0:0:0:
110,306,63491,1,0,3:0:0:0:
108,317,63566,1,0,3:0:0:0:
106,328,63641,1,8,0:0:0:0:
24,166,63791,1,6,3:2:0:0:
142,77,63941,1,8,0:0:0:0:
145,88,64016,1,8,0:0:0:0:
148,99,64091,1,0,3:0:0:0:
186,111,64166,1,0,3:0:0:0:
224,123,64241,1,8,0:0:0:0:
262,135,64316,1,8,0:0:0:0:
300,146,64391,6,0,L|346:135,3,40,2|0|0|0,3:2|3:0|3:0|3:0,0:0:0:0:
388,50,64691,2,0,L|342:61,3,40,0|0|0|0,3:0|3:0|3:0|3:0,0:0:0:0:
378,207,64991,1,8,0:0:0:0:
389,205,65066,1,0,3:0:0:0:
400,203,65141,1,0,3:0:0:0:
411,201,65216,1,0,3:0:0:0:
422,199,65291,1,0,3:0:0:0:
433,198,65366,1,0,3:0:0:0:
444,197,65441,1,0,3:0:0:0:
455,196,65516,1,0,3:0:0:0:
466,195,65591,6,0,L|471:146,3,40,2|0|0|0,3:2|3:0|3:0|3:0,0:0:0:0:
434,276,65891,2,0,L|439:325,3,40,0|0|0|0,3:0|3:0|3:0|3:0,0:0:0:0:
338,368,66191,1,8,0:0:0:0:
328,360,66266,1,0,3:0:0:0:
317,353,66341,1,0,3:0:0:0:
305,348,66416,1,0,3:0:0:0:
293,344,66491,1,0,3:0:0:0:
281,341,66566,1,0,3:0:0:0:
269,340,66641,2,0,P|247:342|220:349,1,40,0|0,3:0|3:0,0:0:0:0:
96,362,66791,5,10,0:0:0:0:
122,344,66866,1,0,3:0:0:0:
139,317,66941,1,0,3:0:0:0:
142,285,67016,1,0,3:0:0:0:
134,253,67091,2,0,P|123:241|97:229,1,40,0|0,3:0|3:0,0:0:0:0:
36,117,67241,5,10,0:0:0:0:
59,137,67316,1,0,3:0:0:0:
88,149,67391,2,0,P|101:142|120:119,1,40,0|0,3:0|3:0,0:0:0:0:
211,24,67541,6,0,L|220:101,1,60.0000022888184,8|0,0:0|3:0,0:0:0:0:
339,14,67691,2,0,L|348:91,1,60.0000022888184,8|0,0:0|3:0,0:0:0:0:
467,4,67841,2,0,L|476:81,1,60.0000022888184,8|0,0:0|3:0,0:0:0:0:
237,240,67991,5,10,0:0:0:0:
493,220,68141,1,10,0:0:0:0:
237,240,68291,1,10,0:0:0:0:
237,240,69191,5,6,3:2:0:0:
262,366,69341,1,8,0:0:0:0:
110,273,69491,1,0,3:0:0:0:
104,301,69566,1,0,3:0:0:0:
98,329,69641,2,0,L|5:362,1,95.9999970703126,10|0,0:0|3:0,0:0:0:0:
136,89,69941,2,0,L|71:164,1,95.9999970703126,8|0,0:0|3:0,0:0:0:0:
7,81,70166,1,0,3:0:0:0:
10,109,70241,6,0,L|202:149,1,191.999994140625,10|8,0:0|0:0,0:0:0:0:
341,27,70691,1,0,3:0:0:0:
334,55,70766,1,0,3:0:0:0:
326,83,70841,1,8,0:0:0:0:
326,227,70991,2,0,L|362:322,1,95.9999970703126,2|8,3:2|0:0,0:0:0:0:
476,365,71291,2,0,L|500:312,2,47.9999985351563,0|0|8,3:0|3:0|0:0,0:0:0:0:
203,352,71591,6,0,P|161:309|254:292,1,191.999994140625,6|0,3:2|3:0,0:0:0:0:
284,351,71966,1,0,3:0:0:0:
309,333,72041,1,10,0:0:0:0:
70,233,72191,1,4,3:2:0:0:
204,24,72341,2,0,P|219:62|209:127,1,95.9999970703126,8|0,0:0|3:0,0:0:0:0:
136,158,72566,1,0,3:0:0:0:
160,167,72641,1,10,0:0:0:0:
237,364,72791,6,0,P|242:315|263:262,1,95.9999970703126,4|8,3:2|0:0,0:0:0:0:
345,155,73091,1,0,3:0:0:0:
395,139,73166,1,0,3:0:0:0:
446,152,73241,1,8,0:0:0:0:
486,185,73316,1,0,3:0:0:0:
506,233,73391,1,2,3:2:0:0:
504,285,73466,1,0,3:0:0:0:
474,332,73541,1,8,0:0:0:0:
422,343,73616,1,0,3:0:0:0:
369,334,73691,2,0,P|349:345|333:373,2,47.9999985351563,0|0|8,3:0|3:0|0:0,0:0:0:0:
122,146,73991,5,6,3:2:0:0:
161,280,74141,2,0,P|91:258|9:252,1,143.999995605469,8|0,0:0|3:0,0:0:0:0:
15,328,74441,1,0,0:0:0:0:
195,205,74591,1,2,3:2:0:0:
278,372,74741,1,8,0:0:0:0:
372,265,74891,1,0,3:0:0:0:
366,294,74966,1,0,3:0:0:0:
360,323,75041,1,8,0:0:0:0:
462,35,75191,5,2,3:2:0:0:
358,106,75341,2,0,P|385:174|470:208,1,143.999995605469,8|0,0:0|3:0,0:0:0:0:
497,148,75641,1,8,0:0:0:0:
303,231,75791,1,2,3:2:0:0:
367,366,75941,1,8,0:0:0:0:
186,271,76091,1,0,3:0:0:0:
191,299,76166,1,0,3:0:0:0:
196,327,76241,1,8,0:0:0:0:
10,368,76391,5,2,3:2:0:0:
117,227,76541,2,0,P|117:153|91:77,1,143.999995605469,8|0,0:0|3:0,0:0:0:0:
22,65,76841,1,8,0:0:0:0:
249,138,76991,1,2,3:2:0:0:
284,12,77141,1,8,0:0:0:0:
440,65,77291,1,0,3:0:0:0:
414,79,77366,1,0,3:0:0:0:
388,94,77441,1,8,0:0:0:0:
208,217,77591,5,6,3:2:0:0:
205,231,77666,1,0,3:0:0:0:
202,245,77741,2,0,L|221:293,1,47.9999985351563,8|0,0:0|3:0,0:0:0:0:
366,376,77891,1,8,0:0:0:0:
329,338,77966,1,0,3:0:0:0:
324,285,78041,1,8,0:0:0:0:
344,236,78116,1,8,0:0:0:0:
392,216,78191,1,2,3:2:0:0:
442,232,78266,1,8,0:0:0:0:
474,273,78341,2,0,P|482:299|486:328,2,47.9999985351563,0|0|8,3:0|3:0|0:0,0:0:0:0:
308,167,78641,2,0,P|312:143|319:120,1,47.9999985351563,8|0,0:0|3:0,0:0:0:0:
480,5,78791,5,6,3:2:0:0:
450,48,78866,1,0,3:0:0:0:
399,62,78941,1,8,0:0:0:0:
347,51,79016,1,0,3:0:0:0:
299,28,79091,1,0,3:0:0:0:
246,24,79166,1,0,3:0:0:0:
201,51,79241,1,10,0:0:0:0:
195,63,79316,1,0,3:0:0:0:
191,78,79391,2,0,P|200:101|211:123,1,47.9999985351563,0|0,3:0|3:0,0:0:0:0:
375,179,79541,1,8,0:0:0:0:
366,167,79616,1,0,3:0:0:0:
356,156,79691,2,0,P|331:152|307:150,1,47.9999985351563,0|0,3:0|3:0,0:0:0:0:
205,265,79841,2,0,P|220:245|233:225,1,47.9999985351563,8|0,0:0|3:0,0:0:0:0:
112,82,79991,5,2,3:2:0:0:
63,60,80066,1,0,3:0:0:0:
15,82,80141,1,8,0:0:0:0:
0,132,80216,1,0,3:0:0:0:
17,181,80291,1,0,3:0:0:0:
62,208,80366,1,0,3:0:0:0:
105,237,80441,1,8,0:0:0:0:
127,284,80516,1,0,3:0:0:0:
115,335,80591,1,0,3:0:0:0:
67,357,80666,1,0,3:0:0:0:
19,335,80741,1,8,0:0:0:0:
2,284,80816,1,0,3:0:0:0:
22,234,80891,2,0,P|43:218|73:203,1,47.9999985351563,0|0,3:0|3:0,0:0:0:0:
238,158,81041,2,0,P|231:183|217:214,1,47.9999985351563,8|0,0:0|3:0,0:0:0:0:
295,378,81191,5,6,3:2:0:0:
273,329,81266,1,0,3:0:0:0:
282,277,81341,1,8,0:0:0:0:
317,238,81416,1,0,3:0:0:0:
369,230,81491,1,0,3:0:0:0:
415,255,81566,1,0,3:0:0:0:
436,303,81641,1,10,0:0:0:0:
439,317,81716,1,0,3:0:0:0:
434,330,81791,2,0,P|414:343|377:352,1,47.9999985351563,4|0,3:2|3:0,0:0:0:0:
261,176,81941,1,8,0:0:0:0:
258,162,82016,1,0,3:0:0:0:
263,149,82091,2,0,P|283:136|320:127,1,47.9999985351563,0|0,3:0|3:0,0:0:0:0:
211,325,82241,2,0,P|191:338|154:347,1,47.9999985351563,8|0,0:0|3:0,0:0:0:0:
36,193,82391,5,6,3:2:0:0:
26,244,82466,1,0,3:0:0:0:
60,283,82541,1,8,0:0:0:0:
111,272,82616,1,0,3:0:0:0:
133,224,82691,1,0,3:0:0:0:
118,173,82766,1,0,3:0:0:0:
128,121,82841,1,8,0:0:0:0:
171,91,82916,1,0,3:0:0:0:
215,119,82991,1,2,3:2:0:0:
223,132,83066,1,0,3:0:0:0:
228,145,83141,2,0,P|220:171|205:196,2,47.9999985351563,8|0|8,0:0|3:0|0:0,0:0:0:0:
377,17,83441,1,8,0:0:0:0:
341,55,83516,1,8,0:0:0:0:
366,101,83591,5,4,3:2:0:0:
245,259,83741,2,0,P|319:272|396:297,1,143.999995605469,8|0,0:0|3:0,0:0:0:0:
412,367,84041,1,8,0:0:0:0:
482,193,84191,1,2,3:2:0:0:
450,101,84341,1,8,0:0:0:0:
313,228,84491,1,0,3:0:0:0:
320,200,84566,1,0,3:0:0:0:
327,172,84641,1,8,0:0:0:0:
200,16,84791,5,2,3:2:0:0:
39,173,84941,2,0,P|113:160|184:122,1,143.999995605469,8|0,0:0|3:0,0:0:0:0:
110,77,85241,1,8,0:0:0:0:
54,282,85391,1,2,3:2:0:0:
207,326,85541,1,8,0:0:0:0:
263,121,85691,1,0,3:0:0:0:
266,149,85766,1,0,3:0:0:0:
270,177,85841,1,8,0:0:0:0:
477,227,85991,5,6,3:2:0:0:
285,312,86141,2,0,P|357:322|444:346,1,143.999995605469,8|0,0:0|3:0,0:0:0:0:
496,375,86441,1,8,0:0:0:0:
374,244,86591,1,2,3:2:0:0:
359,142,86741,1,8,0:0:0:0:
487,25,86891,1,0,3:0:0:0:
459,32,86966,1,0,3:0:0:0:
431,39,87041,1,8,0:0:0:0:
295,91,87191,5,2,3:2:0:0:
289,77,87266,1,0,3:0:0:0:
283,63,87341,2,0,L|291:8,2,47.9999985351563,8|0|0,0:0|3:0|3:0,0:0:0:0:
156,17,87566,1,8,0:0:0:0:
170,26,87641,2,0,L|194:75,1,47.9999985351563,0|0,3:0|3:0,0:0:0:0:
60,103,87791,1,10,0:0:0:0:
77,103,87866,2,0,L|125:129,1,47.9999985351563,0|0,3:0|3:0,0:0:0:0:
37,232,88016,1,8,0:0:0:0:
51,224,88091,2,0,L|106:217,1,47.9999985351563,0|0,3:0|3:0,0:0:0:0:
77,375,88241,1,8,0:0:0:0:
83,361,88316,1,0,3:0:0:0:
87,347,88391,6,0,L|128:310,3,47.9999985351563,6|0|0|0,3:2|3:0|3:0|3:0,0:0:0:0:
204,278,88691,1,8,0:0:0:0:
207,291,88766,1,0,3:0:0:0:
210,304,88841,1,2,3:2:0:0:
240,347,88916,1,0,3:0:0:0:
290,362,88991,1,0,3:0:0:0:
339,344,89066,1,0,3:0:0:0:
375,305,89141,1,2,3:2:0:0:
425,288,89216,1,0,3:0:0:0:
475,303,89291,2,0,P|486:329|490:352,1,47.9999985351563,8|0,0:0|3:0,0:0:0:0:
336,227,89441,5,0,3:0:0:0:
331,213,89516,1,0,3:0:0:0:
335,199,89591,1,10,0:0:0:0:
171,24,89741,5,10,0:0:0:0:
212,64,89816,1,8,0:0:0:0:
195,119,89891,1,8,0:0:0:0:
40,192,90041,5,10,0:0:0:0:
472,192,90341,1,10,0:0:0:0:
40,192,90641,1,10,0:0:0:0:
256,344,90791,5,8,0:0:0:0:
256,192,90941,1,8,0:0:0:0:
256,40,91091,1,8,0:0:0:0:
256,192,91241,12,0,92891,0:0:0:0:
256,344,93191,5,8,0:0:0:0:
256,192,93341,1,8,0:0:0:0:
256,40,93491,1,8,0:0:0:0:
40,192,94391,5,10,0:0:0:0:
256,192,94541,1,10,0:0:0:0:
472,192,94691,1,10,0:0:0:0:
472,192,95591,6,0,L|368:192,1,95.9999970703126,4|2,3:2|0:0,0:0:0:0:
136,192,96191,2,0,L|40:192,1,95.9999970703126,8|2,0:0|0:0,0:0:0:0:
256,40,96791,6,0,L|256:136,1,95.9999970703126,0|2,3:0|0:0,0:0:0:0:
256,344,97391,1,8,0:0:0:0:
256,40,97691,1,2,3:2:0:0:
40,192,97991,6,0,L|136:192,1,95.9999970703126,0|2,3:0|0:0,0:0:0:0:
376,192,98591,1,8,0:0:0:0:
136,192,98891,1,0,3:0:0:0:
472,192,99191,5,6,3:2:0:0:
40,192,99491,1,6,3:2:0:0:
256,344,99791,1,8,0:0:0:0:
256,40,100091,1,2,3:2:0:0:
256,192,100241,1,8,0:0:0:0:
448,278,100391,6,0,L|408:285,2,32,4|0|0,3:2|3:0|3:0,0:0:0:0:
347,364,100691,1,8,0:0:0:0:
185,259,100841,1,2,3:2:0:0:
188,273,101141,1,2,3:2:0:0:
341,349,101291,2,0,L|348:309,2,32,8|0|0,0:0|3:0|3:0,0:0:0:0:
254,216,101591,2,0,L|250:175,2,32,2|0|0,3:2|3:0|3:0,0:0:0:0:
120,323,101891,5,8,0:0:0:0:
37,251,102041,1,2,3:2:0:0:
46,252,102116,1,0,3:0:0:0:
55,254,102191,1,0,3:0:0:0:
120,323,102341,1,0,3:0:0:0:
213,385,102491,1,10,0:0:0:0:
204,384,102566,1,0,3:0:0:0:
195,382,102641,1,0,3:0:0:0:
107,172,102791,5,6,3:2:0:0:
108,181,102866,1,0,3:0:0:0:
109,190,102941,1,0,3:0:0:0:
40,368,103091,1,8,0:0:0:0:
228,303,103241,1,2,3:2:0:0:
40,368,103541,1,2,3:2:0:0:
228,303,103691,2,0,L|220:262,2,32,8|0|0,0:0|3:0|3:0,0:0:0:0:
352,350,103991,2,0,L|358:381,2,32,2|0|0,3:2|3:0|3:0,0:0:0:0:
270,203,104291,5,8,0:0:0:0:
166,350,104441,1,2,3:2:0:0:
158,355,104516,1,0,3:0:0:0:
150,361,104591,1,0,3:0:0:0:
335,256,104741,1,0,3:0:0:0:
445,331,104891,2,0,L|437:366,2,32,10|0|0,0:0|3:0|3:0,0:0:0:0:
381,172,105191,6,0,L|373:137,2,32,2|0|0,3:2|3:0|3:0,0:0:0:0:
232,283,105491,1,8,0:0:0:0:
265,362,105641,1,2,3:2:0:0:
281,357,105941,1,2,3:2:0:0:
152,272,106091,2,0,L|103:264,2,32,8|0|0,0:0|3:0|3:0,0:0:0:0:
261,176,106391,1,2,3:2:0:0:
262,185,106466,1,0,3:0:0:0:
264,194,106541,1,0,3:0:0:0:
176,21,106691,5,8,0:0:0:0:
39,93,106841,2,0,L|29:51,2,32,2|0|0,3:2|3:0|3:0,0:0:0:0:
193,101,107141,1,0,3:0:0:0:
101,223,107291,2,0,L|62:203,2,32,10|0|0,0:0|3:0|3:0,0:0:0:0:
271,327,107591,5,6,3:2:0:0:
270,336,107666,1,0,3:0:0:0:
269,345,107741,1,0,3:0:0:0:
409,237,107891,1,8,0:0:0:0:
326,31,108041,1,2,3:2:0:0:
344,25,108341,1,2,3:2:0:0:
478,164,108491,2,0,L|440:150,2,32,8|0|0,0:0|3:0|3:0,0:0:0:0:
320,112,108791,2,0,L|282:126,2,32,2|0|0,3:2|3:0|3:0,0:0:0:0:
434,24,109091,5,8,0:0:0:0:
324,199,109241,1,2,3:2:0:0:
326,208,109316,1,0,3:0:0:0:
328,217,109391,1,0,3:0:0:0:
201,71,109541,1,0,3:0:0:0:
42,138,109691,1,10,0:0:0:0:
44,147,109766,1,0,3:0:0:0:
46,156,109841,1,0,3:0:0:0:
172,204,109991,6,0,L|182:159,2,32,2|0|0,3:2|3:0|3:0,0:0:0:0:
22,23,110291,1,8,0:0:0:0:
199,89,110441,1,2,3:2:0:0:
196,72,110741,1,2,3:2:0:0:
302,12,110891,2,0,L|286:58,2,32,8|0|0,0:0|3:0|3:0,0:0:0:0:
132,138,111191,2,0,L|153:181,2,32,2|0|0,3:2|3:0|3:0,0:0:0:0:
282,238,111491,5,8,0:0:0:0:
360,106,111641,1,2,3:2:0:0:
358,115,111716,1,0,3:0:0:0:
356,124,111791,1,0,3:0:0:0:
402,193,111941,1,0,3:0:0:0:
264,26,112091,1,10,0:0:0:0:
265,35,112166,1,0,3:0:0:0:
267,44,112241,1,0,3:0:0:0:
484,142,112391,5,14,0:0:0:0:
318,334,112541,1,0,3:0:0:0:
330,316,112616,1,0,3:0:0:0:
348,305,112691,1,0,3:0:0:0:
368,299,112766,1,0,3:0:0:0:
389,299,112841,2,0,P|429:317|465:343,1,71.9999978027344,10|0,0:0|0:0,0:0:0:0:
254,243,113141,1,0,3:0:0:0:
235,362,113291,1,0,3:0:0:0:
46,271,113441,1,10,0:0:0:0:
46,271,113891,6,0,L|36:315,1,35.9999989013672,0|0,3:0|0:0,0:0:0:0:
224,180,114191,2,0,L|214:224,1,35.9999989013672,8|0,0:0|0:0,0:0:0:0:
402,89,114491,2,0,L|392:133,1,35.9999989013672,0|0,3:0|0:0,0:0:0:0:
150,14,114791,5,10,0:0:0:0:
307,132,114941,1,0,3:0:0:0:
311,153,115016,1,0,3:0:0:0:
315,174,115091,1,0,3:0:0:0:
320,195,115166,1,0,3:0:0:0:
325,216,115241,2,0,L|283:284,1,71.9999978027344,10|0,0:0|0:0,0:0:0:0:
425,371,115541,1,0,3:0:0:0:
484,268,115691,1,0,3:0:0:0:
354,61,115841,5,10,0:0:0:0:
354,61,116291,2,0,P|306:83|272:143,1,107.999996704102,0|0,3:0|0:0,0:0:0:0:
208,227,116591,2,0,P|212:175|177:115,1,107.999996704102,8|0,0:0|0:0,0:0:0:0:
136,17,116891,2,0,P|178:46|248:46,1,107.999996704102,0|0,3:0|0:0,0:0:0:0:
277,129,117191,5,10,0:0:0:0:
174,320,117341,1,0,3:0:0:0:
167,340,117416,1,0,3:0:0:0:
183,354,117491,1,0,3:0:0:0:
203,347,117566,1,0,3:0:0:0:
202,325,117641,2,0,P|198:290|212:242,1,71.9999978027344,10|0,0:0|0:0,0:0:0:0:
374,150,117941,1,0,3:0:0:0:
397,233,118091,1,0,3:0:0:0:
174,110,118241,5,10,0:0:0:0:
197,27,118391,1,0,3:0:0:0:
197,27,118691,1,0,3:0:0:0:
25,241,118841,2,0,P|93:208|186:194,1,143.999995605469,8|0,0:0|3:0,0:0:0:0:
328,26,119291,1,8,0:0:0:0:
222,110,119441,1,8,0:0:0:0:
231,129,119516,1,8,0:0:0:0:
246,144,119591,6,0,P|314:177|407:191,1,143.999995605469,2|0,3:2|3:0,0:0:0:0:
487,40,120041,1,8,0:0:0:0:
487,40,120341,2,0,P|479:55|478:87,2,35.9999989013672,0|0|8,3:0|3:0|0:0,0:0:0:0:
397,158,120641,1,8,0:0:0:0:
392,179,120716,1,8,0:0:0:0:
399,199,120791,1,10,0:0:0:0:
483,359,120941,5,0,3:0:0:0:
487,337,121016,1,0,3:0:0:0:
490,315,121091,1,0,3:0:0:0:
468,317,121166,1,0,3:0:0:0:
446,319,121241,2,0,L|372:295,1,71.9999978027344,10|0,0:0|0:0,0:0:0:0:
304,153,121541,1,0,3:0:0:0:
283,162,121616,1,0,3:0:0:0:
262,171,121691,2,0,L|209:228,1,71.9999978027344,10|0,0:0|0:0,0:0:0:0:
17,357,121991,5,6,3:2:0:0:
126,244,122141,2,0,P|123:208|96:173,1,80,8|0,0:0|3:0,0:0:0:0:
27,200,122366,1,0,3:0:0:0:
26,211,122441,1,8,0:0:0:0:
174,23,122591,1,0,3:0:0:0:
79,66,122741,1,8,0:0:0:0:
207,192,122891,2,0,L|256:200,2,40,0|0|8,3:0|3:0|0:0,0:0:0:0:
319,25,123191,5,2,3:2:0:0:
397,183,123341,2,0,P|406:142|428:95,1,80,8|0,0:0|3:0,0:0:0:0:
490,136,123566,1,0,3:0:0:0:
493,147,123641,1,8,0:0:0:0:
405,333,123791,1,0,3:0:0:0:
312,210,123941,1,8,0:0:0:0:
211,272,124091,2,0,L|160:266,2,40,0|0|8,3:0|3:0|0:0,0:0:0:0:
127,40,124391,5,2,3:2:0:0:
186,185,124541,1,8,0:0:0:0:
270,104,124691,1,0,3:0:0:0:
267,115,124766,1,0,3:0:0:0:
265,126,124841,1,8,0:0:0:0:
100,259,124991,1,0,3:0:0:0:
84,179,125141,1,8,0:0:0:0:
217,320,125291,2,0,L|181:347,2,40,0|0|8,3:0|3:0|0:0,0:0:0:0:
360,141,125591,5,2,3:2:0:0:
495,223,125741,1,8,0:0:0:0:
420,306,125891,1,0,3:0:0:0:
422,294,125966,1,0,3:0:0:0:
425,282,126041,1,8,0:0:0:0:
229,356,126191,1,6,3:2:0:0:
142,225,126341,1,8,0:0:0:0:
144,237,126416,1,8,0:0:0:0:
147,249,126491,1,0,3:0:0:0:
185,260,126566,1,0,3:0:0:0:
223,271,126641,1,8,0:0:0:0:
261,282,126716,1,8,0:0:0:0:
299,293,126791,6,0,L|341:265,3,40,2|0|0|0,3:2|3:0|3:0|3:0,0:0:0:0:
331,166,127091,2,0,L|380:154,3,40,0|0|0|0,3:0|3:0|3:0|3:0,2:0:0:0:
374,52,127391,1,8,0:0:0:0:
385,55,127466,1,0,3:0:0:0:
396,58,127541,1,0,3:0:0:0:
407,61,127616,1,0,3:0:0:0:
418,64,127691,1,0,3:0:0:0:
429,68,127766,1,0,3:0:0:0:
440,71,127841,1,0,3:0:0:0:
451,75,127916,1,0,3:0:0:0:
462,79,127991,6,0,P|450:104|443:132,3,40,2|0|0|0,3:2|3:0|3:0|3:0,0:0:0:0:
440,217,128291,2,0,P|442:244|450:272,3,40,0|0|0|0,3:0|3:0|3:0|3:0,0:0:0:0:
467,356,128591,1,8,0:0:0:0:
456,362,128666,1,0,3:0:0:0:
444,366,128741,1,0,3:0:0:0:
432,369,128816,1,0,3:0:0:0:
420,370,128891,1,0,3:0:0:0:
408,369,128966,1,0,3:0:0:0:
396,366,129041,2,0,P|381:354|370:335,1,40,0|0,3:0|3:0,0:0:0:0:
257,202,129191,5,10,0:0:0:0:
280,223,129266,1,0,3:0:0:0:
295,251,129341,1,0,3:0:0:0:
295,283,129416,1,0,3:0:0:0:
281,312,129491,2,0,P|263:322|238:329,1,40,0|0,3:0|3:0,0:0:0:0:
107,246,129641,5,10,0:0:0:0:
76,237,129716,1,0,3:0:0:0:
44,241,129791,2,0,P|25:253|12:274,1,40,0|0,3:0|3:0,0:0:0:0:
144,333,129941,6,0,L|184:278,1,60.0000022888184,8|0,0:0|3:0,0:0:0:0:
227,136,130091,2,0,L|254:198,1,60.0000022888184,8|0,0:0|3:0,0:0:0:0:
357,307,130241,2,0,L|289:299,1,60.0000022888184,8|0,0:0|3:0,0:0:0:0:
129,209,130391,5,10,0:0:0:0:
340,183,130541,1,10,0:0:0:0:
257,381,130691,1,10,0:0:0:0:
257,381,131591,5,6,3:2:0:0:
208,184,131741,1,8,0:0:0:0:
351,316,131891,1,0,3:0:0:0:
377,326,131966,1,0,3:0:0:0:
403,337,132041,2,0,L|496:317,1,95.9999970703126,10|0,0:0|3:0,0:0:0:0:
367,214,132341,2,0,L|393:112,1,95.9999970703126,8|0,0:0|3:0,0:0:0:0:
314,40,132566,1,0,3:0:0:0:
315,68,132641,6,0,L|491:154,1,191.999994140625,10|0,0:0|3:0,0:0:0:0:
288,269,133091,1,0,3:0:0:0:
282,240,133166,1,0,3:0:0:0:
276,211,133241,1,8,0:0:0:0:
150,76,133391,2,0,P|194:58|224:21,1,95.9999970703126,2|8,3:2|0:0,0:0:0:0:
25,36,133691,2,0,P|10:56|4:84,2,47.9999985351563,0|0|8,3:0|3:0|0:0,0:0:0:0:
171,173,133991,6,0,P|170:242|149:374,1,191.999994140625,6|0,3:2|3:0,0:0:0:0:
74,326,134366,1,0,3:0:0:0:
68,300,134441,1,10,0:0:0:0:
244,125,134591,1,6,3:2:0:0:
441,253,134741,2,0,P|389:254|347:277,1,95.9999970703126,8|0,0:0|3:0,0:0:0:0:
377,368,134966,1,0,3:0:0:0:
390,342,135041,1,10,0:0:0:0:
244,125,135191,6,0,P|260:167|269:216,1,95.9999970703126,6|0,3:2|0:0,0:0:0:0:
110,342,135491,1,0,3:0:0:0:
67,310,135566,1,0,3:0:0:0:
56,258,135641,1,8,0:0:0:0:
81,211,135716,1,0,3:0:0:0:
128,188,135791,1,2,3:2:0:0:
160,146,135866,1,0,3:0:0:0:
163,93,135941,1,8,0:0:0:0:
119,63,136016,1,0,3:0:0:0:
71,85,136091,2,0,P|56:111|58:148,2,47.9999985351563,0|0|8,3:0|3:0|0:0,0:0:0:0:
292,191,136391,5,6,3:2:0:0:
360,44,136541,2,0,B|426:21|426:21|484:86,1,143.999995605469,8|0,0:0|3:0,0:0:0:0:
455,147,136841,1,8,0:0:0:0:
378,378,136991,1,2,3:2:0:0:
438,315,137141,1,8,0:0:0:0:
200,325,137291,1,0,3:0:0:0:
227,318,137366,1,0,3:0:0:0:
255,312,137441,1,8,0:0:0:0:
349,117,137591,5,2,3:2:0:0:
180,195,137741,2,0,B|129:154|129:154|51:177,1,143.999995605469,8|0,0:0|3:0,0:0:0:0:
70,252,138041,1,8,0:0:0:0:
165,17,138191,1,2,3:2:0:0:
35,104,138341,1,8,0:0:0:0:
218,276,138491,1,0,3:0:0:0:
213,305,138566,1,0,3:0:0:0:
208,334,138641,1,8,0:0:0:0:
324,87,138791,5,2,3:2:0:0:
434,192,138941,2,0,P|460:255|464:351,1,143.999995605469,8|0,0:0|3:0,0:0:0:0:
400,360,139241,1,8,0:0:0:0:
300,225,139391,1,2,3:2:0:0:
208,288,139541,1,8,0:0:0:0:
134,131,139691,1,0,3:0:0:0:
106,121,139766,1,0,3:0:0:0:
79,112,139841,1,8,0:0:0:0:
51,296,139991,5,6,3:2:0:0:
64,290,140066,1,0,3:0:0:0:
77,285,140141,2,0,L|88:233,1,47.9999985351563,8|0,0:0|3:0,0:0:0:0:
230,89,140291,1,8,0:0:0:0:
280,104,140366,1,0,3:0:0:0:
316,142,140441,1,8,0:0:0:0:
333,191,140516,1,8,0:0:0:0:
318,241,140591,1,2,3:2:0:0:
285,282,140666,1,8,0:0:0:0:
234,297,140741,2,0,P|204:289|182:270,2,47.9999985351563,0|0|8,3:0|3:0|0:0,0:0:0:0:
421,157,141041,2,0,P|451:165|473:184,1,47.9999985351563,8|0,0:0|3:0,0:0:0:0:
478,323,141191,5,6,3:2:0:0:
442,362,141266,1,0,3:0:0:0:
389,368,141341,1,8,0:0:0:0:
345,338,141416,1,0,3:0:0:0:
323,289,141491,1,0,3:0:0:0:
278,260,141566,1,0,3:0:0:0:
225,258,141641,1,10,0:0:0:0:
214,267,141716,1,0,3:0:0:0:
209,280,141791,2,0,P|206:305|207:343,1,47.9999985351563,0|0,3:0|3:0,0:0:0:0:
68,374,141941,1,8,0:0:0:0:
75,361,142016,1,0,3:0:0:0:
75,347,142091,2,0,P|69:322|55:287,1,47.9999985351563,0|0,3:0|3:0,0:0:0:0:
258,143,142241,2,0,P|246:165|223:196,1,47.9999985351563,8|0,0:0|3:0,0:0:0:0:
41,226,142391,5,2,3:2:0:0:
10,182,142466,1,0,3:0:0:0:
9,129,142541,1,8,0:0:0:0:
32,81,142616,1,0,3:0:0:0:
82,64,142691,1,0,3:0:0:0:
131,81,142766,1,0,3:0:0:0:
164,121,142841,1,8,0:0:0:0:
163,173,142916,1,0,3:0:0:0:
140,220,142991,1,0,3:0:0:0:
141,272,143066,1,0,3:0:0:0:
173,313,143141,1,8,0:0:0:0:
223,329,143216,1,0,3:0:0:0:
275,322,143291,2,0,P|290:298|296:273,1,47.9999985351563,0|0,3:3|3:3,0:3:0:0:
365,123,143441,2,0,P|366:151|376:174,1,47.9999985351563,8|0,0:0|3:0,0:0:0:0:
486,275,143591,5,6,3:2:0:0:
508,322,143666,1,0,3:0:0:0:
469,357,143741,1,8,0:0:0:0:
422,331,143816,1,0,3:0:0:0:
430,278,143891,1,0,3:0:0:0:
453,230,143966,1,0,3:0:0:0:
452,177,144041,1,10,0:0:0:0:
450,162,144116,1,0,3:0:0:0:
448,147,144191,2,0,L|442:90,1,47.9999985351563,4|0,3:2|3:0,0:0:0:0:
296,15,144341,1,8,0:0:0:0:
293,30,144416,1,0,3:0:0:0:
290,45,144491,2,0,L|280:101,1,47.9999985351563,0|0,3:0|3:0,0:0:0:0:
195,203,144641,2,0,L|140:215,1,47.9999985351563,8|0,0:0|3:0,0:0:0:0:
5,174,144791,5,6,3:2:0:0:
34,130,144866,1,0,3:0:0:0:
85,117,144941,1,8,0:0:0:0:
130,144,145016,1,0,3:0:0:0:
154,191,145091,1,0,3:0:0:0:
191,228,145166,1,0,3:0:0:0:
238,250,145241,1,0,3:0:0:0:
289,240,145316,1,0,3:0:0:0:
315,194,145391,1,2,3:2:0:0:
306,139,145466,1,0,3:0:0:0:
256,119,145541,2,0,P|233:123|205:147,2,47.9999985351563,8|0|8,0:0|3:0|0:0,0:0:0:0:
259,329,145841,1,8,0:0:0:0:
310,341,145916,1,8,0:0:0:0:
342,299,145991,5,6,3:2:0:0:
502,201,146141,2,0,P|438:162|386:88,1,143.999995605469,8|0,0:0|3:0,0:0:0:0:
418,35,146441,1,8,0:0:0:0:
206,182,146591,1,2,3:2:0:0:
314,144,146741,1,8,0:0:0:0:
163,40,146891,1,0,3:0:0:0:
190,47,146966,1,0,3:0:0:0:
217,54,147041,1,8,0:0:0:0:
161,273,147191,5,2,3:2:0:0:
17,122,147341,2,0,B|82:92|82:92|93:170,1,143.999995605469,8|0,0:0|3:0,0:0:0:0:
22,209,147641,1,8,0:0:0:0:
203,133,147791,1,2,3:2:0:0:
40,306,147941,1,8,0:0:0:0:
234,363,148091,1,0,3:0:0:0:
239,334,148166,1,0,3:0:0:0:
244,305,148241,1,8,0:0:0:0:
335,105,148391,5,6,3:2:0:0:
451,304,148541,2,0,P|425:237|440:155,1,143.999995605469,8|0,0:0|3:0,0:0:0:0:
502,201,148841,1,8,0:0:0:0:
376,361,148991,1,2,3:2:0:0:
284,211,149141,1,8,0:0:0:0:
116,309,149291,1,0,3:0:0:0:
90,296,149366,1,0,3:0:0:0:
63,283,149441,1,8,0:0:0:0:
158,70,149591,5,2,3:2:0:0:
151,82,149666,1,0,3:0:0:0:
144,94,149741,2,0,L|123:41,2,47.9999985351563,8|0|0,0:0|3:0|3:0,0:0:0:0:
265,62,149966,1,8,0:0:0:0:
251,65,150041,2,0,L|273:12,1,47.9999985351563,0|0,3:0|3:0,0:0:0:0:
352,133,150191,1,8,0:0:0:0:
339,125,150266,2,0,L|392:104,1,47.9999985351563,0|0,3:0|3:0,0:0:0:0:
363,243,150416,1,8,0:0:0:0:
360,229,150491,2,0,L|413:251,1,47.9999985351563,0|0,3:0|3:0,0:0:0:0:
302,345,150641,1,8,0:0:0:0:
309,333,150716,1,0,3:0:0:0:
316,321,150791,6,0,L|337:374,3,47.9999985351563,6|0|0|0,3:2|3:0|3:0|3:0,0:0:0:0:
177,188,151091,1,8,0:0:0:0:
174,201,151166,1,0,3:0:0:0:
173,214,151241,1,2,3:2:0:0:
208,252,151316,1,0,3:0:0:0:
229,300,151391,1,0,3:0:0:0:
212,350,151466,1,0,3:0:0:0:
164,372,151541,1,2,3:2:0:0:
114,352,151616,1,0,3:0:0:0:
86,306,151691,2,0,P|49:314|26:331,1,47.9999985351563,8|0,0:0|3:0,0:0:0:0:
51,203,151841,5,0,3:0:0:0:
58,213,151916,1,0,3:0:0:0:
71,213,151991,1,10,0:0:0:0:
183,19,152141,5,10,0:0:0:0:
169,75,152216,1,8,0:0:0:0:
200,123,152291,1,8,0:0:0:0:
407,34,152441,5,10,0:0:0:0:
154,271,152741,1,10,0:0:0:0:
487,370,153041,1,10,0:0:0:0:
362,195,153191,5,10,0:0:0:0:
243,310,153341,1,0,3:0:0:0:
244,321,153416,1,0,3:0:0:0:
245,332,153491,1,0,3:0:0:0:
247,343,153566,1,0,3:0:0:0:
249,354,153641,2,0,L|289:151,1,192,10|0,0:0|0:0,0:0:0:0:
173,238,153941,2,0,L|361:275,1,192,10|0,0:0|0:0,0:0:0:0:
361,275,155291,1,0,3:0:0:0:
372,273,155366,1,0,3:0:0:0:
383,271,155441,1,0,3:0:0:0:
394,269,155516,1,0,3:0:0:0:
405,267,155591,6,0,L|407:210,1,55.9999982910157,10|0,0:0|0:0,0:0:0:0:
432,342,156041,2,0,B|447:284|361:217|392:133,1,215.999993408203,10|0,0:0|0:0,0:0:0:0:
247,252,156341,2,0,B|237:211|267:199|257:152,1,95.9999970703126,10|0,0:0|0:0,0:0:0:0:
172,68,156491,5,0,3:0:0:0:
160,71,156566,1,0,3:0:0:0:
148,74,156641,1,0,3:0:0:0:
136,78,156716,1,0,3:0:0:0:
124,82,156791,2,0,L|62:65,1,60,6|0,3:2|0:0,0:0:0:0:
31,209,157091,5,8,0:0:0:0:
65,199,157166,1,8,0:0:0:0:
99,189,157241,1,8,0:0:0:0:
133,179,157316,1,8,0:0:0:0:
167,169,157391,2,0,L|299:209,1,120,6|0,3:2|0:0,0:0:0:0:
355,301,157691,5,8,0:0:0:0:
362,265,157766,1,8,0:0:0:0:
369,229,157841,1,8,0:0:0:0:
377,193,157916,1,8,0:0:0:0:
385,157,157991,5,6,3:2:0:0:
444,305,158291,1,0,3:0:0:0:
296,364,158591,1,2,3:2:0:0:
237,216,158891,1,2,3:2:0:0:
31,95,159191,5,6,3:2:0:0:
6,277,159491,1,0,3:0:0:0:
187,301,159791,1,2,3:2:0:0:
212,120,160091,1,2,3:2:0:0:
465,27,160391,5,10,0:0:0:0:
335,193,160541,1,0,3:0:0:0:
333,181,160616,1,0,3:0:0:0:
331,169,160691,1,0,3:0:0:0:
329,157,160766,1,0,3:0:0:0:
327,145,160841,2,0,L|387:88,1,80,14|0,0:0|0:0,0:0:0:0:
192,24,161141,1,0,3:0:0:0:
196,35,161216,1,0,3:0:0:0:
200,46,161291,1,10,0:0:0:0:
56,127,161441,5,0,3:0:0:0:
61,150,161516,1,0,3:0:0:0:
67,173,161591,2,0,L|218:212,1,143.999995605469,14|0,0:0|0:0,0:0:0:0:
396,165,161891,5,0,3:0:0:0:
397,176,161966,1,0,3:0:0:0:
398,187,162041,1,0,3:0:0:0:
399,198,162116,1,0,3:0:0:0:
400,209,162191,2,0,P|308:244|254:335,1,180.000006866455,14|0,0:0|0:0,0:0:0:0:
112,368,162491,5,0,3:0:0:0:
110,356,162566,1,0,3:0:0:0:
108,344,162641,1,0,3:0:0:0:
106,332,162716,1,0,3:0:0:0:
104,320,162791,6,0,B|104:226|104:226|149:116|149:116|149:26,1,300,14|0,0:0|0:0,0:0:0:0:
149,28,163991,5,10,0:0:0:0:
383,79,164141,1,8,0:0:0:0:
149,28,164741,1,10,0:0:0:0:
264,54,164891,1,10,0:0:0:0:
383,79,165041,1,8,0:0:0:0:
363,356,166391,5,10,0:0:0:0:
129,305,166541,1,8,0:0:0:0:
363,356,167141,1,10,0:0:0:0:
248,330,167291,1,10,0:0:0:0:
129,305,167441,1,8,0:0:0:0:
248,330,168341,1,0,3:0:0:0:
251,341,168416,1,0,3:0:0:0:
254,352,168491,2,0,L|266:267,1,71.9999978027344,8|0,0:0|0:0,0:0:0:0:
264,280,168791,5,6,3:2:0:0:
57,254,169091,1,0,3:0:0:0:
82,48,169391,1,10,0:0:0:0:
289,73,169691,1,0,3:0:0:0:
155,310,169991,5,2,3:2:0:0:
27,145,170291,1,0,3:0:0:0:
190,17,170591,1,10,0:0:0:0:
319,181,170891,1,0,3:0:0:0:
10,248,171191,5,6,3:2:0:0:
229,115,171491,1,0,3:0:0:0:
471,195,171791,1,10,0:0:0:0:
252,328,172091,1,0,3:0:0:0:
129,288,172241,1,8,0:0:0:0:
10,248,172391,5,10,0:0:0:0:
11,259,172466,1,0,3:0:0:0:
12,270,172541,1,0,3:0:0:0:
13,281,172616,1,0,3:0:0:0:
14,292,172691,2,0,L|18:340,1,40,0|0,3:0|3:0,0:0:0:0:
129,288,172841,1,10,0:0:0:0:
130,299,172916,1,0,3:0:0:0:
131,310,172991,1,0,3:0:0:0:
132,321,173066,1,0,3:0:0:0:
133,332,173141,2,0,L|137:380,1,40,0|0,3:0|3:0,0:0:0:0:
252,328,173291,2,0,L|239:203,1,120,10|0,0:0|0:0,0:0:0:0:
169,19,173591,5,6,3:2:0:0:
132,42,173666,1,0,3:0:0:0:
120,84,173741,1,0,3:0:0:0:
141,122,173816,1,0,3:0:0:0:
184,131,173891,1,0,3:0:0:0:
222,110,173966,1,0,3:0:0:0:
253,79,174041,1,2,3:2:0:0:
264,77,174116,1,0,3:0:0:0:
275,78,174191,2,0,P|298:92|315:108,1,40,8|0,0:0|3:0,0:0:0:0:
433,177,174341,1,2,3:2:0:0:
442,183,174416,1,0,3:0:0:0:
449,191,174491,2,0,P|455:217|456:240,1,40,0|0,3:0|3:0,0:0:0:0:
370,344,174641,2,0,P|356:367|340:384,1,40,0|0,3:0|3:0,0:0:0:0:
163,327,174791,5,6,3:2:0:0:
191,293,174866,1,0,3:0:0:0:
188,249,174941,1,0,3:0:0:0:
158,216,175016,1,0,3:0:0:0:
114,216,175091,1,0,3:0:0:0:
85,249,175166,1,0,3:0:0:0:
79,292,175241,1,2,3:2:0:0:
82,303,175316,1,0,3:0:0:0:
86,313,175391,2,0,L|30:305,1,40,8|0,0:0|3:0,0:0:0:0:
225,346,175541,1,2,3:2:0:0:
228,357,175616,1,0,3:0:0:0:
232,367,175691,2,0,L|176:359,1,40,0|0,3:0|3:0,0:0:0:0:
382,350,175841,2,0,L|326:342,1,40,0|0,3:0|3:0,0:0:0:0:
233,193,175991,5,6,3:2:0:0:
217,151,176066,1,0,3:0:0:0:
226,107,176141,1,0,3:0:0:0:
256,75,176216,1,0,3:0:0:0:
299,73,176291,1,0,3:0:0:0:
339,90,176366,1,0,3:0:0:0:
355,130,176441,1,2,3:2:0:0:
358,141,176516,1,0,3:0:0:0:
358,153,176591,2,0,P|336:165|315:164,1,40,8|0,0:0|3:0,0:0:0:0:
165,51,176741,1,2,3:2:0:0:
162,40,176816,1,0,3:0:0:0:
162,28,176891,2,0,P|183:15|205:17,1,40,0|0,3:0|3:0,0:0:0:0:
69,137,177041,2,0,P|47:149|26:148,1,40,0|0,3:0|3:0,0:0:0:0:
122,305,177191,5,6,3:2:0:0:
121,261,177266,1,0,3:0:0:0:
144,223,177341,1,0,3:0:0:0:
184,206,177416,1,0,3:0:0:0:
227,210,177491,2,0,P|242:224|256:248,1,40,0|0,3:0|3:0,0:0:0:0:
333,371,177641,2,0,P|334:351|340:332,1,40,2|0,3:2|3:0,0:0:0:0:
457,237,177791,1,8,0:0:0:0:
474,188,177866,1,8,0:0:0:0:
457,138,177941,2,0,P|436:124|415:120,2,40,2|0|0,3:2|3:0|3:0,0:0:0:0:
265,106,178241,2,0,P|255:88|252:68,1,40,0|0,3:0|3:0,0:0:0:0:
40,13,178391,5,6,3:2:0:0:
83,19,178466,1,0,3:0:0:0:
119,43,178541,1,0,3:0:0:0:
133,84,178616,1,0,3:0:0:0:
124,127,178691,1,8,0:0:0:0:
90,155,178766,1,0,3:0:0:0:
55,181,178841,1,0,3:0:0:0:
40,222,178916,1,0,3:0:0:0:
49,265,178991,2,0,P|70:279|107:281,3,40,2|0|0|0,3:2|3:0|3:0|3:0,0:0:0:0:
210,359,179291,2,0,P|234:354|262:329,3,40,8|0|0|0,0:0|3:0|3:0|3:0,0:0:0:0:
343,219,179591,5,6,3:2:0:0:
386,197,179666,1,0,3:0:0:0:
429,194,179741,1,0,3:0:0:0:
463,221,179816,1,0,3:0:0:0:
479,261,179891,1,8,0:0:0:0:
486,304,179966,1,0,3:0:0:0:
467,343,180041,1,0,3:0:0:0:
428,363,180116,1,0,3:0:0:0:
402,327,180191,2,0,P|397:304|402:275,3,40,2|0|0|0,3:2|3:0|3:0|3:0,0:0:0:0:
275,202,180491,2,0,P|282:179|301:156,3,40,8|0|0|0,0:0|3:0|3:0|3:0,0:0:0:0:
205,44,180791,5,6,3:2:0:0:
248,38,180866,1,0,3:0:0:0:
292,32,180941,1,0,3:0:0:0:
336,27,181016,1,0,3:0:0:0:
371,50,181091,1,10,0:0:0:0:
377,95,181166,1,0,3:0:0:0:
383,139,181241,1,0,3:0:0:0:
388,182,181316,1,0,3:0:0:0:
366,220,181391,1,10,0:0:0:0:
322,226,181466,1,0,3:0:0:0:
278,232,181541,1,0,3:0:0:0:
235,237,181616,1,0,3:0:0:0:
199,213,181691,1,10,0:0:0:0:
193,169,181766,1,0,3:0:0:0:
188,125,181841,1,0,3:0:0:0:
182,82,181916,1,0,3:0:0:0:
205,44,181991,6,0,L|249:38,1,40,14|0,0:0|3:0,0:0:0:0:
484,90,182141,1,0,3:0:0:0:
473,140,182216,1,0,3:0:0:0:
464,190,182291,1,0,3:0:0:0:
454,241,182366,1,0,3:0:0:0:
445,291,182441,2,0,L|435:339,1,40,10|0,0:0|3:0,0:0:0:0:
261,363,182591,1,0,3:0:0:0:
212,344,182666,1,0,3:0:0:0:
163,325,182741,1,0,3:0:0:0:
114,306,182816,1,0,3:0:0:0:
65,287,182891,2,0,L|36:165,1,120,10|0,0:0|0:0,0:0:0:0:
37,170,183191,5,6,3:2:0:0:
201,23,183341,2,0,P|159:51|87:66,1,120,8|0,0:0|3:0,0:0:0:0:
38,8,183641,1,10,0:0:0:0:
202,229,183791,1,0,3:0:0:0:
234,116,183941,1,10,0:0:0:0:
38,171,184091,1,0,3:0:0:0:
41,182,184166,1,0,3:0:0:0:
44,193,184241,1,8,0:0:0:0:
253,365,184391,5,2,3:2:0:0:
0,310,184541,2,0,P|59:278|132:267,1,120,8|0,0:0|3:0,0:0:0:0:
140,337,184841,1,10,0:0:0:0:
352,366,184991,1,0,3:0:0:0:
386,208,185141,1,10,0:0:0:0:
497,302,185291,1,0,3:0:0:0:
499,313,185366,1,0,3:0:0:0:
501,324,185441,1,8,0:0:0:0:
254,262,185591,5,6,3:2:0:0:
157,68,185741,2,0,P|170:108|117:172,1,120,8|0,0:0|3:0,0:0:0:0:
64,132,186041,1,10,0:0:0:0:
29,16,186191,1,0,3:0:0:0:
263,116,186341,1,10,0:0:0:0:
335,58,186491,1,0,3:0:0:0:
337,46,186566,1,0,3:0:0:0:
340,34,186641,1,8,0:0:0:0:
451,276,186791,5,2,3:2:0:0:
393,178,186941,2,0,P|424:155|449:111,1,80,8|0,0:0|3:0,0:0:0:0:
466,47,187166,1,0,3:0:0:0:
451,28,187241,2,0,P|376:22|288:6,1,160,10|8,0:0|0:0,0:0:0:0:
207,153,187691,2,0,P|218:133|238:115,2,40,0|0|8,3:0|3:0|0:0,0:0:0:0:
18,49,187991,5,6,3:2:0:0:
51,27,188066,1,0,3:0:0:0:
90,26,188141,1,8,0:0:0:0:
123,48,188216,1,0,3:0:0:0:
131,87,188291,1,0,3:0:0:0:
105,117,188366,1,0,3:0:0:0:
80,148,188441,1,10,0:0:0:0:
69,186,188516,1,0,3:0:0:0:
73,225,188591,2,0,P|85:248|101:262,1,40,0|0,3:0|3:0,0:0:0:0:
244,303,188741,1,0,3:0:0:0:
77,384,188891,2,0,P|90:361|106:348,1,40,2|0,3:2|3:0,0:0:0:0:
242,283,189041,1,8,0:0:0:0:
7,310,189191,5,2,3:2:0:0:
181,144,189341,1,10,0:0:0:0:
190,136,189416,1,0,3:0:0:0:
201,132,189491,2,0,P|209:151|219:184,3,40,0|0|8|0,3:0|3:0|0:0|3:0,0:0:0:0:
310,221,189791,2,0,P|320:179|317:130,1,80,2|8,3:2|0:0,0:0:0:0:
114,64,190091,2,0,P|98:82|87:112,1,40,2|0,3:2|3:0,0:0:0:0:
95,219,190241,1,8,0:0:0:0:
213,331,190391,5,6,3:2:0:0:
249,348,190466,1,0,3:0:0:0:
288,348,190541,1,8,0:0:0:0:
319,323,190616,1,0,3:0:0:0:
328,284,190691,1,2,3:2:0:0:
317,245,190766,1,0,3:0:0:0:
306,206,190841,1,8,0:0:0:0:
295,167,190916,1,0,3:0:0:0:
298,127,190991,1,2,3:2:0:0:
327,100,191066,1,0,3:0:0:0:
362,93,191141,1,8,0:0:0:0:
401,114,191216,1,0,3:0:0:0:
433,143,191291,2,0,P|451:142|471:112,2,40,0|0|10,3:0|3:0|0:0,0:0:0:0:
290,8,191591,5,2,3:2:0:0:
288,19,191666,1,0,3:0:0:0:
285,30,191741,2,0,P|230:40|153:62,1,120,8|0,0:0|3:0,0:0:0:0:
128,128,192041,1,10,0:0:0:0:
41,9,192191,1,0,3:0:0:0:
204,164,192341,1,10,0:0:0:0:
68,213,192491,1,0,3:0:0:0:
70,201,192566,1,0,3:0:0:0:
72,189,192641,1,8,0:0:0:0:
160,377,192791,6,0,P|199:353|241:337,1,80,6|8,3:2|0:0,0:0:0:0:
204,218,193091,1,2,3:2:0:0:
180,219,193166,1,0,3:0:0:0:
162,202,193241,1,8,0:0:0:0:
317,17,193391,2,0,P|304:59|294:146,1,120,2|2,3:2|3:2,0:0:0:0:
348,190,193691,2,0,P|329:204|303:214,1,40,0|0,3:0|3:0,0:0:0:0:
210,64,193841,1,10,0:0:0:0:
433,106,193991,6,0,P|436:65|426:26,1,80,0|8,3:0|0:0,0:0:0:0:
151,134,194291,1,2,3:2:0:0:
174,140,194366,1,0,3:0:0:0:
197,146,194441,1,8,0:0:0:0:
331,265,194591,1,2,3:2:0:0:
356,367,194741,1,8,0:0:0:0:
476,218,194891,1,2,3:2:0:0:
453,226,194966,1,0,3:0:0:0:
430,235,195041,1,8,0:0:0:0:
244,338,195191,5,0,3:0:0:0:
97,218,195341,1,10,0:0:0:0:
13,321,195491,2,0,L|22:269,2,40,0|0|8,3:0|3:0|0:0,0:0:0:0:
157,96,195791,2,0,P|98:98|67:152,1,120,2|0,3:2|3:0,0:0:0:0:
97,218,196091,2,0,L|138:204,1,40,2|0,3:2|3:0,0:0:0:0:
272,160,196241,1,8,0:0:0:0:
167,364,196391,5,0,3:0:0:0:
213,241,196541,1,8,0:0:0:0:
367,338,196691,1,2,3:2:0:0:
361,314,196766,1,0,3:0:0:0:
355,290,196841,1,8,0:0:0:0:
469,139,196991,2,0,P|428:137|382:115,1,80,6|8,3:2|0:0,0:0:0:0:
359,46,197216,1,8,0:0:0:0:
382,42,197291,1,2,3:2:0:0:
313,210,197441,1,8,0:0:0:0:
290,214,197516,1,8,0:0:0:0:
266,218,197591,6,0,L|259:175,3,40,2|0|0|0,3:2|3:0|3:0|3:0,0:0:0:0:
184,110,197891,2,0,L|156:76,3,40,0|0|0|0,3:0|3:0|3:0|3:0,0:0:0:0:
64,44,198191,1,10,0:0:0:0:
44,57,198266,1,0,3:0:0:0:
34,78,198341,1,0,3:0:0:0:
35,101,198416,1,0,3:0:0:0:
48,120,198491,1,0,3:0:0:0:
61,139,198566,1,0,3:0:0:0:
63,162,198641,1,0,3:0:0:0:
53,184,198716,1,0,3:0:0:0:
46,207,198791,6,0,L|53:258,3,40,2|0|0|0,3:2|3:0|3:0|3:0,0:0:0:0:
143,342,199091,2,0,L|150:291,3,40,0|0|0|0,3:0|3:0|3:0|3:0,0:0:0:0:
225,211,199391,1,10,0:0:0:0:
254,199,199466,1,0,3:0:0:0:
284,201,199541,1,0,3:0:0:0:
311,216,199616,1,0,3:0:0:0:
329,243,199691,1,0,3:0:0:0:
348,268,199766,1,0,3:0:0:0:
377,280,199841,1,0,3:0:0:0:
408,274,199916,1,0,3:0:0:0:
435,258,199991,6,0,L|428:211,1,40,10|0,0:0|3:0,0:0:0:0:
260,288,200141,1,0,3:0:0:0:
258,299,200216,1,0,3:0:0:0:
256,310,200291,1,0,3:0:0:0:
254,321,200366,1,0,3:0:0:0:
252,332,200441,2,0,L|284:368,1,40,10|0,0:0|3:0,0:0:0:0:
375,163,200591,1,0,3:0:0:0:
377,152,200666,1,0,3:0:0:0:
379,141,200741,2,0,L|347:105,1,40,8|0,0:0|3:0,0:0:0:0:
292,25,200891,2,0,L|251:51,1,40,8|0,0:0|3:0,0:0:0:0:
155,67,201041,2,0,L|109:51,1,40,8|0,0:0|3:0,0:0:0:0:
70,149,201191,5,10,0:0:0:0:
256,342,201341,1,10,0:0:0:0:
442,149,201491,1,10,0:0:0:0:
442,149,202391,5,6,3:2:0:0:
70,149,203591,1,6,3:2:0:0:
256,24,204791,5,6,3:2:0:0:
256,360,205391,1,6,3:2:0:0:
70,149,205991,5,6,3:2:0:0:
442,149,206291,1,6,3:2:0:0:
173,277,206591,5,8,0:0:0:0:
339,277,206741,1,0,3:1:0:0:
339,265,206816,1,0,3:0:0:0:
339,253,206891,1,0,3:0:0:0:
339,241,206966,1,0,3:0:0:0:
339,229,207041,1,0,3:0:0:0:
339,217,207116,1,0,3:0:0:0:
339,205,207191,5,6,3:2:0:0:
120,44,207491,1,0,3:0:0:0:
89,142,207641,1,8,0:0:0:0:
190,119,207791,1,0,3:0:0:0:
120,44,208091,1,8,0:0:0:0:
89,142,208391,5,0,3:0:0:0:
220,16,208541,1,10,0:0:0:0:
260,195,208691,1,0,3:0:0:0:
89,142,208991,1,8,0:0:0:0:
120,44,209291,1,0,3:0:0:0:
190,119,209441,1,8,0:0:0:0:
380,30,209591,5,10,0:0:0:0:
378,41,209666,1,0,3:0:0:0:
377,52,209741,1,0,3:0:0:0:
376,63,209816,1,0,3:0:0:0:
375,74,209891,1,8,0:0:0:0:
488,220,210041,6,0,L|497:271,1,40,2|0,3:2|0:0,0:0:0:0:
342,324,210341,2,0,L|335:375,1,40,2|0,3:2|0:0,0:0:0:0:
246,190,210641,6,4,L|138:254,1,120,6|4,3:2|0:0,0:0:0:0:
43,364,210941,1,0,3:0:0:0:
35,354,211016,1,0,3:0:0:0:
33,342,211091,1,0,3:0:0:0:
37,330,211166,1,0,3:0:0:0:
45,321,211241,1,0,3:0:0:0:
56,317,211316,1,0,3:0:0:0:
66,322,211391,2,0,P|91:330|113:332,1,40,8|8,0:0|0:0,0:0:0:0:
189,147,211541,2,0,P|169:150|150:156,1,40,0|0,3:0|3:0,0:0:0:0:
10,231,211691,1,8,0:0:0:0:
179,280,211841,1,10,0:0:0:0:
181,291,211916,1,8,0:0:0:0:
183,302,211991,5,6,3:2:0:0:
209,256,212066,1,0,3:0:0:0:
258,237,212141,1,8,0:0:0:0:
309,247,212216,1,0,3:0:0:0:
353,274,212291,1,0,3:0:0:0:
373,322,212366,1,0,3:0:0:0:
378,374,212441,1,10,0:0:0:0:
391,378,212516,1,0,3:0:0:0:
405,377,212591,2,0,L|420:328,1,47.9999985351563,0|0,3:0|3:0,0:0:0:0:
375,126,212741,1,8,0:0:0:0:
362,122,212816,1,0,3:0:0:0:
348,123,212891,2,0,L|333:172,1,47.9999985351563,0|0,3:0|3:0,0:0:0:0:
257,287,213041,2,0,L|194:271,1,47.9999985351563,8|0,0:0|3:0,0:0:0:0:
2,345,213191,5,2,3:2:0:0:
47,372,213266,1,0,3:0:0:0:
97,356,213341,1,8,0:0:0:0:
129,314,213416,1,0,3:0:0:0:
134,261,213491,1,0,3:0:0:0:
104,217,213566,1,0,3:0:0:0:
62,184,213641,1,8,0:0:0:0:
21,150,213716,1,0,3:0:0:0:
9,98,213791,1,0,3:0:0:0:
24,47,213866,1,0,3:0:0:0:
70,21,213941,1,8,0:0:0:0:
121,30,214016,1,0,3:0:0:0:
154,70,214091,2,0,P|150:95|130:127,1,47.9999985351563,0|0,3:0|3:0,0:0:0:0:
215,334,214241,2,0,P|221:308|243:278,1,47.9999985351563,8|0,0:0|3:0,0:0:0:0:
377,156,214391,5,6,3:2:0:0:
429,150,214466,1,0,3:0:0:0:
476,173,214541,1,8,0:0:0:0:
507,215,214616,1,0,3:0:0:0:
509,267,214691,1,0,3:0:0:0:
479,310,214766,1,0,3:0:0:0:
426,310,214841,1,10,0:0:0:0:
413,301,214916,1,0,3:0:0:0:
410,286,214991,2,0,P|410:252|424:213,1,47.9999985351563,4|0,3:2|3:0,0:0:0:0:
302,39,215141,1,8,0:0:0:0:
287,36,215216,1,0,3:0:0:0:
274,44,215291,2,0,P|251:67|238:87,1,47.9999985351563,0|0,3:0|3:0,0:0:0:0:
78,124,215441,2,0,P|71:155|73:180,1,47.9999985351563,8|0,0:0|3:0,0:0:0:0:
119,319,215591,5,6,3:2:0:0:
167,339,215666,1,0,3:0:0:0:
219,330,215741,1,8,0:0:0:0:
259,295,215816,1,0,3:0:0:0:
264,242,215891,1,0,3:0:0:0:
247,191,215966,1,0,3:0:0:0:
233,139,216041,1,8,0:0:0:0:
246,88,216116,1,0,3:0:0:0:
295,70,216191,1,2,3:2:0:0:
307,75,216266,1,0,3:0:0:0:
315,86,216341,2,0,L|337:142,2,47.9999985351563,8|0|8,0:0|3:0|0:0,0:0:0:0:
486,17,216641,2,0,L|464:73,1,47.9999985351563,8|0,0:0|3:0,0:0:0:0:
423,199,216791,5,6,3:2:0:0:
325,321,216941,2,0,P|381:292|469:279,1,143.999995605469,8|0,0:0|3:0,0:0:0:0:
485,352,217241,1,8,0:0:0:0:
283,220,217391,1,2,3:2:0:0:
236,367,217541,1,8,0:0:0:0:
113,284,217691,1,0,3:0:0:0:
119,312,217766,1,0,3:0:0:0:
126,339,217841,1,8,0:0:0:0:
5,250,217991,5,2,3:2:0:0:
170,170,218141,2,0,B|97:161|97:161|52:98,1,143.999995605469,8|0,0:0|3:0,0:0:0:0:
93,35,218441,1,8,0:0:0:0:
294,160,218591,1,2,3:2:0:0:
263,9,218741,1,8,0:0:0:0:
426,101,218891,1,0,3:0:0:0:
440,75,218966,1,0,3:0:0:0:
453,49,219041,1,8,0:0:0:0:
354,247,219191,5,6,3:2:0:0:
171,97,219341,2,0,P|235:62|327:62,1,143.999995605469,8|0,0:0|3:0,0:0:0:0:
334,130,219641,1,8,0:0:0:0:
241,329,219791,1,2,3:2:0:0:
179,181,219941,1,8,0:0:0:0:
30,249,220091,1,0,3:0:0:0:
27,277,220166,1,0,3:0:0:0:
25,305,220241,1,8,0:0:0:0:
120,121,220391,5,2,3:2:0:0:
119,106,220466,1,0,3:0:0:0:
118,91,220541,2,0,L|115:43,2,47.9999985351563,8|0|0,0:0|3:0|3:0,0:0:0:0:
207,161,220766,1,8,0:0:0:0:
209,146,220841,2,0,L|218:98,1,47.9999985351563,0|0,3:0|3:0,0:0:0:0:
109,214,220991,1,8,0:0:0:0:
114,227,221066,2,0,L|135:270,1,47.9999985351563,0|0,3:0|3:0,0:0:0:0:
287,328,221216,1,8,0:0:0:0:
277,316,221291,2,0,L|245:279,1,47.9999985351563,0|0,3:0|3:0,0:0:0:0:
398,292,221441,1,8,0:0:0:0:
412,299,221516,1,0,3:0:0:0:
425,306,221591,6,0,L|468:327,3,47.9999985351563,6|0|0|0,3:2|3:0|3:0|3:0,0:0:0:0:
404,186,221891,1,8,0:0:0:0:
401,171,221966,1,0,3:0:0:0:
399,156,222041,1,2,3:2:0:0:
446,132,222116,1,0,3:0:0:0:
465,82,222191,1,0,3:0:0:0:
449,31,222266,1,0,3:0:0:0:
400,10,222341,1,2,3:2:0:0:
349,24,222416,1,0,3:0:0:0:
325,71,222491,2,0,P|326:98|337:123,1,47.9999985351563,8|0,0:0|3:0,0:0:0:0:
225,180,222641,5,0,3:0:0:0:
211,176,222716,1,0,3:0:0:0:
197,172,222791,1,10,0:0:0:0:
434,283,222941,5,10,0:0:0:0:
379,300,223016,1,8,0:0:0:0:
324,317,223091,1,8,0:0:0:0:
182,77,223241,5,10,0:0:0:0:
369,212,223541,1,10,0:0:0:0:
482,12,223841,1,10,0:0:0:0:
351,123,223991,5,10,0:0:0:0:
455,248,224141,1,0,3:0:0:0:
458,259,224216,1,0,3:0:0:0:
461,270,224291,1,0,3:0:0:0:
464,281,224366,1,0,3:0:0:0:
467,292,224441,2,0,P|394:250|299:231,1,167.999994873047,10|0,0:0|0:0,0:0:0:0:
425,174,224741,2,0,P|394:252|332:327,1,167.999994873047,10|0,0:0|0:0,0:0:0:0:
343,317,226091,1,0,3:0:0:0:
331,319,226166,1,0,3:0:0:0:
319,321,226241,1,0,3:0:0:0:
307,323,226316,1,0,3:0:0:0:
295,325,226391,6,0,L|229:303,1,55.9999982910157,10|0,0:0|0:0,0:0:0:0:
182,373,226841,2,0,B|245:371|298:245|362:241,1,215.999993408203,10|0,0:0|0:0,0:0:0:0:
178,113,227141,2,0,B|207:113|236:139|269:146,1,95.9999970703126,10|0,0:0|0:0,0:0:0:0:
331,12,227291,5,0,3:0:0:0:
334,23,227366,1,0,3:0:0:0:
337,34,227441,1,0,3:0:0:0:
340,45,227516,1,0,3:0:0:0:
343,56,227591,2,0,L|383:111,1,60,6|0,3:2|0:0,0:0:0:0:
490,193,227891,5,8,0:0:0:0:
478,227,227966,1,8,0:0:0:0:
466,261,228041,1,8,0:0:0:0:
454,295,228116,1,8,0:0:0:0:
443,329,228191,2,0,L|322:380,1,120,6|0,3:2|0:0,0:0:0:0:
194,315,228491,5,8,0:0:0:0:
158,310,228566,1,8,0:0:0:0:
122,305,228641,1,8,0:0:0:0:
86,300,228716,1,8,0:0:0:0:
50,295,228791,5,6,3:2:0:0:
144,276,229091,1,0,3:0:0:0:
285,248,229391,1,2,3:2:0:0:
473,212,229691,1,2,3:2:0:0:
45,276,229991,5,6,3:2:0:0:
122,219,230291,1,0,3:0:0:0:
239,135,230591,1,2,3:2:0:0:
395,23,230891,1,2,3:2:0:0:
28,255,231191,5,10,0:0:0:0:
170,366,231341,1,0,3:0:0:0:
168,354,231416,1,0,3:0:0:0:
167,342,231491,1,0,3:0:0:0:
166,330,231566,1,0,3:0:0:0:
165,318,231641,2,0,L|178:235,1,80,14|0,0:0|0:0,0:0:0:0:
313,331,231941,1,0,3:0:0:0:
309,319,232016,1,0,3:0:0:0:
305,307,232091,1,10,0:0:0:0:
422,253,232241,5,0,3:0:0:0:
402,240,232316,1,0,3:0:0:0:
382,227,232391,2,0,B|349:165|349:165|362:79,1,143.999995605469,14|0,0:0|0:0,0:0:0:0:
182,33,232691,5,0,3:0:0:0:
191,29,232766,1,0,3:0:0:0:
202,25,232841,1,0,3:0:0:0:
213,21,232916,1,0,3:0:0:0:
223,17,232991,2,0,B|274:91|274:91|258:186,1,167.999994873047,14|0,0:0|0:0,0:0:0:0:
68,263,233291,5,0,3:0:0:0:
56,261,233366,1,0,3:0:0:0:
44,259,233441,1,0,3:0:0:0:
32,257,233516,1,0,3:0:0:0:
20,255,233591,6,0,B|109:157|274:237|248:322|414:400|492:304,1,527.999983886719,6|0,3:2|0:0,0:0:0:0:
492,303,234491,6,0,L|475:236,1,64,10|0,0:0|0:0,0:0:0:0:
317,141,234641,2,0,L|300:202,1,64,10|0,0:0|0:0,0:0:0:0:
