osu file format v14

[General]
AudioFilename: audio.mp3
AudioLeadIn: 0
PreviewTime: 68441
Countdown: 0
SampleSet: Soft
StackLeniency: 0.7
Mode: 0
LetterboxInBreaks: 0
WidescreenStoryboard: 1

[Editor]
Bookmarks: 16391,28391,40391,49991,59591,69191,78791,90791,100391,112391,121991,131591,141191,153191,163991,173591,183191,192791,202391,211991,223991,234791
DistanceSpacing: 0.3
BeatDivisor: 4
GridSize: 16
TimelineZoom: 2.899999

[Metadata]
Title:Veracila
TitleUnicode:Veracila
Artist:DUAL ALTER WORLD
ArtistUnicode:DUAL ALTER WORLD
Creator:Hinsvar
Version:Insane
Source:
Tags:ALTER EGO Japanese Metal Rock J-Metal JMetal J-Rock JRock 小岩井ことり Koiwai Kotori RYU Featured Artist FA Mappers' Guild MPG
BeatmapID:2965579
BeatmapSetID:1428384

[Difficulty]
HPDrainRate:5
CircleSize:4
OverallDifficulty:8
ApproachRate:9
SliderMultiplier:1.36
SliderTickRate:1

[Events]
//Background and Video events
0,0,"veracila.jpg",0,0
//Break Periods
//Storyboard Layer 0 (Background)
//Storyboard Layer 1 (Fail)
//Storyboard Layer 2 (Pass)
//Storyboard Layer 3 (Foreground)
//Storyboard Layer 4 (Overlay)
//Storyboard Sound Samples

[TimingPoints]
1236,348.837209302326,4,2,1,70,1,0
15791,300,4,2,1,70,1,0
16391,300,4,2,1,70,1,0
16841,-100,4,2,1,70,0,0
17066,-100,4,2,1,5,0,0
17141,-100,4,2,1,70,0,0
17366,-100,4,2,1,5,0,0
18491,-100,4,2,1,70,0,0
19466,-100,4,2,1,5,0,0
19541,-100,4,2,1,70,0,0
20216,-100,4,2,1,5,0,0
20291,-100,4,2,1,70,0,0
20816,-100,4,2,1,5,0,0
20891,-100,4,2,1,70,0,0
25016,-100,4,2,1,5,0,0
25091,-100,4,2,1,70,0,0
25391,-100,4,2,1,70,0,0
25616,-100,4,2,1,70,0,0
25691,-100,4,2,1,70,0,0
28391,-100,4,2,1,80,0,0
33191,-100,4,2,1,75,0,0
40391,-125,4,2,1,60,0,0
49991,-111.111111111111,4,2,1,65,0,0
51566,-111.111111111111,4,2,1,5,0,0
51791,-111.111111111111,4,2,1,65,0,0
51866,-111.111111111111,4,2,1,5,0,0
52091,-111.111111111111,4,2,1,65,0,0
52166,-111.111111111111,4,2,1,5,0,0
52391,-111.111111111111,4,2,1,65,0,0
54116,-111.111111111111,4,2,1,5,0,0
54191,-111.111111111111,4,2,1,65,0,0
54416,-111.111111111111,4,2,1,5,0,0
54491,-111.111111111111,4,2,1,65,0,0
54716,-111.111111111111,4,2,1,5,0,0
54791,-111.111111111111,4,2,1,65,0,0
59591,-100,4,2,1,70,0,0
67991,-100,4,2,1,75,0,0
69191,-90.9090909090909,4,2,1,85,0,1
78641,-90.9090909090909,4,2,1,85,0,0
78791,-90.9090909090909,4,2,1,85,0,1
90791,-100,4,2,1,80,0,0
95591,-166.666666666667,4,2,1,70,0,0
100391,-125,4,2,1,70,0,0
102791,-125,4,2,1,60,0,0
112391,-111.111111111111,4,2,1,65,0,0
113966,-111.111111111111,4,2,1,5,0,0
114191,-111.111111111111,4,2,1,65,0,0
114266,-111.111111111111,4,2,1,5,0,0
114491,-111.111111111111,4,2,1,65,0,0
114566,-111.111111111111,4,2,1,5,0,0
114791,-111.111111111111,4,2,1,65,0,0
116516,-111.111111111111,4,2,1,5,0,0
116591,-111.111111111111,4,2,1,65,0,0
116816,-111.111111111111,4,2,1,5,0,0
116891,-111.111111111111,4,2,1,65,0,0
117116,-111.111111111111,4,2,1,5,0,0
117191,-111.111111111111,4,2,1,65,0,0
121991,-100,4,2,1,70,0,0
130391,-100,4,2,1,75,0,0
131591,-90.9090909090909,4,2,1,85,0,1
141041,-90.9090909090909,4,2,1,85,0,0
141191,-90.9090909090909,4,2,1,85,0,1
153191,-100,4,2,1,70,0,0
153866,-100,4,2,1,5,0,0
153941,-100,4,2,1,70,0,0
154166,-100,4,2,1,5,0,0
155291,-100,4,2,1,70,0,0
155591,-100,4,2,1,70,0,0
156266,-100,4,2,1,5,0,0
156341,-100,4,2,1,70,0,0
157016,-100,4,2,1,5,0,0
157091,-100,4,2,1,70,0,0
157616,-100,4,2,1,5,0,0
157691,-100,4,2,1,70,0,0
161591,-100,4,2,1,70,0,0
161816,-100,4,2,1,5,0,0
161891,-100,4,2,1,70,0,0
162191,-100,4,2,1,70,0,0
162416,-100,4,2,1,5,0,0
162491,-100,4,2,1,70,0,0
162791,-142.857142857143,4,2,1,70,0,0
163916,-25,4,2,1,5,0,0
163991,-100,4,2,1,65,0,0
168716,-166.666666666667,4,2,1,5,0,0
168791,-100,4,2,1,65,0,0
173516,-100,4,2,1,5,0,0
173591,-100,4,2,1,75,0,0
178166,-100,4,2,1,75,0,0
178241,-100,4,2,1,75,0,0
183116,-100,4,2,1,5,0,0
183191,-100,4,2,1,80,0,0
202391,-100,4,2,1,70,0,0
207191,-100,4,2,1,75,0,0
210116,-100,4,2,1,5,0,0
210341,-100,4,2,1,75,0,0
210416,-100,4,2,1,5,0,0
210641,-100,4,2,1,75,0,0
210866,-100,4,2,1,5,0,0
210941,-100,4,2,1,75,0,0
211991,-90.9090909090909,4,2,1,85,0,1
223991,-100,4,2,1,70,0,0
224666,-100,4,2,1,5,0,0
224741,-100,4,2,1,70,0,0
224966,-100,4,2,1,5,0,0
226091,-100,4,2,1,70,0,0
226391,-100,4,2,1,70,0,0
227066,-100,4,2,1,5,0,0
227141,-100,4,2,1,70,0,0
227816,-100,4,2,1,5,0,0
227891,-100,4,2,1,70,0,0
228416,-100,4,2,1,5,0,0
228491,-100,4,2,1,70,0,0
232391,-100,4,2,1,75,0,0
232616,-100,4,2,1,5,0,0
232691,-100,4,2,1,75,0,0
233216,-100,4,2,1,5,0,0
233291,-100,4,2,1,75,0,0
233591,-90.9090909090909,4,2,1,80,0,0
234416,-90.9090909090909,4,2,1,5,0,0
234491,-71.4285714285714,4,2,1,80,0,0
234566,-71.4285714285714,4,2,1,5,0,0
234641,-71.4285714285714,4,2,1,80,0,0
234716,-71.4285714285714,4,2,1,5,0,0

[Colours]
Combo1 : 77,240,81
Combo2 : 64,159,255
Combo3 : 255,47,151
Combo4 : 103,245,238

[HitObjects]
339,349,16391,5,10,0:0:0:0:
256,278,16541,2,0,L|254:241,3,34,0|0|0|0,3:0|3:0|3:0|3:0,0:0:0:0:
191,198,16841,2,0,L|224:81,1,102,10|0,0:0|0:0,0:0:0:0:
144,75,17141,2,0,L|111:192,1,102,10|0,0:0|0:0,0:0:0:0:
116,173,18491,2,0,L|78:183,3,34,0|0|0|0,3:0|3:0|3:0|3:0,0:0:0:0:
49,258,18791,5,10,0:0:0:0:
355,355,19241,2,0,L|377:243,1,102,10|0,0:0|0:0,0:0:0:0:
441,212,19541,1,10,0:0:0:0:
389,108,19691,6,0,L|383:68,3,34,0|0|0|0,3:0|3:0|3:0|3:0,0:0:0:0:
315,34,19991,2,0,P|275:56|247:116,1,102,6|0,3:2|0:0,0:0:0:0:
268,186,20291,1,8,0:0:0:0:
268,186,20366,1,8,0:0:0:0:
268,186,20441,1,8,0:0:0:0:
132,107,20591,2,0,P|85:109|23:133,1,102,6|0,3:2|0:0,0:0:0:0:
13,201,20891,1,8,0:0:0:0:
14,211,20966,1,8,0:0:0:0:
15,221,21041,1,8,0:0:0:0:
16,231,21116,1,8,0:0:0:0:
17,241,21191,5,6,3:2:0:0:
129,316,21491,1,0,3:0:0:0:
242,240,21791,1,2,3:2:0:0:
296,364,22091,1,2,3:2:0:0:
485,278,22391,5,6,3:2:0:0:
356,233,22691,1,0,3:0:0:0:
324,100,22991,1,2,3:2:0:0:
431,16,23291,1,2,3:2:0:0:
494,211,23591,6,0,P|494:246|482:282,2,68,14|10|0,0:0|0:0|3:0,0:0:0:0:
389,99,24041,2,0,P|379:131|379:165,1,68,10|0,0:0|3:0,0:0:0:0:
254,160,24341,2,0,P|261:192|278:222,1,68,10|0,0:0|3:0,0:0:0:0:
422,337,24641,1,10,0:0:0:0:
294,376,24791,6,0,P|260:347|195:333,1,102,6|0,3:2|0:0,0:0:0:0:
137,370,25091,2,0,L|91:366,3,34,8|8|8|8,0:0|0:0|0:0|0:0,0:0:0:0:
43,316,25391,2,0,P|64:273|46:209,1,102,6|0,3:2|0:0,0:0:0:0:
6,160,25691,1,0,3:0:0:0:
10,150,25766,1,0,3:0:0:0:
14,140,25841,1,0,3:0:0:0:
18,130,25916,1,0,3:0:0:0:
22,120,25991,5,6,3:2:0:0:
256,192,26141,12,2,27791,0:0:0:0:
77,94,28391,6,0,P|110:40|184:54,1,136,14|8,3:2|3:2,0:0:0:0:
242,156,28841,1,2,3:2:0:0:
241,166,28916,1,0,3:0:0:0:
240,176,28991,1,8,3:2:0:0:
239,186,29066,1,0,3:0:0:0:
238,196,29141,2,0,L|234:239,2,34,2|0|8,3:2|3:0|3:2,0:0:0:0:
338,114,29441,1,2,3:2:0:0:
486,189,29591,6,0,P|421:186|351:255,1,136,8|8,3:2|3:2,0:0:0:0:
283,347,30041,1,2,3:2:0:0:
283,347,30116,1,2,3:2:0:0:
283,347,30191,2,0,L|208:334,1,68,10|2,3:2|3:2,0:0:0:0:
57,269,30491,2,0,L|132:256,1,68,8|2,3:2|3:2,0:0:0:0:
81,83,30791,6,0,P|119:126|190:166,1,136,14|10,0:0|3:2,0:0:0:0:
307,89,31241,1,2,3:2:0:0:
307,89,31316,1,0,3:0:0:0:
307,89,31391,2,0,L|319:13,2,68,12|2|8,3:2|3:2|3:2,0:0:0:0:
461,175,31841,1,2,3:2:0:0:
365,279,31991,5,14,0:0:0:0:
366,289,32066,1,0,0:0:0:0:
368,298,32141,1,0,3:0:0:0:
370,308,32216,1,0,3:0:0:0:
372,318,32291,2,0,L|366:370,3,34,8|0|0|0,0:0|3:0|3:0|3:0,0:0:0:0:
294,376,32591,2,0,P|277:333|278:291,1,68,14|2,3:2|3:2,0:0:0:0:
415,168,32891,2,0,P|432:211|431:253,1,68,0|0,3:0|3:0,0:0:0:0:
295,95,33191,5,6,3:2:0:0:
127,167,33341,2,0,P|178:168|230:211,1,102,8|0,3:0|3:0,0:0:0:0:
200,271,33641,1,8,0:0:0:0:
39,352,33791,2,0,P|60:334|102:328,1,68,2|8,3:2|0:0,0:0:0:0:
284,366,34091,2,0,L|307:324,2,34,0|0|8,3:0|3:0|0:0,0:0:0:0:
441,262,34391,5,2,3:2:0:0:
326,167,34541,2,0,P|315:119|319:49,1,102,8|0,0:0|3:0,0:0:0:0:
369,9,34841,1,8,0:0:0:0:
224,108,34991,2,0,P|214:134|211:187,1,68,2|8,3:2|0:0,0:0:0:0:
332,258,35291,1,0,3:0:0:0:
332,258,35366,1,0,3:0:0:0:
332,258,35441,1,8,0:0:0:0:
460,116,35591,5,6,3:2:0:0:
460,116,35666,1,0,3:0:0:0:
460,116,35741,2,0,L|508:106,2,34,8|0|0,3:2|3:0|3:0,0:0:0:0:
317,35,36041,2,0,L|284:26,3,34,10|0|0|0,3:2|3:0|3:0|3:0,0:0:0:0:
227,79,36341,2,0,L|194:88,3,34,10|0|0|0,3:2|3:0|3:0|3:0,0:0:0:0:
129,46,36641,1,2,3:2:0:0:
129,46,36716,1,2,3:2:0:0:
129,46,36791,6,0,P|66:73|58:138,1,136,2|0,3:2|3:0,0:0:0:0:
203,197,37241,1,8,3:2:0:0:
203,197,37316,1,0,3:0:0:0:
203,197,37391,2,0,L|186:285,1,68,10|2,0:0|3:2,0:0:0:0:
103,356,37691,2,0,L|88:315,2,34,0|0|2,3:0|3:0|3:2,0:0:0:0:
286,244,37991,5,4,3:2:0:0:
286,244,38291,1,0,3:0:0:0:
415,299,38591,1,0,3:0:0:0:
415,299,38891,1,0,3:0:0:0:
492,117,39191,5,10,0:0:0:0:
400,217,39341,1,10,0:0:0:0:
400,217,39416,1,10,0:0:0:0:
400,217,39491,1,10,0:0:0:0:
365,85,39641,1,8,0:0:0:0:
147,85,39941,1,10,0:0:0:0:
365,85,40241,1,8,0:0:0:0:
306,158,40391,6,0,L|313:193,2,27.2,6|0|0,3:2|3:0|3:0,0:0:0:0:
248,259,40691,1,8,0:0:0:0:
137,168,40841,1,2,3:2:0:0:
137,168,41141,1,2,3:2:0:0:
106,253,41291,2,0,L|76:237,2,27.2,8|0|0,0:0|3:0|3:0,0:0:0:0:
202,342,41591,2,0,L|172:326,2,27.2,2|0|0,3:2|3:0|3:0,0:0:0:0:
304,320,41891,5,8,0:0:0:0:
381,279,42041,2,0,L|377:236,2,27.2,2|0|0,3:2|3:0|3:0,0:0:0:0:
412,360,42341,1,0,3:0:0:0:
481,307,42491,2,0,L|495:284,2,27.2,10|0|0,0:0|3:0|3:0,0:0:0:0:
457,193,42791,5,2,3:2:0:0:
457,193,42866,1,0,3:0:0:0:
457,193,42941,2,0,L|473:119,2,54.4,0|8|2,3:0|0:0|3:2,0:0:0:0:
286,338,43541,1,2,3:2:0:0:
246,245,43691,2,0,L|210:238,2,27.2,8|0|0,0:0|3:0|3:0,0:0:0:0:
127,307,43991,2,0,L|91:300,2,27.2,2|0|0,3:2|3:0|3:0,0:0:0:0:
33,364,44291,5,8,0:0:0:0:
22,237,44441,1,2,3:2:0:0:
22,237,44516,1,0,3:0:0:0:
22,237,44591,2,0,L|32:176,1,54.4,0|0,3:0|3:0,0:0:0:0:
93,123,44891,2,0,L|87:85,2,27.2,10|0|0,0:0|3:0|3:0,0:0:0:0:
200,187,45191,5,6,3:2:0:0:
200,187,45266,1,0,3:0:0:0:
200,187,45341,2,0,L|265:177,1,54.4,0|8,3:0|0:0,0:0:0:0:
318,121,45641,1,2,3:2:0:0:
318,121,45941,1,2,3:2:0:0:
283,41,46091,2,0,L|274:4,2,27.2,10|0|0,0:0|3:0|3:0,0:0:0:0:
370,49,46391,2,0,L|389:16,2,27.2,2|0|0,3:2|3:0|3:0,0:0:0:0:
423,118,46691,5,8,0:0:0:0:
353,209,46841,1,2,3:2:0:0:
353,209,46916,1,0,3:0:0:0:
353,209,46991,2,0,L|421:224,1,54.4,0|0,3:0|3:0,0:0:0:0:
498,311,47291,1,10,0:0:0:0:
498,311,47366,1,0,3:0:0:0:
498,311,47441,1,0,3:0:0:0:
375,345,47591,6,0,L|369:377,2,27.2,2|0|0,3:2|3:0|3:0,0:0:0:0:
262,262,47891,2,0,L|272:326,1,54.4,8|2,0:0|3:2,0:0:0:0:
160,134,48341,1,2,3:2:0:0:
186,35,48491,1,8,0:0:0:0:
186,35,48566,1,0,3:0:0:0:
186,35,48641,1,0,3:0:0:0:
80,60,48791,2,0,L|53:44,2,27.2,2|0|0,3:2|3:0|3:0,0:0:0:0:
160,134,49091,5,8,0:0:0:0:
294,121,49241,1,2,3:2:0:0:
294,121,49316,1,0,3:0:0:0:
294,121,49391,2,0,L|305:53,1,54.4,0|0,3:0|3:0,0:0:0:0:
430,39,49691,1,10,0:0:0:0:
430,39,49766,1,0,3:0:0:0:
430,39,49841,1,0,3:0:0:0:
494,221,49991,5,14,0:0:0:0:
394,179,50141,2,0,L|355:186,3,30.5999990661621,0|0|0|0,3:0|3:0|3:0|3:0,0:0:0:0:
309,236,50441,2,0,P|255:209|190:195,1,122.399996264649,10|0,0:0|3:0,0:0:0:0:
92,264,50891,1,0,3:0:0:0:
198,329,51041,1,10,0:0:0:0:
198,329,51491,6,0,L|192:371,1,30.5999990661621,0|0,3:0|0:0,0:0:0:0:
320,266,51791,2,0,L|314:308,1,30.5999990661621,8|0,0:0|0:0,0:0:0:0:
442,203,52091,2,0,L|436:245,1,30.5999990661621,0|0,3:0|0:0,0:0:0:0:
261,69,52391,5,10,0:0:0:0:
126,165,52541,2,0,L|142:206,3,30.5999990661621,0|0|0|0,3:0|3:0|3:0|3:0,0:0:0:0:
195,253,52841,2,0,P|233:192|281:147,1,122.399996264649,10|0,0:0|3:0,0:0:0:0:
362,95,53291,1,0,3:0:0:0:
233,17,53441,1,10,0:0:0:0:
233,17,53891,6,0,P|197:40|177:108,1,91.7999971984864,0|0,3:0|0:0,0:0:0:0:
103,101,54191,2,0,P|88:140|109:207,1,91.7999971984864,8|0,0:0|0:0,0:0:0:0:
43,244,54491,2,0,P|52:285|109:327,1,91.7999971984864,0|0,3:0|0:0,0:0:0:0:
155,285,54791,5,10,0:0:0:0:
275,370,54941,2,0,L|266:330,3,30.5999990661621,0|0|0|0,3:0|3:0|3:0|3:0,0:0:0:0:
314,279,55241,2,0,L|325:153,1,122.399996264649,10|0,0:0|3:0,0:0:0:0:
338,45,55691,1,0,3:0:0:0:
474,110,55841,1,10,0:0:0:0:
474,110,55991,1,0,3:0:0:0:
254,93,56291,5,0,3:0:0:0:
152,137,56441,2,0,P|168:79|173:13,1,122.399996264649,8|0,0:0|3:0,0:0:0:0:
10,60,56891,1,8,0:0:0:0:
75,203,57041,1,8,0:0:0:0:
75,203,57116,1,8,0:0:0:0:
75,203,57191,6,0,B|90:263|90:263|49:331,1,122.399996264649,10|0,0:0|3:0,0:0:0:0:
194,335,57641,2,0,B|179:275|179:275|220:207,1,122.399996264649,8|0,0:0|3:0,0:0:0:0:
242,215,58016,1,0,3:0:0:0:
242,215,58091,1,8,0:0:0:0:
397,294,58241,1,8,0:0:0:0:
397,294,58316,1,8,0:0:0:0:
397,294,58391,5,10,0:0:0:0:
288,350,58541,1,0,3:0:0:0:
290,341,58616,1,0,3:0:0:0:
292,332,58691,1,0,3:0:0:0:
294,323,58766,1,0,3:0:0:0:
296,314,58841,1,10,0:0:0:0:
213,99,59141,1,0,3:0:0:0:
214,108,59216,1,0,3:0:0:0:
215,117,59291,2,0,L|284:137,1,61.1999981323243,10|0,0:0|0:0,0:0:0:0:
457,23,59591,6,0,P|429:41|408:77,1,68,6|8,3:2|0:0,0:0:0:0:
374,219,59891,1,0,3:0:0:0:
374,219,59966,1,0,3:0:0:0:
374,219,60041,2,0,L|361:144,2,68,8|0|8,0:0|3:0|0:0,0:0:0:0:
298,62,60491,2,0,P|281:54|264:50,2,34,0|0|8,3:0|3:0|0:0,0:0:0:0:
168,133,60791,5,2,3:2:0:0:
130,17,60941,1,8,0:0:0:0:
54,113,61091,2,0,L|12:122,2,34,0|0|8,3:0|3:0|0:0,0:0:0:0:
128,215,61391,2,0,L|96:282,1,68,0|8,3:0|0:0,0:0:0:0:
257,209,61691,1,0,3:0:0:0:
257,209,61766,1,0,3:0:0:0:
257,209,61841,1,8,0:0:0:0:
373,302,61991,6,0,P|359:269|366:233,1,68,2|8,3:2|0:0,0:0:0:0:
303,363,62291,1,0,3:0:0:0:
303,363,62366,1,0,3:0:0:0:
303,363,62441,2,0,P|272:340|231:328,2,68,8|0|8,0:0|3:0|0:0,0:0:0:0:
463,320,62891,2,0,P|470:299|478:283,2,34,0|0|8,3:0|3:0|0:0,0:0:0:0:
406,168,63191,6,0,P|443:161|469:139,1,68,2|8,3:2|0:0,0:0:0:0:
390,48,63491,1,0,3:0:0:0:
390,48,63566,1,0,3:0:0:0:
390,48,63641,1,8,0:0:0:0:
275,185,63791,1,6,3:2:0:0:
151,99,63941,1,8,0:0:0:0:
151,99,64016,1,8,0:0:0:0:
151,99,64091,2,0,L|191:104,3,34,0|0|8|8,3:0|3:0|0:0|0:0,0:0:0:0:
232,43,64391,6,0,P|178:11|107:20,1,136,2|0,3:2|3:0,0:0:0:0:
32,132,64841,1,0,3:0:0:0:
32,132,64916,1,0,3:0:0:0:
32,132,64991,2,0,L|41:179,3,34,8|0|0|0,0:0|3:0|3:0|3:0,0:0:0:0:
84,230,65291,2,0,L|75:277,3,34,0|0|0|0,3:0|3:0|3:0|3:0,0:0:0:0:
40,335,65591,6,0,P|117:351|175:383,1,136,2|0,3:2|3:0,0:0:0:0:
264,280,66041,1,0,3:0:0:0:
264,280,66116,1,0,3:0:0:0:
264,280,66191,2,0,L|257:230,3,34,8|0|0|0,0:0|3:0|3:0|3:0,0:0:0:0:
198,196,66491,2,0,P|207:165|243:139,1,68,0|0,3:0|3:0,0:0:0:0:
377,270,66791,6,0,L|425:262,3,34,10|0|0|0,0:0|3:0|3:0|3:0,0:0:0:0:
452,197,67091,1,0,3:0:0:0:
310,129,67241,2,0,L|347:98,3,34,10|0|0|0,0:0|3:0|3:0|3:0,0:0:0:0:
338,28,67541,5,8,0:0:0:0:
470,98,67691,1,8,0:0:0:0:
357,196,67841,1,8,0:0:0:0:
224,126,67991,5,10,0:0:0:0:
224,126,68141,1,10,0:0:0:0:
224,126,68291,1,10,0:0:0:0:
224,126,69191,6,0,P|200:196|187:289,1,149.60000456543,6|0,3:2|3:0,0:0:0:0:
75,357,69641,1,10,0:0:0:0:
75,357,69716,1,0,0:0:0:0:
75,357,69791,1,0,3:0:0:0:
45,187,69941,2,0,P|71:214|95:262,1,74.8000022827149,8|0,0:0|3:0,0:0:0:0:
230,367,70241,6,0,P|297:324|385:323,1,149.60000456543,10|8,0:0|0:0,0:0:0:0:
437,201,70691,2,0,P|429:177|433:150,2,37.4000011413575,0|0|8,3:0|3:0|0:0,0:0:0:0:
345,99,70991,2,0,P|346:64|369:25,1,74.8000022827149,2|8,3:2|0:0,0:0:0:0:
500,95,71291,1,0,3:0:0:0:
500,95,71366,1,0,3:0:0:0:
500,95,71441,1,8,0:0:0:0:
353,236,71591,6,0,P|285:233|203:179,1,149.60000456543,6|0,3:2|3:0,0:0:0:0:
43,74,72041,2,0,P|29:108|26:145,1,74.8000022827149,10|6,0:0|3:2,0:0:0:0:
138,16,72341,1,8,0:0:0:0:
216,98,72491,2,0,P|237:93|265:81,2,37.4000011413575,0|0|8,3:0|3:0|0:0,0:0:0:0:
60,238,72791,5,4,3:2:0:0:
211,357,72941,2,0,B|258:302|258:302|246:226,1,149.60000456543,8|8,0:0|0:0,0:0:0:0:
216,98,73391,1,2,3:2:0:0:
213,86,73466,1,0,3:0:0:0:
210,74,73541,1,8,0:0:0:0:
208,62,73616,1,0,3:0:0:0:
206,50,73691,2,0,L|251:57,3,37.4000011413575,0|0|8|0,3:0|3:0|0:0|0:0,0:0:0:0:
309,16,73991,5,6,3:2:0:0:
480,101,74141,2,0,P|422:109|383:154,1,112.200003424072,8|0,0:0|3:0,0:0:0:0:
408,218,74441,1,0,0:0:0:0:
284,298,74591,2,0,P|296:258|305:219,1,74.8000022827149,2|8,3:2|0:0,0:0:0:0:
188,114,74891,2,0,P|170:124|152:152,2,37.4000011413575,0|0|8,3:0|3:0|0:0,0:0:0:0:
246,37,75191,5,2,3:2:0:0:
44,82,75341,2,0,P|66:127|77:210,1,112.200003424072,8|0,0:0|3:0,0:0:0:0:
41,253,75641,1,8,0:0:0:0:
134,365,75791,2,0,L|151:282,1,74.8000022827149,2|8,3:2|0:0,0:0:0:0:
260,243,76091,1,0,3:0:0:0:
260,243,76166,1,0,3:0:0:0:
260,243,76241,1,8,0:0:0:0:
429,332,76391,6,0,P|362:327|281:361,1,149.60000456543,2|0,3:2|0:0,0:0:0:0:
353,234,76841,2,0,L|342:159,1,74.8000022827149,8|2,0:0|3:2,0:0:0:0:
160,235,77141,2,0,L|171:310,1,74.8000022827149,8|0,0:0|3:0,0:0:0:0:
178,349,77366,1,0,3:0:0:0:
178,349,77441,1,8,0:0:0:0:
48,223,77591,5,6,3:2:0:0:
50,211,77666,1,0,3:0:0:0:
52,199,77741,1,8,0:0:0:0:
54,187,77816,1,0,3:0:0:0:
56,175,77891,2,0,L|94:160,2,37.4000011413575,8|0|8,0:0|3:0|0:0,0:0:0:0:
133,49,78191,1,2,3:2:0:0:
133,49,78266,1,8,0:0:0:0:
133,49,78341,1,0,3:0:0:0:
250,114,78491,1,8,0:0:0:0:
367,179,78641,2,0,L|413:188,1,37.4000011413575,8|0,0:0|3:0,0:0:0:0:
501,252,78791,6,0,P|422:266|361:311,1,149.60000456543,6|0,3:2|3:0,0:0:0:0:
259,359,79241,1,10,0:0:0:0:
247,361,79316,1,0,3:0:0:0:
235,363,79391,1,0,3:0:0:0:
223,365,79466,1,0,3:0:0:0:
211,367,79541,2,0,L|170:349,2,37.4000011413575,8|0|0,0:0|3:0|3:0,0:0:0:0:
141,241,79841,1,8,0:0:0:0:
141,241,79916,1,0,3:0:0:0:
141,241,79991,6,0,P|125:166|172:97,1,149.60000456543,2|0,3:2|3:0,0:0:0:0:
263,176,80441,1,8,0:0:0:0:
362,99,80591,2,0,P|371:67|376:15,2,74.8000022827149,2|8|0,3:2|0:0|3:0,0:0:0:0:
232,31,81041,1,8,0:0:0:0:
232,31,81116,1,0,3:0:0:0:
232,31,81191,6,0,P|152:41|85:70,1,149.60000456543,6|0,3:2|3:0,0:0:0:0:
30,208,81641,1,10,0:0:0:0:
26,218,81716,1,0,3:0:0:0:
23,229,81791,1,4,3:2:0:0:
20,240,81866,1,0,3:0:0:0:
17,251,81941,2,0,L|38:287,2,37.4000011413575,8|0|0,0:0|3:0|3:0,0:0:0:0:
160,163,82241,1,8,0:0:0:0:
160,163,82316,1,0,3:0:0:0:
160,163,82391,6,0,P|219:202|211:278,1,149.60000456543,6|0,3:2|3:0,0:0:0:0:
357,231,82841,1,8,0:0:0:0:
455,341,82991,2,0,P|456:301|495:270,2,74.8000022827149,2|8|8,3:2|0:0|0:0,0:0:0:0:
357,231,83441,1,8,0:0:0:0:
360,220,83516,1,8,0:0:0:0:
363,209,83591,5,4,3:2:0:0:
279,124,83741,2,0,L|399:106,1,112.200003424072,8|0,0:0|3:0,0:0:0:0:
398,32,84041,1,8,0:0:0:0:
214,7,84191,2,0,P|198:35|205:89,1,74.8000022827149,2|8,3:2|0:0,0:0:0:0:
237,236,84491,2,0,P|251:218|254:196,2,37.4000011413575,0|0|8,3:0|3:0|0:0,0:0:0:0:
77,150,84791,5,2,3:2:0:0:
141,320,84941,2,0,P|165:276|120:279,1,112.200003424072,8|0,0:0|3:0,0:0:0:0:
66,326,85241,1,8,0:0:0:0:
230,377,85391,2,0,P|249:344|254:294,1,74.8000022827149,2|8,3:2|0:0,0:0:0:0:
183,186,85691,1,0,3:0:0:0:
183,186,85766,1,0,3:0:0:0:
183,186,85841,1,8,0:0:0:0:
308,36,85991,5,6,3:2:0:0:
173,97,86141,2,0,P|133:80|114:10,1,112.200003424072,8|0,0:0|3:0,0:0:0:0:
37,38,86441,2,0,P|27:63|26:117,1,74.8000022827149,8|2,0:0|3:2,0:0:0:0:
87,231,86741,1,8,0:0:0:0:
179,328,86891,2,0,P|189:357|189:379,2,37.4000011413575,0|0|8,3:0|3:0|0:0,0:0:0:0:
340,203,87191,5,2,3:2:0:0:
338,214,87266,1,0,3:0:0:0:
336,225,87341,1,8,0:0:0:0:
335,236,87416,1,0,3:0:0:0:
334,247,87491,2,0,L|286:267,2,37.4000011413575,0|8|0,3:0|0:0|3:0,0:0:0:0:
184,195,87791,6,0,L|102:171,1,74.8000022827149,10|0,0:0|3:0,0:0:0:0:
133,99,88016,2,0,L|215:123,1,74.8000022827149,8|0,0:0|3:0,0:0:0:0:
192,37,88241,1,8,0:0:0:0:
354,153,88391,6,0,P|421:131|427:54,1,149.60000456543,6|8,3:2|0:0,0:0:0:0:
303,15,88841,1,2,3:2:0:0:
301,26,88916,1,0,3:0:0:0:
299,37,88991,1,0,3:0:0:0:
297,48,89066,1,0,3:0:0:0:
296,59,89141,2,0,L|352:70,2,37.4000011413575,2|0|8,3:2|3:0|0:0,0:0:0:0:
253,183,89441,5,0,3:0:0:0:
253,183,89516,1,0,3:0:0:0:
253,183,89591,1,10,0:0:0:0:
116,102,89741,5,10,0:0:0:0:
145,98,89816,1,8,0:0:0:0:
174,94,89891,1,8,0:0:0:0:
43,27,90041,5,10,0:0:0:0:
256,27,90341,1,10,0:0:0:0:
469,27,90641,1,10,0:0:0:0:
149,27,90791,5,8,0:0:0:0:
256,27,90941,1,8,0:0:0:0:
362,27,91091,1,8,0:0:0:0:
256,192,91241,12,0,92891,0:0:0:0:
149,27,93191,5,8,0:0:0:0:
256,27,93341,1,8,0:0:0:0:
362,27,93491,1,8,0:0:0:0:
149,357,94391,5,10,0:0:0:0:
256,357,94541,1,10,0:0:0:0:
362,357,94691,1,10,0:0:0:0:
362,357,95591,6,0,L|362:273,1,81.5999975097657,4|2,3:2|0:0,0:0:0:0:
150,357,96191,2,0,L|150:275,1,81.5999975097657,8|2,0:0|0:0,0:0:0:0:
256,27,96791,2,0,L|256:108,1,81.5999975097657,0|2,3:0|0:0,0:0:0:0:
150,357,97391,1,8,0:0:0:0:
362,357,97691,1,2,3:2:0:0:
455,213,97991,6,0,P|425:190|377:187,1,81.5999975097657,0|2,3:0|0:0,0:0:0:0:
296,65,98591,2,0,P|258:69|222:101,1,81.5999975097657,8|0,0:0|3:0,0:0:0:0:
93,31,99191,1,6,3:2:0:0:
15,155,99491,1,6,3:2:0:0:
68,291,99791,1,8,0:0:0:0:
190,208,100091,1,2,3:2:0:0:
190,208,100241,1,8,0:0:0:0:
260,259,100391,6,0,L|264:303,2,27.2,4|0|0,3:2|3:0|3:0,0:0:0:0:
317,192,100691,2,0,L|331:127,1,54.4,8|2,0:0|3:2,0:0:0:0:
123,24,101141,1,2,3:2:0:0:
172,95,101291,2,0,L|215:83,2,27.2,8|0|0,0:0|3:0|3:0,0:0:0:0:
283,23,101591,2,0,L|326:11,2,27.2,2|0|0,3:2|3:0|3:0,0:0:0:0:
398,69,101891,5,8,0:0:0:0:
473,180,102041,1,2,3:2:0:0:
473,180,102116,1,0,3:0:0:0:
473,180,102191,2,0,L|467:238,1,54.4,0|0,3:0|3:0,0:0:0:0:
460,359,102491,1,10,0:0:0:0:
460,359,102566,1,0,3:0:0:0:
460,359,102641,1,0,3:0:0:0:
366,320,102791,6,0,L|330:332,2,27.2,6|0|0,3:2|3:0|3:0,0:0:0:0:
273,259,103091,1,8,0:0:0:0:
386,233,103241,1,2,3:2:0:0:
386,233,103541,1,2,3:2:0:0:
279,169,103691,2,0,L|272:137,2,27.2,8|0|0,0:0|3:0|3:0,0:0:0:0:
194,257,103991,2,0,L|187:289,2,27.2,2|0|0,3:2|3:0|3:0,0:0:0:0:
90,199,104291,5,8,0:0:0:0:
15,291,104441,1,2,3:2:0:0:
15,291,104516,1,0,3:0:0:0:
15,291,104591,2,0,L|89:277,1,54.4,0|0,3:0|3:0,0:0:0:0:
177,361,104891,2,0,L|208:370,2,27.2,10|0|0,0:0|3:0|3:0,0:0:0:0:
297,231,105191,5,2,3:2:0:0:
297,231,105266,1,0,3:0:0:0:
297,231,105341,2,0,L|304:295,1,54.4,0|8,3:0|0:0,0:0:0:0:
446,310,105641,1,2,3:2:0:0:
446,310,105941,1,2,3:2:0:0:
351,363,106091,2,0,L|309:372,2,27.2,8|0|0,0:0|3:0|3:0,0:0:0:0:
404,234,106391,2,0,L|362:225,2,27.2,2|0|0,3:2|3:0|3:0,0:0:0:0:
496,138,106691,5,8,0:0:0:0:
414,64,106841,1,2,3:2:0:0:
414,64,106916,1,0,3:0:0:0:
414,64,106991,2,0,L|422:8,1,54.4,0|0,3:0|3:0,0:0:0:0:
316,132,107291,2,0,L|320:162,2,27.2,10|0|0,0:0|3:0|3:0,0:0:0:0:
196,18,107591,6,0,L|157:13,2,27.2,6|0|0,3:2|3:0|3:0,0:0:0:0:
86,112,107891,2,0,L|155:100,1,54.4,8|2,0:0|3:2,0:0:0:0:
355,237,108341,1,2,3:2:0:0:
417,156,108491,2,0,L|421:117,2,27.2,8|0|0,0:0|3:0|3:0,0:0:0:0:
483,288,108791,2,0,L|479:249,2,27.2,2|0|0,3:2|3:0|3:0,0:0:0:0:
346,357,109091,5,8,0:0:0:0:
217,307,109241,1,2,3:2:0:0:
217,307,109316,1,0,3:0:0:0:
217,307,109391,2,0,P|248:305|274:291,1,54.4,0|0,3:0|3:0,0:0:0:0:
297,177,109691,2,0,P|287:169|273:162,2,27.2,10|0|0,0:0|3:0|3:0,0:0:0:0:
158,221,109991,5,2,3:2:0:0:
158,221,110066,1,0,3:0:0:0:
158,221,110141,2,0,P|150:187|150:155,1,54.4,0|8,3:0|0:0,0:0:0:0:
212,24,110441,1,2,3:2:0:0:
212,24,110741,1,2,3:2:0:0:
116,70,110891,2,0,L|84:61,2,27.2,8|0|0,0:0|3:0|3:0,0:0:0:0:
243,125,111191,2,0,L|275:134,2,27.2,2|0|0,3:2|3:0|3:0,0:0:0:0:
73,223,111491,5,8,0:0:0:0:
151,312,111641,1,2,3:2:0:0:
151,312,111716,1,0,3:0:0:0:
151,312,111791,2,0,L|157:373,1,54.4,0|0,3:0|3:0,0:0:0:0:
264,244,112091,2,0,L|269:203,2,27.2,10|0|0,0:0|3:0|3:0,0:0:0:0:
472,352,112391,5,14,0:0:0:0:
374,254,112541,2,0,L|377:294,3,30.5999990661621,0|0|0|0,3:0|3:0|3:0|3:0,0:0:0:0:
334,349,112841,2,0,P|278:329|208:329,1,122.399996264649,10|0,0:0|3:0,0:0:0:0:
121,368,113291,1,0,3:0:0:0:
144,228,113441,1,10,0:0:0:0:
144,228,113891,6,0,L|101:234,1,30.5999990661621,0|0,3:0|0:0,0:0:0:0:
273,125,114191,2,0,L|230:119,1,30.5999990661621,8|0,0:0|0:0,0:0:0:0:
423,190,114491,2,0,L|380:196,1,30.5999990661621,0|0,3:0|0:0,0:0:0:0:
245,19,114791,5,10,0:0:0:0:
127,110,114941,2,0,L|131:144,3,30.5999990661621,0|0|0|0,3:0|3:0|3:0|3:0,0:0:0:0:
77,196,115241,2,0,P|110:242|113:316,1,122.399996264649,10|0,0:0|3:0,0:0:0:0:
35,378,115691,1,0,3:0:0:0:
216,344,115841,1,10,0:0:0:0:
216,344,116291,6,0,L|307:357,1,91.7999971984864,0|0,3:0|0:0,0:0:0:0:
387,353,116591,2,0,L|352:267,1,91.7999971984864,8|0,0:0|0:0,0:0:0:0:
310,200,116891,2,0,L|253:272,1,91.7999971984864,0|0,3:0|0:0,0:0:0:0:
216,344,117191,5,10,0:0:0:0:
50,213,117341,2,0,P|63:207|94:209,3,30.5999990661621,0|0|0|0,3:0|3:0|3:0|3:0,0:0:0:0:
129,265,117641,2,0,P|79:286|-1:280,1,122.399996264649,10|0,0:0|3:0,0:0:0:0:
51,133,118091,1,0,3:0:0:0:
198,198,118241,1,10,0:0:0:0:
198,198,118391,1,0,3:0:0:0:
410,22,118691,5,0,3:0:0:0:
320,96,118841,2,0,P|375:100|408:163,1,122.399996264649,8|0,0:0|3:0,0:0:0:0:
487,230,119291,1,8,0:0:0:0:
406,373,119441,1,8,0:0:0:0:
406,373,119516,1,8,0:0:0:0:
406,373,119591,6,0,P|388:338|397:244,1,122.399996264649,2|0,3:2|3:0,0:0:0:0:
234,342,120041,2,0,P|260:312|276:219,1,122.399996264649,8|0,0:0|3:0,0:0:0:0:
255,221,120416,1,0,3:0:0:0:
255,221,120491,1,8,0:0:0:0:
119,347,120641,1,8,0:0:0:0:
119,347,120716,1,8,0:0:0:0:
119,347,120791,5,10,0:0:0:0:
19,233,120941,1,0,3:0:0:0:
27,236,121016,1,0,3:0:0:0:
35,239,121091,1,0,3:0:0:0:
43,242,121166,1,0,3:0:0:0:
51,245,121241,1,10,0:0:0:0:
200,50,121541,1,0,3:0:0:0:
199,59,121616,1,0,3:0:0:0:
198,68,121691,2,0,L|188:135,1,61.1999981323243,10|0,0:0|0:0,0:0:0:0:
316,250,121991,6,0,P|321:216|292:177,1,68,6|8,3:2|0:0,0:0:0:0:
145,254,122291,1,0,3:0:0:0:
145,254,122366,1,0,3:0:0:0:
145,254,122441,2,0,L|214:237,2,68,8|0|8,0:0|3:0|0:0,0:0:0:0:
245,361,122891,2,0,L|259:330,2,34,0|0|8,3:0|3:0|0:0,0:0:0:0:
375,362,123191,5,2,3:2:0:0:
343,258,123341,1,8,0:0:0:0:
448,287,123491,2,0,L|481:284,2,34,0|0|8,3:0|3:0|0:0,0:0:0:0:
316,156,123791,2,0,P|306:113|310:74,1,68,0|8,3:0|0:0,0:0:0:0:
400,21,124091,1,0,3:0:0:0:
400,21,124166,1,0,3:0:0:0:
400,21,124241,1,8,0:0:0:0:
507,137,124391,6,0,P|474:123|434:116,1,68,2|8,3:2|0:0,0:0:0:0:
384,238,124691,1,0,3:0:0:0:
384,238,124766,1,0,3:0:0:0:
384,238,124841,2,0,P|351:252|311:259,2,68,8|0|8,0:0|3:0|0:0,0:0:0:0:
247,355,125291,2,0,P|238:328|226:320,2,34,0|0|8,3:0|3:0|0:0,0:0:0:0:
91,222,125591,6,0,P|120:230|156:254,1,68,2|8,3:2|0:0,0:0:0:0:
122,44,125891,1,0,3:0:0:0:
122,44,125966,1,0,3:0:0:0:
122,44,126041,1,8,0:0:0:0:
21,109,126191,1,6,3:2:0:0:
201,180,126341,1,8,0:0:0:0:
201,180,126416,1,8,0:0:0:0:
201,180,126491,2,0,P|211:167|217:140,3,34,0|0|8|8,3:0|3:0|0:0|0:0,0:0:0:0:
308,172,126791,6,0,P|286:94|298:41,1,136,2|0,3:2|3:0,0:0:0:0:
454,22,127241,1,0,3:0:0:0:
454,22,127316,1,0,3:0:0:0:
454,22,127391,2,0,P|461:41|462:73,3,34,8|0|0|0,0:0|3:0|3:0|3:0,0:0:0:0:
487,129,127691,2,0,P|483:148|468:177,3,34,0|0|0|0,3:0|3:0|3:0|3:0,0:0:0:0:
481,245,127991,6,0,P|411:220|326:214,1,136,2|0,3:2|3:0,0:0:0:0:
217,342,128441,1,0,3:0:0:0:
217,342,128516,1,0,3:0:0:0:
217,342,128591,2,0,P|234:328|252:324,3,34,8|0|0|0,0:0|3:0|3:0|3:0,0:0:0:0:
314,358,128891,2,0,P|330:329|342:270,1,68,0|0,3:0|3:0,0:0:0:0:
237,148,129191,6,0,L|201:136,3,34,10|0|0|0,0:0|3:0|3:0|3:0,0:0:0:0:
161,73,129491,1,0,3:0:0:0:
206,239,129641,2,0,L|172:255,3,34,10|0|0|0,0:0|3:0|3:0|3:0,0:0:0:0:
99,239,129941,5,8,0:0:0:0:
230,323,130091,1,8,0:0:0:0:
314,191,130241,1,8,0:0:0:0:
182,106,130391,5,10,0:0:0:0:
182,106,130541,1,10,0:0:0:0:
182,106,130691,1,10,0:0:0:0:
182,106,131591,6,0,P|249:77|302:6,1,149.60000456543,6|0,3:2|3:0,0:0:0:0:
101,43,132041,1,10,0:0:0:0:
101,43,132116,1,0,0:0:0:0:
101,43,132191,1,0,3:0:0:0:
162,191,132341,2,0,P|162:226|146:279,1,74.8000022827149,8|0,0:0|3:0,0:0:0:0:
293,363,132641,6,0,P|335:280|388:240,1,149.60000456543,10|0,0:0|3:0,0:0:0:0:
314,158,133091,2,0,P|291:158|274:167,2,37.4000011413575,0|0|8,3:0|3:0|0:0,0:0:0:0:
425,49,133391,2,0,B|442:78|442:78|428:116,1,74.8000022827149,2|8,3:2|0:0,0:0:0:0:
311,23,133691,1,0,3:0:0:0:
311,23,133766,1,0,3:0:0:0:
311,23,133841,1,8,0:0:0:0:
428,210,133991,6,0,P|374:217|329:300,1,149.60000456543,6|0,3:2|3:0,0:0:0:0:
206,362,134441,2,0,L|223:286,1,74.8000022827149,10|4,0:0|3:2,0:0:0:0:
81,365,134741,1,8,0:0:0:0:
39,241,134891,2,0,L|80:212,2,37.4000011413575,0|0|8,3:0|3:0|0:0,0:0:0:0:
261,95,135191,5,6,3:2:0:0:
142,8,135341,2,0,P|111:59|124:148,1,149.60000456543,8|8,0:0|0:0,0:0:0:0:
234,258,135791,1,2,3:2:0:0:
244,255,135866,1,0,3:0:0:0:
254,252,135941,1,8,0:0:0:0:
264,249,136016,1,0,3:0:0:0:
274,246,136091,2,0,L|284:198,3,37.4000011413575,0|0|8|0,3:0|3:0|0:0|0:0,0:0:0:0:
327,147,136391,5,6,3:2:0:0:
442,314,136541,2,0,P|420:256|424:183,1,112.200003424072,8|0,0:0|3:0,0:0:0:0:
477,157,136841,1,8,0:0:0:0:
381,43,136991,2,0,P|348:26|305:24,1,74.8000022827149,2|8,3:2|0:0,0:0:0:0:
213,81,137291,2,0,P|197:82|172:68,2,37.4000011413575,0|0|8,3:0|3:0|0:0,0:0:0:0:
71,20,137591,5,2,3:2:0:0:
127,193,137741,2,0,P|176:166|241:174,1,112.200003424072,8|0,0:0|3:0,0:0:0:0:
279,225,138041,1,8,0:0:0:0:
166,290,138191,2,0,P|153:323|147:367,1,74.8000022827149,2|8,3:2|0:0,0:0:0:0:
57,295,138491,1,0,3:0:0:0:
57,295,138566,1,0,3:0:0:0:
57,295,138641,1,8,0:0:0:0:
261,347,138791,6,0,L|423:323,1,149.60000456543,2|0,3:2|0:0,0:0:0:0:
301,210,139241,2,0,L|384:226,1,74.8000022827149,8|2,0:0|3:2,0:0:0:0:
468,134,139541,2,0,L|484:51,1,74.8000022827149,8|0,0:0|3:0,0:0:0:0:
472,29,139766,1,0,3:0:0:0:
472,29,139841,1,8,0:0:0:0:
299,56,139991,5,6,3:2:0:0:
302,66,140066,1,0,3:0:0:0:
305,76,140141,1,8,0:0:0:0:
308,86,140216,1,0,3:0:0:0:
311,96,140291,2,0,L|359:107,2,37.4000011413575,8|0|8,0:0|3:0|0:0,0:0:0:0:
202,209,140591,1,2,3:2:0:0:
202,209,140666,1,8,0:0:0:0:
202,209,140741,1,0,3:0:0:0:
105,126,140891,1,8,0:0:0:0:
17,217,141041,2,0,L|4:264,1,37.4000011413575,8|0,0:0|3:0,0:0:0:0:
32,370,141191,6,0,P|75:303|148:297,1,149.60000456543,6|0,3:2|3:0,0:0:0:0:
272,357,141641,1,10,0:0:0:0:
283,354,141716,1,0,3:0:0:0:
294,352,141791,1,0,3:0:0:0:
305,350,141866,1,0,3:0:0:0:
316,348,141941,2,0,L|322:305,2,37.4000011413575,8|0|0,0:0|3:0|3:0,0:0:0:0:
291,168,142241,1,8,0:0:0:0:
291,168,142316,1,0,3:0:0:0:
291,168,142391,6,0,B|249:112|249:112|172:144,1,149.60000456543,2|0,3:2|3:0,0:0:0:0:
107,346,142841,1,8,0:0:0:0:
57,232,142991,2,0,P|48:196|43:155,2,74.8000022827149,2|8|0,3:2|0:0|3:0,0:0:0:0:
223,331,143441,1,8,0:0:0:0:
223,331,143516,1,0,3:0:0:0:
223,331,143591,6,0,P|298:329|334:267,1,149.60000456543,6|0,3:2|3:0,0:0:0:0:
275,143,144041,1,10,0:0:0:0:
276,131,144116,1,0,3:0:0:0:
278,119,144191,1,4,3:2:0:0:
280,107,144266,1,0,3:0:0:0:
282,95,144341,2,0,L|287:52,2,37.4000011413575,8|0|0,0:0|3:0|3:0,0:0:0:0:
442,22,144641,1,8,0:0:0:0:
442,22,144716,1,0,3:0:0:0:
442,22,144791,6,0,P|449:90|478:177,1,149.60000456543,6|0,3:2|3:0,0:0:0:0:
395,311,145241,1,0,3:0:0:0:
292,236,145391,2,0,P|258:221|209:214,2,74.8000022827149,2|8|8,3:2|0:0|0:0,0:0:0:0:
176,360,145841,1,8,0:0:0:0:
186,357,145916,1,8,0:0:0:0:
196,354,145991,5,6,3:2:0:0:
76,300,146141,2,0,B|53:255|53:255|63:173,1,112.200003424072,8|0,0:0|3:0,0:0:0:0:
116,141,146441,1,8,0:0:0:0:
40,19,146591,2,0,L|128:39,1,74.8000022827149,2|8,3:2|0:0,0:0:0:0:
246,77,146891,2,0,L|288:64,2,37.4000011413575,0|0|8,3:0|3:0|0:0,0:0:0:0:
179,212,147191,5,2,3:2:0:0:
280,361,147341,2,0,P|298:288|300:237,1,112.200003424072,8|0,0:0|3:0,0:0:0:0:
279,178,147641,1,8,0:0:0:0:
139,309,147791,2,0,P|162:337|193:358,1,74.8000022827149,2|8,3:2|0:0,0:0:0:0:
394,297,148091,1,0,3:0:0:0:
394,297,148166,1,0,3:0:0:0:
394,297,148241,1,8,0:0:0:0:
279,178,148391,5,6,3:2:0:0:
415,99,148541,2,0,P|365:80|317:31,1,112.200003424072,8|0,0:0|3:0,0:0:0:0:
252,12,148841,2,0,P|240:46|214:88,1,74.8000022827149,8|2,0:0|3:2,0:0:0:0:
131,169,149141,1,8,0:0:0:0:
55,65,149291,2,0,P|48:48|45:23,2,37.4000011413575,0|0|8,3:0|3:0|0:0,0:0:0:0:
165,247,149591,5,2,3:2:0:0:
164,258,149666,1,0,3:0:0:0:
163,269,149741,1,8,0:0:0:0:
162,280,149816,1,0,3:0:0:0:
162,291,149891,2,0,L|140:321,2,37.4000011413575,0|8|0,3:0|0:0|3:0,0:0:0:0:
341,197,150191,6,0,P|374:225|395:275,1,74.8000022827149,8|0,0:0|3:0,0:0:0:0:
379,328,150416,2,0,P|338:342|284:335,1,74.8000022827149,8|0,0:0|3:0,0:0:0:0:
247,297,150641,1,8,0:0:0:0:
136,161,150791,6,0,P|77:155|8:232,1,149.60000456543,6|8,3:2|0:0,0:0:0:0:
108,358,151241,1,2,3:2:0:0:
111,347,151316,1,0,3:0:0:0:
114,336,151391,1,0,3:0:0:0:
117,325,151466,1,0,3:0:0:0:
120,314,151541,2,0,L|115:266,2,37.4000011413575,2|0|8,3:2|3:0|0:0,0:0:0:0:
229,194,151841,5,0,3:0:0:0:
226,204,151916,1,0,3:0:0:0:
223,214,151991,1,10,0:0:0:0:
146,20,152141,5,10,0:0:0:0:
136,48,152216,1,8,0:0:0:0:
126,76,152291,1,8,0:0:0:0:
82,192,152441,5,10,0:0:0:0:
256,192,152741,1,10,0:0:0:0:
430,192,153041,1,10,0:0:0:0:
351,349,153191,5,10,0:0:0:0:
236,282,153341,2,0,L|202:290,3,34,0|0|0|0,3:0|3:0|3:0|3:0,0:0:0:0:
134,250,153641,2,0,L|65:326,1,102,10|0,0:0|0:0,0:0:0:0:
10,271,153941,2,0,L|79:195,1,102,10|0,0:0|0:0,0:0:0:0:
78,195,155291,2,0,L|76:141,3,34,0|0|0|0,3:0|3:0|3:0|3:0,0:0:0:0:
110,89,155591,5,10,0:0:0:0:
110,89,156041,2,0,L|226:113,1,102,10|0,0:0|0:0,0:0:0:0:
284,127,156341,1,10,0:0:0:0:
405,245,156491,6,0,L|411:210,3,34,0|0|0|0,3:0|3:0|3:0|3:0,0:0:0:0:
464,155,156791,2,0,P|467:96|441:50,1,102,6|0,3:2|0:0,0:0:0:0:
377,26,157091,1,8,0:0:0:0:
377,26,157166,1,8,0:0:0:0:
377,26,157241,1,8,0:0:0:0:
281,104,157391,2,0,P|221:101|178:71,1,102,6|0,3:2|0:0,0:0:0:0:
143,17,157691,1,8,0:0:0:0:
133,19,157766,1,8,0:0:0:0:
123,21,157841,1,8,0:0:0:0:
113,23,157916,1,8,0:0:0:0:
103,26,157991,5,6,3:2:0:0:
158,150,158291,1,0,3:0:0:0:
292,172,158591,1,2,3:2:0:0:
380,68,158891,1,2,3:2:0:0:
466,225,159191,5,6,3:2:0:0:
411,349,159491,1,0,3:0:0:0:
277,371,159791,1,2,3:2:0:0:
189,267,160091,1,2,3:2:0:0:
343,143,160391,5,10,0:0:0:0:
274,74,160541,2,0,P|274:54|280:34,2,34,0|0|0,3:0|3:0|3:0,0:0:0:0:
155,30,160841,2,0,P|180:94|190:168,1,136,14|0,0:0|3:0,0:0:0:0:
136,217,161216,1,0,3:0:0:0:
136,217,161291,1,10,0:0:0:0:
10,329,161441,2,0,L|51:318,1,34,0|0,3:0|3:0,0:0:0:0:
110,361,161591,6,0,L|218:345,1,102,14|0,0:0|0:0,0:0:0:0:
240,274,161891,2,0,L|281:263,3,34,0|0|0|0,3:0|3:0|3:0|3:0,0:0:0:0:
340,306,162191,2,0,L|448:290,1,102,14|0,0:0|0:0,0:0:0:0:
469,216,162491,2,0,L|510:205,3,34,0|0|0|0,3:0|3:0|3:0|3:0,0:0:0:0:
451,131,162791,6,0,P|304:174|158:50,1,356.999989105225,14|0,0:0|0:0,0:0:0:0:
158,52,163991,5,10,0:0:0:0:
74,23,164141,1,8,0:0:0:0:
158,52,164741,5,10,0:0:0:0:
74,23,164891,1,10,0:0:0:0:
90,109,165041,1,8,0:0:0:0:
354,52,166391,5,10,0:0:0:0:
438,23,166541,1,8,0:0:0:0:
354,52,167141,5,10,0:0:0:0:
438,23,167291,1,10,0:0:0:0:
422,109,167441,1,8,0:0:0:0:
433,120,168341,1,0,3:0:0:0:
433,120,168416,1,0,3:0:0:0:
433,120,168491,2,0,P|413:163|419:226,1,102,8|0,0:0|0:0,0:0:0:0:
415,216,168791,5,6,3:2:0:0:
451,347,169091,1,0,3:0:0:0:
318,379,169391,1,10,0:0:0:0:
282,248,169691,1,0,3:0:0:0:
149,280,169991,5,2,3:2:0:0:
113,149,170291,1,0,3:0:0:0:
246,117,170591,1,10,0:0:0:0:
282,248,170891,1,0,3:0:0:0:
19,245,171191,5,6,3:2:0:0:
86,126,171491,1,0,3:0:0:0:
202,198,171791,1,10,0:0:0:0:
135,316,172091,1,0,3:0:0:0:
219,341,172241,1,8,0:0:0:0:
310,373,172391,5,10,0:0:0:0:
310,373,172466,1,0,3:0:0:0:
310,373,172541,2,0,L|357:365,2,34,0|0|0,3:0|3:0|3:0,0:0:0:0:
262,265,172841,1,10,0:0:0:0:
262,265,172916,1,0,3:0:0:0:
262,265,172991,2,0,L|289:226,2,34,0|0|0,3:0|3:0|3:0,0:0:0:0:
143,286,173291,2,0,L|124:176,1,102,10|0,0:0|0:0,0:0:0:0:
61,145,173591,6,0,P|127:144|169:91,1,136,6|0,3:2|3:0,0:0:0:0:
282,19,174041,2,0,L|323:32,3,34,2|0|8|0,3:2|3:0|0:0|3:0,0:0:0:0:
346,100,174341,2,0,L|375:131,3,34,2|0|0|0,3:2|3:0|3:0|3:0,0:0:0:0:
372,210,174641,1,0,3:0:0:0:
372,210,174716,1,0,3:0:0:0:
372,210,174791,6,0,L|403:347,1,136,6|0,3:2|3:0,0:0:0:0:
237,373,175241,2,0,L|249:336,3,34,2|0|8|0,3:2|3:0|0:0|3:0,0:0:0:0:
208,272,175541,2,0,L|220:235,3,34,2|0|0|0,3:2|3:0|3:0|3:0,0:0:0:0:
182,169,175841,1,0,3:0:0:0:
182,169,175916,1,0,3:0:0:0:
182,169,175991,6,0,P|113:172|86:239,1,136,6|0,3:2|3:0,0:0:0:0:
10,366,176441,2,0,P|26:357|47:355,3,34,2|0|8|0,3:2|3:0|0:0|3:0,0:0:0:0:
105,308,176741,2,0,P|123:308|142:316,3,34,2|0|0|0,3:2|3:0|3:0|3:0,0:0:0:0:
206,369,177041,1,0,3:0:0:0:
206,369,177116,1,0,3:0:0:0:
206,369,177191,6,0,P|287:367|341:326,1,136,6|0,3:2|3:0,0:0:0:0:
369,135,177641,1,2,3:2:0:0:
369,135,177716,1,0,3:0:0:0:
369,135,177791,1,8,0:0:0:0:
467,203,177941,2,0,P|484:254|486:311,1,102,2|0,3:2|0:0,0:0:0:0:
434,361,178241,1,0,3:0:0:0:
434,361,178316,1,0,3:0:0:0:
434,361,178391,6,0,L|356:375,1,68,6|0,3:2|3:0,0:0:0:0:
257,292,178691,2,0,L|243:214,1,68,8|0,0:0|3:0,0:0:0:0:
331,120,178991,1,2,3:2:0:0:
333,110,179066,1,0,3:0:0:0:
335,100,179141,1,0,3:0:0:0:
337,90,179216,1,0,3:0:0:0:
339,80,179291,2,0,L|344:35,3,34,8|0|0|0,0:0|3:0|3:0|3:0,0:0:0:0:
269,16,179591,6,0,L|254:85,1,68,6|0,3:2|3:0,0:0:0:0:
391,218,179891,2,0,L|406:149,1,68,8|0,0:0|3:0,0:0:0:0:
250,260,180191,1,2,3:2:0:0:
239,261,180266,1,0,3:0:0:0:
228,262,180341,1,0,3:0:0:0:
217,263,180416,1,0,3:0:0:0:
207,265,180491,2,0,L|156:270,3,34,8|0|0|0,0:0|3:0|3:0|3:0,0:0:0:0:
111,315,180791,6,0,L|76:378,1,68,6|0,3:2|3:0,0:0:0:0:
158,176,181091,1,10,0:0:0:0:
20,239,181241,1,0,3:0:0:0:
63,107,181391,1,10,0:0:0:0:
53,103,181466,1,0,3:0:0:0:
43,99,181541,1,0,3:0:0:0:
33,96,181616,1,0,3:0:0:0:
23,93,181691,2,0,L|18:50,3,34,10|0|0|0,0:0|3:0|3:0|3:0,0:0:0:0:
83,13,181991,5,14,0:0:0:0:
173,124,182141,2,0,L|179:174,3,34,0|0|0|0,3:0|3:0|3:0|3:0,0:0:0:0:
248,184,182441,1,10,0:0:0:0:
313,69,182591,2,0,L|319:19,3,34,0|0|0|0,3:0|3:0|3:0|3:0,0:0:0:0:
393,17,182891,2,0,B|423:61|423:61|394:116,1,102,10|0,0:0|0:0,0:0:0:0:
352,166,183191,5,6,3:2:0:0:
478,295,183341,2,0,P|429:270|364:264,1,102,8|0,0:0|3:0,0:0:0:0:
330,320,183641,2,0,P|302:342|249:368,1,68,10|0,0:0|3:0,0:0:0:0:
175,244,183941,1,10,0:0:0:0:
88,321,184091,2,0,L|95:355,2,34,0|0|8,3:0|3:0|0:0,0:0:0:0:
15,196,184391,5,2,3:2:0:0:
145,63,184541,2,0,B|165:106|165:106|133:162,1,102,8|0,0:0|3:0,0:0:0:0:
202,199,184841,2,0,L|238:134,1,68,10|0,0:0|3:0,0:0:0:0:
303,9,185141,1,10,0:0:0:0:
419,60,185291,1,0,3:0:0:0:
419,60,185366,1,0,3:0:0:0:
419,60,185441,1,8,0:0:0:0:
303,202,185591,5,6,3:2:0:0:
386,278,185741,2,0,B|447:264|447:264|473:233,1,102,8|0,0:0|3:0,0:0:0:0:
422,176,186041,2,0,P|424:134|431:106,1,68,10|0,0:0|3:0,0:0:0:0:
292,19,186341,1,10,0:0:0:0:
172,146,186491,2,0,P|183:160|194:181,2,34,0|0|8,3:0|3:0|0:0,0:0:0:0:
33,46,186791,5,2,3:2:0:0:
77,186,186941,2,0,P|75:226|65:257,1,68,8|0,0:0|3:0,0:0:0:0:
26,318,187166,1,0,3:0:0:0:
26,318,187241,2,0,P|92:290|166:295,1,136,10|8,0:0|0:0,0:0:0:0:
275,358,187691,2,0,L|281:321,2,34,0|0|8,3:0|3:0|0:0,0:0:0:0:
451,290,187991,6,0,P|425:270|414:227,1,68,6|8,3:2|0:0,0:0:0:0:
427,78,188291,1,0,3:0:0:0:
432,69,188366,1,0,3:0:0:0:
437,60,188441,1,10,0:0:0:0:
442,51,188516,1,0,3:0:0:0:
448,42,188591,2,0,L|485:29,2,34,0|0|0,3:0|3:0|3:0,0:0:0:0:
336,106,188891,2,0,L|299:93,2,34,2|0|8,3:2|3:0|0:0,0:0:0:0:
178,18,189191,5,2,3:2:0:0:
67,126,189341,1,10,0:0:0:0:
67,126,189416,1,0,3:0:0:0:
67,126,189491,2,0,L|56:85,2,34,0|0|8,3:0|3:0|0:0,0:0:0:0:
215,157,189791,2,0,P|172:167|144:182,1,68,2|8,3:2|0:0,0:0:0:0:
15,271,190091,1,2,3:2:0:0:
25,272,190166,1,0,3:0:0:0:
35,273,190241,1,8,0:0:0:0:
194,364,190391,6,0,P|193:341|187:322,3,34,6|0|8|0,3:2|3:0|0:0|3:0,0:0:0:0:
243,272,190691,2,0,P|228:253|212:242,3,34,2|0|8|0,3:2|3:0|0:0|3:0,0:0:0:0:
231,168,190991,2,0,P|203:148|165:139,1,68,2|8,3:2|0:0,0:0:0:0:
64,15,191291,1,0,3:0:0:0:
64,15,191366,1,0,3:0:0:0:
64,15,191441,1,10,0:0:0:0:
202,68,191591,5,2,3:2:0:0:
304,17,191741,2,0,P|354:7|434:8,1,102,8|0,0:0|3:0,0:0:0:0:
473,46,192041,1,10,0:0:0:0:
373,86,192191,1,0,3:0:0:0:
470,198,192341,2,0,B|484:258|484:258|465:341,1,136,10|8,0:0|0:0,0:0:0:0:
307,373,192791,6,0,L|300:296,1,68,6|8,3:2|0:0,0:0:0:0:
284,167,193091,2,0,L|280:128,2,34,2|0|8,3:2|3:0|0:0,0:0:0:0:
169,258,193391,2,0,P|122:224|58:218,1,102,2|2,3:2|3:2,0:0:0:0:
23,269,193691,1,0,3:0:0:0:
134,366,193841,6,0,B|197:347|197:347|285:336,1,136,10|8,0:0|0:0,0:0:0:0:
352,242,194291,2,0,L|362:199,2,34,2|0|8,3:2|3:0|0:0,0:0:0:0:
242,127,194591,2,0,L|258:210,1,68,2|8,3:2|0:0,0:0:0:0:
367,359,194891,1,2,3:2:0:0:
367,359,194966,1,0,3:0:0:0:
367,359,195041,6,0,P|427:321|505:309,1,136,8|10,0:0|0:0,0:0:0:0:
436,150,195491,2,0,P|413:141|395:139,2,34,0|0|8,3:0|3:0|0:0,0:0:0:0:
303,285,195791,2,0,P|257:277|224:228,1,102,2|0,3:2|3:0,0:0:0:0:
248,158,196091,1,2,3:2:0:0:
102,291,196241,6,0,P|70:248|64:158,1,136,8|8,0:0|0:0,0:0:0:0:
159,28,196691,2,0,P|153:37|148:63,2,34,2|0|8,3:2|3:0|0:0,0:0:0:0:
341,156,196991,1,6,3:2:0:0:
421,80,197141,1,8,0:0:0:0:
421,80,197216,1,8,0:0:0:0:
421,80,197291,1,2,3:2:0:0:
280,24,197441,1,8,0:0:0:0:
280,24,197516,1,8,0:0:0:0:
280,24,197591,6,0,L|228:15,3,34,2|0|0|0,3:2|3:0|3:0|3:0,0:0:0:0:
190,72,197891,1,0,3:0:0:0:
55,134,198041,1,0,3:0:0:0:
55,134,198116,1,0,3:0:0:0:
55,134,198191,2,0,B|35:67|35:67|73:2,1,136,10|0,0:0|3:0,0:0:0:0:
187,185,198641,2,0,L|197:235,1,34,0|0,3:0|3:0,0:0:0:0:
128,298,198791,5,2,3:2:0:0:
128,298,198866,1,0,3:0:0:0:
128,298,198941,2,0,L|78:308,2,34,0|0|0,3:0|3:0|3:0,0:0:0:0:
271,350,199241,1,0,3:0:0:0:
271,350,199316,1,0,3:0:0:0:
271,350,199391,2,0,P|346:340|421:372,1,136,10|0,0:0|3:0,0:0:0:0:
500,258,199841,1,0,3:0:0:0:
500,258,199916,1,0,3:0:0:0:
500,258,199991,6,0,L|505:211,3,34,10|0|0|0,0:0|3:0|3:0|3:0,0:0:0:0:
473,152,200291,1,0,3:0:0:0:
349,240,200441,1,10,0:0:0:0:
349,240,200516,1,0,3:0:0:0:
349,240,200591,1,0,3:0:0:0:
263,115,200741,2,0,L|299:102,1,34,8|0,0:0|3:0,0:0:0:0:
363,28,200891,2,0,L|355:61,1,34,8|0,0:0|3:0,0:0:0:0:
388,159,201041,2,0,L|362:136,1,34,8|0,0:0|3:0,0:0:0:0:
275,22,201191,5,10,0:0:0:0:
275,22,201341,1,10,0:0:0:0:
275,22,201491,1,10,0:0:0:0:
275,22,202391,5,6,3:2:0:0:
201,170,203591,1,6,3:2:0:0:
349,331,204791,5,6,3:2:0:0:
186,350,205391,1,6,3:2:0:0:
24,369,205991,5,6,3:2:0:0:
175,254,206291,1,6,3:2:0:0:
85,88,206591,5,8,0:0:0:0:
5,193,206741,1,0,3:1:0:0:
5,193,206816,1,0,3:0:0:0:
5,193,206891,2,0,L|48:180,2,34,0|0|0,3:0|3:0|3:0,0:0:0:0:
99,310,207191,5,6,3:2:0:0:
99,310,207491,1,0,3:0:0:0:
168,374,207641,1,8,0:0:0:0:
99,310,207791,1,0,3:0:0:0:
256,345,208091,1,8,0:0:0:0:
413,310,208391,5,0,3:0:0:0:
344,374,208541,1,10,0:0:0:0:
413,310,208691,1,0,3:0:0:0:
225,260,208991,1,8,0:0:0:0:
365,136,209291,1,0,3:0:0:0:
281,89,209441,1,8,0:0:0:0:
365,44,209591,5,10,0:0:0:0:
365,44,209666,1,0,3:0:0:0:
365,44,209741,2,0,L|371:4,2,34,0|0|8,3:0|3:0|0:0,0:0:0:0:
187,94,210041,2,0,L|180:56,1,34,2|0,3:2|0:0,0:0:0:0:
301,227,210341,2,0,L|294:189,1,34,2|0,3:2|0:0,0:0:0:0:
410,361,210641,2,0,P|416:312|440:245,1,102,6|4,3:2|0:0,0:0:0:0:
471,189,210941,5,0,3:0:0:0:
471,189,211016,1,0,3:0:0:0:
471,189,211091,2,0,L|421:176,2,34,0|0|0,3:0|3:0|3:0,0:0:0:0:
325,310,211391,2,0,L|275:323,2,34,8|8|0,0:0|0:0|3:0,0:0:0:0:
224,231,211691,1,8,0:0:0:0:
82,308,211841,1,10,0:0:0:0:
82,308,211916,1,8,0:0:0:0:
82,308,211991,6,0,P|100:230|106:144,1,149.60000456543,6|0,3:2|3:0,0:0:0:0:
205,63,212441,1,10,0:0:0:0:
207,73,212516,1,0,3:0:0:0:
209,83,212591,1,0,3:0:0:0:
211,93,212666,1,0,3:0:0:0:
213,103,212741,2,0,L|260:110,2,37.4000011413575,8|0|0,0:0|3:0|3:0,0:0:0:0:
377,26,213041,1,8,0:0:0:0:
377,26,213116,1,0,3:0:0:0:
377,26,213191,6,0,B|418:76|418:76|398:171,1,149.60000456543,2|0,3:2|3:0,0:0:0:0:
269,211,213641,1,8,0:0:0:0:
343,324,213791,2,0,P|382:305|420:303,2,74.8000022827149,2|8|0,3:2|0:0|3:0,0:0:0:0:
145,369,214241,1,8,0:0:0:0:
145,369,214316,1,0,3:0:0:0:
145,369,214391,6,0,P|146:287|207:283,1,149.60000456543,6|0,3:2|3:0,0:0:0:0:
338,369,214841,1,10,0:0:0:0:
336,357,214916,1,0,3:0:0:0:
334,345,214991,1,4,3:2:0:0:
332,333,215066,1,0,3:0:0:0:
330,321,215141,2,0,L|324:274,2,37.4000011413575,8|0|0,0:0|3:0|3:0,0:0:0:0:
449,194,215441,1,8,0:0:0:0:
449,194,215516,1,0,3:0:0:0:
449,194,215591,6,0,B|391:137|391:137|321:173,1,149.60000456543,6|0,3:2|3:0,0:0:0:0:
200,103,216041,1,8,0:0:0:0:
112,218,216191,2,0,B|78:189|78:189|29:191,2,74.8000022827149,2|8|8,3:2|0:0|0:0,0:0:0:0:
115,65,216641,1,8,0:0:0:0:
117,75,216716,1,0,3:0:0:0:
119,85,216791,5,6,3:2:0:0:
264,199,216941,2,0,P|296:140|302:76,1,112.200003424072,8|0,0:0|3:0,0:0:0:0:
261,36,217241,1,8,0:0:0:0:
449,9,217391,2,0,P|425:49|430:98,1,74.8000022827149,2|8,3:2|0:0,0:0:0:0:
462,198,217691,2,0,L|419:204,2,37.4000011413575,0|0|8,3:0|3:0|0:0,0:0:0:0:
384,325,217991,5,2,3:2:0:0:
199,168,218141,2,0,B|256:167|256:167|321:211,1,112.200003424072,8|0,0:0|3:0,0:0:0:0:
276,270,218441,1,8,0:0:0:0:
115,379,218591,2,0,P|136:341|144:298,1,74.8000022827149,2|8,3:2|0:0,0:0:0:0:
90,178,218891,1,0,3:0:0:0:
90,178,218966,1,0,3:0:0:0:
90,178,219041,1,8,0:0:0:0:
223,351,219191,5,6,3:2:0:0:
339,229,219341,2,0,B|305:271|305:271|320:339,1,112.200003424072,8|0,0:0|3:0,0:0:0:0:
395,339,219641,2,0,B|417:304|417:304|412:261,1,74.8000022827149,8|2,0:0|3:2,0:0:0:0:
320,146,219941,1,8,0:0:0:0:
415,52,220091,2,0,P|416:29|409:10,2,37.4000011413575,0|0|8,3:0|3:0|0:0,0:0:0:0:
237,109,220391,5,2,3:2:0:0:
231,99,220466,1,0,3:0:0:0:
228,88,220541,1,8,0:0:0:0:
228,76,220616,1,0,3:0:0:0:
231,65,220691,2,0,P|250:47|272:41,2,37.4000011413575,0|8|0,3:0|0:0|3:0,0:0:0:0:
34,23,220991,6,0,P|69:29|93:75,1,74.8000022827149,8|0,0:0|3:0,0:0:0:0:
142,120,221216,2,0,P|150:154|117:194,1,74.8000022827149,8|0,0:0|3:0,0:0:0:0:
58,210,221441,1,8,0:0:0:0:
232,243,221591,6,0,P|238:154|264:85,1,149.60000456543,6|8,3:2|0:0,0:0:0:0:
386,25,222041,1,2,3:2:0:0:
391,30,222116,1,0,3:0:0:0:
398,38,222191,1,0,3:0:0:0:
404,47,222266,1,0,3:0:0:0:
409,56,222341,2,0,P|405:80|399:99,2,37.4000011413575,2|0|8,3:2|3:0|0:0,0:0:0:0:
479,228,222641,5,0,3:0:0:0:
477,239,222716,1,0,3:0:0:0:
475,250,222791,1,10,0:0:0:0:
319,126,222941,5,10,0:0:0:0:
325,155,223016,1,8,0:0:0:0:
332,184,223091,1,8,0:0:0:0:
417,310,223241,5,10,0:0:0:0:
256,310,223541,1,10,0:0:0:0:
95,310,223841,1,10,0:0:0:0:
169,112,223991,5,10,0:0:0:0:
66,196,224141,2,0,P|85:198|105:192,3,34,0|0|0|0,3:0|3:0|3:0|3:0,0:0:0:0:
171,225,224441,2,0,P|228:225|276:237,1,102,10|0,0:0|0:0,0:0:0:0:
262,313,224741,2,0,P|204:312|157:301,1,102,10|0,0:0|0:0,0:0:0:0:
161,302,226091,2,0,L|130:341,3,34,0|0|0|0,3:0|3:0|3:0|3:0,0:0:0:0:
66,309,226391,5,10,0:0:0:0:
374,368,226841,2,0,L|357:263,1,102,10|0,0:0|0:0,0:0:0:0:
405,206,227141,1,10,0:0:0:0:
289,121,227291,6,0,L|334:110,3,34,0|0|0|0,3:0|3:0|3:0|3:0,0:0:0:0:
352,38,227591,2,0,L|252:18,1,102,6|0,3:2|0:0,0:0:0:0:
182,45,227891,1,8,0:0:0:0:
182,45,227966,1,8,0:0:0:0:
182,45,228041,1,8,0:0:0:0:
131,161,228191,2,0,L|31:181,1,102,6|0,3:2|0:0,0:0:0:0:
20,107,228491,1,8,0:0:0:0:
30,105,228566,1,8,0:0:0:0:
40,103,228641,1,8,0:0:0:0:
50,102,228716,1,8,0:0:0:0:
60,101,228791,5,6,3:2:0:0:
193,75,229091,1,0,3:0:0:0:
233,204,229391,1,2,3:2:0:0:
366,178,229691,1,2,3:2:0:0:
447,19,229991,5,6,3:2:0:0:
332,92,230291,1,0,3:0:0:0:
286,220,230591,1,2,3:2:0:0:
171,293,230891,1,2,3:2:0:0:
62,144,231191,5,10,0:0:0:0:
148,73,231341,2,0,L|154:25,2,34,0|0|0,3:0|3:0|3:0,0:0:0:0:
262,188,231641,2,0,B|235:120|235:120|292:62,1,136,14|0,0:0|3:0,0:0:0:0:
346,31,232016,1,0,3:0:0:0:
346,31,232091,1,10,0:0:0:0:
466,103,232241,1,0,3:0:0:0:
466,103,232316,1,0,3:0:0:0:
466,103,232391,6,0,P|468:152|448:213,1,102,14|0,0:0|0:0,0:0:0:0:
392,249,232691,2,0,P|379:225|377:203,3,34,0|0|0|0,3:0|3:0|3:0|3:0,0:0:0:0:
308,254,232991,2,0,P|271:218|247:174,1,102,14|0,0:0|0:0,0:0:0:0:
251,98,233291,1,0,3:0:0:0:
253,88,233366,1,0,3:0:0:0:
255,78,233441,1,0,3:0:0:0:
257,68,233516,1,0,3:0:0:0:
259,58,233591,6,0,B|170:111|58:64|58:64|111:169|67:270,1,411.400012554932,6|0,3:2|0:0,0:0:0:0:
64,271,234491,6,0,L|126:261,1,47.5999985473633,10|0,0:0|0:0,0:0:0:0:
227,174,234641,2,0,L|164:183,1,47.5999985473633,10|0,0:0|0:0,0:0:0:0:
