osu file format v14

[General]
AudioFilename: audio.mp3
AudioLeadIn: 0
PreviewTime: 68441
Countdown: 0
SampleSet: Soft
StackLeniency: 0.7
Mode: 0
LetterboxInBreaks: 0
WidescreenStoryboard: 1

[Editor]
Bookmarks: 16391,28391,40391,49991,59591,69191,78791,90791,100391,112391,121991,131591,141191,153191,163991,173591,183191,192791,202391,211991,223991,234791
DistanceSpacing: 0.3
BeatDivisor: 4
GridSize: 16
TimelineZoom: 3.499998

[Metadata]
Title:Veracila
TitleUnicode:Veracila
Artist:DUAL ALTER WORLD
ArtistUnicode:DUAL ALTER WORLD
Creator:Hinsvar
Version:Expert
Source:
Tags:ALTER EGO Japanese Metal Rock J-Metal JMetal J-Rock JRock 小岩井ことり Koiwai Kotori RYU Featured Artist FA Mappers' Guild MPG
BeatmapID:2947308
BeatmapSetID:1428384

[Difficulty]
HPDrainRate:5.5
CircleSize:4.2
OverallDifficulty:8.5
ApproachRate:9.2
SliderMultiplier:1.44
SliderTickRate:1

[Events]
//Background and Video events
0,0,"veracila.jpg",0,0
//Break Periods
//Storyboard Layer 0 (Background)
//Storyboard Layer 1 (Fail)
//Storyboard Layer 2 (Pass)
//Storyboard Layer 3 (Foreground)
//Storyboard Layer 4 (Overlay)
//Storyboard Sound Samples

[TimingPoints]
1236,348.837209302326,4,2,1,70,1,0
15791,300,4,2,1,70,1,0
16391,300,4,2,1,70,1,0
16841,-83.3333333333333,4,2,1,70,0,0
17066,-83.3333333333333,4,2,1,5,0,0
17141,-83.3333333333333,4,2,1,70,0,0
17366,-83.3333333333333,4,2,1,5,0,0
18491,-100,4,2,1,70,0,0
18791,-83.3333333333333,4,2,1,70,0,0
18866,-83.3333333333333,4,2,1,5,0,0
19241,-62.5,4,2,1,70,0,0
19466,-62.5,4,2,1,5,0,0
19541,-50,4,2,1,70,0,0
19616,-50,4,2,1,5,0,0
19691,-100,4,2,1,70,0,0
20216,-100,4,2,1,5,0,0
20291,-100,4,2,1,70,0,0
20816,-100,4,2,1,5,0,0
20891,-100,4,2,1,70,0,0
25016,-100,4,2,1,5,0,0
25091,-100,4,2,1,70,0,0
25391,-100,4,2,1,70,0,0
25616,-100,4,2,1,70,0,0
25691,-100,4,2,1,70,0,0
28391,-100,4,2,1,80,0,0
33191,-100,4,2,1,75,0,0
40391,-125,4,2,1,60,0,0
49991,-111.111111111111,4,2,1,65,0,0
51566,-111.111111111111,4,2,1,5,0,0
51791,-111.111111111111,4,2,1,65,0,0
51866,-111.111111111111,4,2,1,5,0,0
52091,-111.111111111111,4,2,1,65,0,0
52166,-111.111111111111,4,2,1,5,0,0
52391,-111.111111111111,4,2,1,65,0,0
54116,-111.111111111111,4,2,1,5,0,0
54191,-111.111111111111,4,2,1,65,0,0
54416,-111.111111111111,4,2,1,5,0,0
54491,-111.111111111111,4,2,1,65,0,0
54716,-111.111111111111,4,2,1,5,0,0
54791,-111.111111111111,4,2,1,65,0,0
59591,-100,4,2,1,70,0,0
67541,-66.6666666666667,4,2,1,70,0,0
67991,-66.6666666666667,4,2,1,75,0,0
69191,-83.3333333333333,4,2,1,85,0,1
78641,-83.3333333333333,4,2,1,85,0,0
78791,-83.3333333333333,4,2,1,85,0,1
90791,-100,4,2,1,80,0,0
95591,-166.666666666667,4,2,1,70,0,0
100391,-125,4,2,1,70,0,0
102791,-125,4,2,1,60,0,0
112391,-111.111111111111,4,2,1,65,0,0
113966,-111.111111111111,4,2,1,5,0,0
114191,-111.111111111111,4,2,1,65,0,0
114266,-111.111111111111,4,2,1,5,0,0
114491,-111.111111111111,4,2,1,65,0,0
114566,-111.111111111111,4,2,1,5,0,0
114791,-111.111111111111,4,2,1,65,0,0
116516,-111.111111111111,4,2,1,5,0,0
116591,-111.111111111111,4,2,1,65,0,0
116816,-111.111111111111,4,2,1,5,0,0
116891,-111.111111111111,4,2,1,65,0,0
117116,-111.111111111111,4,2,1,5,0,0
117191,-111.111111111111,4,2,1,65,0,0
121991,-100,4,2,1,70,0,0
129941,-66.6666666666667,4,2,1,70,0,0
130391,-66.6666666666667,4,2,1,75,0,0
131591,-83.3333333333333,4,2,1,85,0,1
141041,-83.3333333333333,4,2,1,85,0,0
141191,-83.3333333333333,4,2,1,85,0,1
153191,-100,4,2,1,70,0,0
153641,-83.3333333333333,4,2,1,70,0,0
153866,-83.3333333333333,4,2,1,5,0,0
153941,-83.3333333333333,4,2,1,70,0,0
154166,-62.5,4,2,1,5,0,0
155291,-100,4,2,1,70,0,0
155591,-83.3333333333333,4,2,1,70,0,0
155666,-83.3333333333333,4,2,1,5,0,0
156041,-62.5,4,2,1,70,0,0
156266,-62.5,4,2,1,5,0,0
156341,-50,4,2,1,70,0,0
156416,-50,4,2,1,5,0,0
156491,-100,4,2,1,70,0,0
157016,-100,4,2,1,5,0,0
157091,-100,4,2,1,70,0,0
157616,-100,4,2,1,5,0,0
157691,-100,4,2,1,70,0,0
161591,-83.3333333333333,4,2,1,70,0,0
161816,-83.3333333333333,4,2,1,5,0,0
161891,-100,4,2,1,70,0,0
162191,-66.6666666666667,4,2,1,70,0,0
162416,-66.6666666666667,4,2,1,5,0,0
162491,-100,4,2,1,70,0,0
162791,-200,4,2,1,70,0,0
163916,-200,4,2,1,5,0,0
163991,-100,4,2,1,65,0,0
168716,-166.666666666667,4,2,1,5,0,0
168791,-100,4,2,1,65,0,0
173516,-100,4,2,1,5,0,0
173591,-100,4,2,1,75,0,0
183116,-100,4,2,1,5,0,0
183191,-100,4,2,1,80,0,0
202391,-100,4,2,1,70,0,0
207191,-100,4,2,1,75,0,0
210116,-100,4,2,1,5,0,0
210341,-100,4,2,1,75,0,0
210416,-100,4,2,1,5,0,0
210641,-100,4,2,1,75,0,0
210866,-100,4,2,1,5,0,0
210941,-100,4,2,1,75,0,0
211991,-83.3333333333333,4,2,1,85,0,1
223991,-100,4,2,1,70,0,0
224441,-83.3333333333333,4,2,1,70,0,0
224666,-83.3333333333333,4,2,1,5,0,0
224741,-83.3333333333333,4,2,1,70,0,0
224966,-83.3333333333333,4,2,1,5,0,0
226091,-100,4,2,1,70,0,0
226391,-83.3333333333333,4,2,1,70,0,0
226466,-83.3333333333333,4,2,1,5,0,0
226841,-62.5,4,2,1,70,0,0
227066,-62.5,4,2,1,5,0,0
227141,-50,4,2,1,70,0,0
227216,-50,4,2,1,5,0,0
227291,-100,4,2,1,70,0,0
227816,-100,4,2,1,5,0,0
227891,-100,4,2,1,70,0,0
228416,-100,4,2,1,5,0,0
228491,-100,4,2,1,70,0,0
232391,-83.3333333333333,4,2,1,75,0,0
232616,-83.3333333333333,4,2,1,5,0,0
232691,-100,4,2,1,75,0,0
232991,-71.4285714285714,4,2,1,75,0,0
233216,-71.4285714285714,4,2,1,5,0,0
233291,-100,4,2,1,75,0,0
233591,-83.3333333333333,4,2,1,80,0,0
234416,-83.3333333333333,4,2,1,5,0,0
234491,-62.5,4,2,1,80,0,0
234566,-62.5,4,2,1,5,0,0
234641,-62.5,4,2,1,80,0,0
234716,-62.5,4,2,1,5,0,0

[Colours]
Combo1 : 77,240,81
Combo2 : 64,159,255
Combo3 : 255,47,151
Combo4 : 103,245,238

[HitObjects]
441,157,16391,5,10,0:0:0:0:
337,213,16541,1,0,3:0:0:0:
326,215,16616,1,0,3:0:0:0:
315,217,16691,1,0,3:0:0:0:
304,219,16766,1,0,3:0:0:0:
293,221,16841,2,0,L|323:92,1,129.599996044922,10|0,0:0|0:0,0:0:0:0:
193,172,17141,2,0,L|222:298,1,129.599996044922,10|0,0:0|0:0,0:0:0:0:
222,298,18491,1,0,3:0:0:0:
220,308,18566,1,0,3:0:0:0:
218,318,18641,1,0,3:0:0:0:
216,328,18716,1,0,3:0:0:0:
214,338,18791,6,0,L|178:371,1,43.1999986816407,10|0,0:0|0:0,0:0:0:0:
63,180,19241,2,0,L|-4:353,1,172.8,10|0,0:0|0:0,0:0:0:0:
148,238,19541,2,0,L|218:206,1,72,10|0,0:0|0:0,0:0:0:0:
293,293,19691,5,0,3:0:0:0:
294,303,19766,1,0,3:0:0:0:
295,313,19841,1,0,3:0:0:0:
297,323,19916,1,0,3:0:0:0:
299,333,19991,2,0,L|431:367,1,108,6|0,3:2|0:0,0:0:0:0:
495,214,20291,5,8,0:0:0:0:
494,224,20366,1,8,0:0:0:0:
493,234,20441,1,8,0:0:0:0:
491,244,20516,1,8,0:0:0:0:
489,254,20591,2,0,L|354:276,1,108,6|0,3:2|0:0,0:0:0:0:
329,160,20891,5,8,0:0:0:0:
326,149,20966,1,8,0:0:0:0:
323,138,21041,1,8,0:0:0:0:
320,127,21116,1,8,0:0:0:0:
317,116,21191,5,6,3:2:0:0:
242,47,21491,1,0,3:0:0:0:
146,80,21791,1,2,3:2:0:0:
221,147,22091,1,2,3:2:0:0:
317,116,22391,5,6,3:2:0:0:
426,22,22691,1,0,3:0:0:0:
450,163,22991,1,2,3:2:0:0:
344,260,23291,1,2,3:2:0:0:
105,156,23591,5,14,0:0:0:0:
59,276,23741,2,0,L|69:362,1,72,10|0,0:0|3:0,0:0:0:0:
164,261,24041,1,10,0:0:0:0:
172,332,24191,1,0,3:0:0:0:
265,242,24341,1,10,0:0:0:0:
273,313,24491,1,0,3:0:0:0:
366,223,24641,1,10,0:0:0:0:
374,294,24791,6,0,L|507:337,1,108,6|0,3:2|0:0,0:0:0:0:
214,302,25091,1,8,0:0:0:0:
215,312,25166,1,8,0:0:0:0:
216,322,25241,1,8,0:0:0:0:
217,332,25316,1,8,0:0:0:0:
220,342,25391,6,0,L|332:353,1,108.000004119873,6|0,3:2|0:0,0:0:0:0:
366,223,25691,1,0,3:0:0:0:
368,212,25766,1,0,3:0:0:0:
370,201,25841,1,0,3:0:0:0:
372,190,25916,1,0,3:0:0:0:
374,179,25991,5,6,3:2:0:0:
256,192,26141,12,2,27791,0:0:0:0:
146,167,28391,5,14,3:2:0:0:
128,180,28466,1,0,3:0:0:0:
115,198,28541,1,0,3:0:0:0:
109,218,28616,1,0,3:0:0:0:
110,239,28691,1,8,3:2:0:0:
117,259,28766,1,0,3:0:0:0:
132,274,28841,2,0,L|177:265,3,36,2|0|8|0,3:2|3:0|3:2|3:0,0:0:0:0:
263,326,29141,2,0,L|308:335,3,36,2|0|8|0,3:2|3:0|3:2|3:0,0:0:0:0:
404,305,29441,1,2,3:2:0:0:
410,313,29516,1,0,3:0:0:0:
417,321,29591,6,0,P|439:257|444:172,1,144,8|8,3:2|3:2,0:0:0:0:
394,35,30041,1,2,3:2:0:0:
375,23,30116,1,2,3:2:0:0:
353,21,30191,1,10,3:2:0:0:
265,140,30341,1,2,3:2:0:0:
275,158,30416,1,2,3:2:0:0:
280,180,30491,2,0,P|284:197|280:218,2,36,8|0|2,3:2|3:0|3:2,0:0:0:0:
141,26,30791,5,14,0:0:0:0:
134,46,30866,1,0,3:0:0:0:
121,63,30941,1,0,3:0:0:0:
105,77,31016,1,0,3:0:0:0:
84,83,31091,1,10,3:2:0:0:
62,80,31166,1,0,3:0:0:0:
44,67,31241,2,0,L|48:18,3,36,2|0|12|0,3:2|3:0|3:2|3:0,0:0:0:0:
101,192,31541,2,0,L|128:151,3,36,2|0|8|0,3:2|3:0|3:2|3:0,0:0:0:0:
259,171,31841,2,0,L|215:189,1,36,2|2,3:2|3:2,0:0:0:0:
52,276,31991,6,0,P|104:296|147:378,1,144,14|8,0:0|0:0,0:0:0:0:
262,325,32441,1,0,3:0:0:0:
273,306,32516,1,0,3:0:0:0:
274,284,32591,2,0,L|256:238,3,36,14|0|2|0,3:2|0:0|3:2|3:0,0:0:0:0:
187,236,32891,1,0,3:0:0:0:
299,158,33041,1,0,3:0:0:0:
161,15,33191,5,6,3:2:0:0:
331,65,33341,2,0,L|456:83,1,108,8|0,3:0|3:0,0:0:0:0:
472,145,33641,1,8,0:0:0:0:
391,296,33791,2,0,P|384:267|378:219,1,72,2|8,3:2|0:0,0:0:0:0:
278,129,34091,1,0,3:0:0:0:
275,139,34166,1,0,3:0:0:0:
272,149,34241,1,8,0:0:0:0:
66,243,34391,5,2,3:2:0:0:
145,351,34541,2,0,P|185:324|245:319,1,108,8|0,0:0|3:0,0:0:0:0:
302,364,34841,1,8,0:0:0:0:
212,232,34991,2,0,P|178:219|153:181,1,72,2|8,3:2|0:0,0:0:0:0:
236,24,35291,1,0,3:0:0:0:
238,34,35366,1,0,3:0:0:0:
240,44,35441,1,8,0:0:0:0:
427,133,35591,5,6,3:2:0:0:
438,151,35666,1,0,3:0:0:0:
443,172,35741,1,8,3:2:0:0:
442,193,35816,1,0,3:0:0:0:
435,213,35891,1,0,3:0:0:0:
427,232,35966,1,0,3:0:0:0:
416,250,36041,2,0,L|423:301,3,36,10|0|0|0,3:2|3:0|3:0|3:0,0:0:0:0:
316,317,36341,2,0,L|296:364,3,36,10|0|0|0,3:2|3:0|3:0|3:0,0:0:0:0:
192,332,36641,2,0,L|151:363,1,36,2|2,3:2|3:2,0:0:0:0:
45,306,36791,5,2,3:2:0:0:
43,284,36866,1,0,3:0:0:0:
41,262,36941,1,8,3:2:0:0:
39,240,37016,1,0,3:0:0:0:
37,218,37091,2,0,L|44:176,3,36,0|0|8|0,3:0|3:0|3:2|3:0,0:0:0:0:
124,78,37391,5,10,0:0:0:0:
136,111,37466,1,10,0:0:0:0:
150,143,37541,2,0,L|189:151,3,36,2|0|0|0,3:2|3:0|3:0|3:0,0:0:0:0:
256,165,37841,1,2,3:2:0:0:
329,299,37991,5,4,3:2:0:0:
132,351,38291,1,0,3:0:0:0:
329,299,38591,1,0,3:0:0:0:
132,351,38891,1,0,3:0:0:0:
373,216,39191,5,10,0:0:0:0:
230,309,39341,1,10,0:0:0:0:
234,330,39416,1,10,0:0:0:0:
238,351,39491,1,10,0:0:0:0:
63,285,39641,1,8,0:0:0:0:
238,351,39941,1,10,0:0:0:0:
373,216,40241,1,8,0:0:0:0:
262,51,40391,6,0,L|253:10,2,28.8,6|0|0,3:2|3:0|3:0,0:0:0:0:
352,88,40691,1,8,0:0:0:0:
203,130,40841,1,2,3:2:0:0:
203,130,41141,1,2,3:2:0:0:
262,51,41291,2,0,L|253:10,2,28.8,8|0|0,0:0|3:0|3:0,0:0:0:0:
141,207,41591,2,0,L|132:248,2,28.8,2|0|0,3:2|3:0|3:0,0:0:0:0:
19,30,41891,5,8,0:0:0:0:
112,80,42041,1,2,3:2:0:0:
113,88,42116,1,0,3:0:0:0:
114,96,42191,1,0,3:0:0:0:
22,147,42341,1,0,3:0:0:0:
115,197,42491,1,10,0:0:0:0:
116,205,42566,1,0,3:0:0:0:
117,213,42641,1,0,3:0:0:0:
62,323,42791,6,0,L|70:279,2,28.8,2|0|0,3:2|3:0|3:0,0:0:0:0:
204,256,43091,1,8,0:0:0:0:
336,366,43241,1,2,3:2:0:0:
204,256,43541,1,2,3:2:0:0:
316,284,43691,2,0,L|355:272,2,28.8,8|0|0,0:0|3:0|3:0,0:0:0:0:
195,345,43991,2,0,L|156:333,2,28.8,2|0|0,3:2|3:0|3:0,0:0:0:0:
308,194,44291,5,8,0:0:0:0:
457,278,44441,1,2,3:2:0:0:
448,276,44516,1,0,3:0:0:0:
439,274,44591,1,0,3:0:0:0:
373,90,44741,1,0,3:0:0:0:
469,185,44891,1,10,0:0:0:0:
460,188,44966,1,0,3:0:0:0:
452,191,45041,1,0,3:0:0:0:
290,108,45191,6,0,L|277:75,2,28.8,6|0|0,3:2|3:0|3:0,0:0:0:0:
197,41,45491,1,8,0:0:0:0:
251,190,45641,1,2,3:2:0:0:
197,41,45941,1,2,3:2:0:0:
168,215,46091,2,0,L|158:260,2,28.8,10|0|0,0:0|3:0|3:0,0:0:0:0:
331,169,46391,2,0,L|358:196,2,28.8,2|0|0,3:2|3:0|3:0,0:0:0:0:
143,129,46691,5,8,0:0:0:0:
42,249,46841,1,2,3:2:0:0:
50,251,46916,1,0,3:0:0:0:
58,253,46991,1,0,3:0:0:0:
67,173,47141,1,0,3:0:0:0:
119,319,47291,1,10,0:0:0:0:
127,321,47366,1,0,3:0:0:0:
135,323,47441,1,0,3:0:0:0:
291,298,47591,6,0,L|301:255,2,28.8,2|0|0,3:2|3:0|3:0,0:0:0:0:
238,374,47891,1,8,0:0:0:0:
145,238,48041,1,2,3:2:0:0:
238,374,48341,1,2,3:2:0:0:
376,301,48491,2,0,L|413:289,2,28.8,8|0|0,0:0|3:0|3:0,0:0:0:0:
218,267,48791,2,0,L|187:243,2,28.8,2|0|0,3:2|3:0|3:0,0:0:0:0:
388,123,49091,5,8,0:0:0:0:
278,189,49241,1,2,3:2:0:0:
280,197,49316,1,0,3:0:0:0:
282,205,49391,1,0,3:0:0:0:
355,48,49541,1,0,3:0:0:0:
211,2,49691,1,10,0:0:0:0:
209,10,49766,1,0,3:0:0:0:
207,18,49841,1,0,3:0:0:0:
14,113,49991,5,14,0:0:0:0:
117,236,50141,1,0,3:0:0:0:
135,231,50216,1,0,3:0:0:0:
153,226,50291,1,0,3:0:0:0:
172,221,50366,1,0,3:0:0:0:
191,217,50441,2,0,L|199:147,1,64.799998022461,10|0,0:0|0:0,0:0:0:0:
127,21,50741,2,0,L|119:91,1,64.799998022461,0|0,3:0|3:0,0:0:0:0:
97,319,51041,1,10,0:0:0:0:
97,319,51491,6,0,L|146:305,1,32.3999990112305,0|0,3:0|0:0,0:0:0:0:
228,166,51791,2,0,L|215:215,1,32.3999990112305,8|0,0:0|0:0,0:0:0:0:
295,355,52091,2,0,L|258:319,1,32.3999990112305,0|0,3:0|0:0,0:0:0:0:
97,319,52391,5,10,0:0:0:0:
313,234,52541,1,0,3:0:0:0:
326,248,52616,1,0,3:0:0:0:
339,262,52691,1,0,3:0:0:0:
352,276,52766,1,0,3:0:0:0:
365,290,52841,2,0,L|435:280,1,64.799998022461,10|0,0:0|0:0,0:0:0:0:
507,176,53141,2,0,L|437:186,1,64.799998022461,0|0,3:0|3:0,0:0:0:0:
497,360,53441,1,10,0:0:0:0:
497,360,53891,6,0,L|513:257,1,97.1999970336915,0|0,3:0|0:0,0:0:0:0:
414,251,54191,2,0,L|479:169,1,97.1999970336915,8|0,0:0|0:0,0:0:0:0:
394,118,54491,2,0,L|491:80,1,97.1999970336915,0|0,3:0|0:0,0:0:0:0:
412,17,54791,5,10,0:0:0:0:
284,83,54941,1,0,3:0:0:0:
286,102,55016,1,0,3:0:0:0:
288,121,55091,1,0,3:0:0:0:
290,140,55166,1,0,3:0:0:0:
292,159,55241,2,0,L|277:233,1,64.799998022461,10|0,0:0|0:0,0:0:0:0:
83,358,55541,1,0,3:0:0:0:
48,261,55691,1,0,3:0:0:0:
145,225,55841,5,10,0:0:0:0:
180,323,55991,1,0,3:0:0:0:
83,358,56291,1,0,3:0:0:0:
278,333,56441,2,0,P|350:346|415:367,1,129.599996044922,8|0,0:0|3:0,0:0:0:0:
488,209,56891,1,8,0:0:0:0:
358,267,57041,1,8,0:0:0:0:
348,249,57116,1,8,0:0:0:0:
338,232,57191,6,0,P|338:160|346:97,1,129.599996044922,10|0,0:0|3:0,0:0:0:0:
165,30,57641,1,8,0:0:0:0:
165,30,57941,2,0,P|170:42|177:76,2,32.3999990112305,0|0|8,3:0|3:0|0:0,0:0:0:0:
63,188,58241,6,0,P|55:198|29:221,2,32.3999990112305,8|8|10,0:0|0:0|0:0,0:0:0:0:
215,143,58541,1,0,3:0:0:0:
221,161,58616,1,0,3:0:0:0:
227,179,58691,1,0,3:0:0:0:
233,197,58766,1,0,3:0:0:0:
239,215,58841,2,0,L|323:232,1,64.799998022461,10|0,0:0|0:0,0:0:0:0:
130,299,59141,1,0,3:0:0:0:
136,317,59216,1,0,3:0:0:0:
142,335,59291,2,0,L|226:352,1,64.799998022461,10|0,0:0|0:0,0:0:0:0:
404,371,59591,5,6,3:2:0:0:
425,205,59741,1,8,0:0:0:0:
299,318,59891,2,0,P|316:303|324:286,2,36,0|0|8,3:0|3:0|0:0,0:0:0:0:
234,157,60191,2,0,P|223:187|220:244,1,72,0|8,3:0|0:0,0:0:0:0:
149,343,60491,1,0,3:0:0:0:
145,332,60566,1,0,3:0:0:0:
141,321,60641,1,8,0:0:0:0:
24,183,60791,5,2,3:2:0:0:
141,239,60941,1,8,0:0:0:0:
84,94,61091,2,0,P|78:75|79:52,2,36,0|0|8,3:0|3:0|0:0,0:0:0:0:
252,21,61391,2,0,P|231:46|215:96,1,72,0|8,3:0|0:0,0:0:0:0:
289,190,61691,1,0,3:0:0:0:
297,183,61766,1,0,3:0:0:0:
305,176,61841,1,8,0:0:0:0:
471,93,61991,5,2,3:2:0:0:
349,23,62141,1,8,0:0:0:0:
457,180,62291,2,0,L|472:234,2,36,0|0|8,3:0|3:0|0:0,0:0:0:0:
287,89,62591,2,0,L|210:114,1,72,0|8,3:0|0:0,0:0:0:0:
96,19,62891,1,0,3:0:0:0:
98,29,62966,1,0,3:0:0:0:
100,39,63041,1,8,0:0:0:0:
182,205,63191,5,2,3:2:0:0:
26,265,63341,1,8,0:0:0:0:
31,141,63491,2,0,P|54:143|79:156,2,36,0|0|8,3:0|3:0|0:0,0:0:0:0:
201,364,63791,1,6,3:2:0:0:
308,282,63941,1,8,0:0:0:0:
329,278,64016,1,8,0:0:0:0:
350,274,64091,1,0,3:0:0:0:
371,270,64166,1,0,3:0:0:0:
392,266,64241,1,8,0:0:0:0:
413,263,64316,1,8,0:0:0:0:
434,260,64391,6,0,L|438:220,3,36,2|0|0|0,3:2|3:0|3:0|3:0,0:0:0:0:
335,158,64691,2,0,L|339:198,3,36,0|0|0|0,3:0|3:0|3:0|3:0,0:0:0:0:
228,304,64991,1,8,0:0:0:0:
227,314,65066,1,0,3:0:0:0:
226,324,65141,1,0,3:0:0:0:
225,334,65216,1,0,3:0:0:0:
224,344,65291,2,0,L|185:362,3,36,0|0|0|0,3:0|3:0|3:0|3:0,0:0:0:0:
121,258,65591,6,0,P|134:273|149:298,3,36,2|0|0|0,3:2|3:0|3:0|3:0,0:0:0:0:
302,268,65891,2,0,P|304:250|309:232,3,36,0|0|0|0,3:0|3:0|3:0|3:0,0:0:0:0:
196,127,66191,1,8,0:0:0:0:
194,116,66266,1,0,3:0:0:0:
192,105,66341,1,0,3:0:0:0:
190,94,66416,1,0,3:0:0:0:
188,83,66491,2,0,L|180:36,3,36,0|0|0|0,3:0|3:0|3:0|3:0,0:0:0:0:
335,14,66791,5,10,0:0:0:0:
332,35,66866,1,0,3:0:0:0:
329,56,66941,1,0,3:0:0:0:
326,77,67016,1,0,3:0:0:0:
323,98,67091,2,0,L|315:141,1,36,0|0,3:0|3:0,0:0:0:0:
398,228,67241,1,10,0:0:0:0:
395,249,67316,1,0,3:0:0:0:
392,270,67391,2,0,L|384:313,1,36,0|0,3:0|3:0,0:0:0:0:
268,371,67541,6,0,P|257:345|255:316,1,54.0000020599366,8|0,0:0|3:0,0:0:0:0:
132,303,67691,2,0,P|135:274|148:248,1,54.0000020599366,8|0,0:0|3:0,0:0:0:0:
35,192,67841,2,0,P|52:169|76:153,1,54.0000020599366,8|0,0:0|3:0,0:0:0:0:
72,154,67991,5,10,0:0:0:0:
146,251,68141,1,10,0:0:0:0:
255,320,68291,1,10,0:0:0:0:
255,320,69191,6,0,P|285:250|380:229,1,172.799994726563,6|0,3:2|3:0,0:0:0:0:
380,95,69566,1,0,3:0:0:0:
369,118,69641,2,0,P|328:138|283:144,1,86.3999973632813,10|0,0:0|3:0,0:0:0:0:
180,27,69941,1,8,0:0:0:0:
34,121,70091,1,0,3:0:0:0:
43,145,70166,1,0,3:0:0:0:
52,169,70241,6,0,P|142:170|220:227,1,172.799994726563,10|8,0:0|0:0,0:0:0:0:
378,145,70691,2,0,P|393:128|419:119,2,43.1999986816407,0|0|8,3:0|3:0|0:0,0:0:0:0:
294,285,70991,2,0,P|281:326|273:372,1,86.3999973632813,2|8,3:2|0:0,0:0:0:0:
137,190,71291,1,0,3:0:0:0:
141,215,71366,1,0,3:0:0:0:
146,240,71441,1,8,0:0:0:0:
358,348,71591,5,6,3:2:0:0:
244,161,71741,2,0,B|268:99|268:99|321:139,1,129.599996044922,0|0,0:0|3:0,0:0:0:0:
305,210,72041,1,10,0:0:0:0:
168,362,72191,1,4,3:2:0:0:
25,273,72341,2,0,P|67:287|119:292,1,86.3999973632813,8|0,0:0|3:0,0:0:0:0:
113,199,72566,1,0,3:0:0:0:
87,205,72641,1,10,0:0:0:0:
80,20,72791,6,0,P|94:60|138:102,1,86.3999973632813,6|8,3:2|0:0,0:0:0:0:
281,25,73091,2,0,P|263:37|246:51,2,43.1999986816407,0|0|8,3:0|3:0|0:0,0:0:0:0:
381,209,73391,1,2,3:2:0:0:
401,193,73466,1,0,3:0:0:0:
411,169,73541,1,8,0:0:0:0:
409,143,73616,1,0,3:0:0:0:
398,119,73691,2,0,P|381:102|364:92,3,43.1999986816407,0|0|8|0,3:0|3:0|0:0|0:0,0:0:0:0:
299,132,73991,5,6,3:2:0:0:
94,23,74141,2,0,P|156:42|232:47,1,129.599996044922,8|0,0:0|3:0,0:0:0:0:
176,122,74441,1,0,0:0:0:0:
371,10,74591,2,0,P|355:53|348:103,1,86.3999973632813,2|8,3:2|0:0,0:0:0:0:
433,229,74891,1,0,3:0:0:0:
434,254,74966,1,0,3:0:0:0:
423,277,75041,1,8,0:0:0:0:
170,375,75191,5,2,3:2:0:0:
341,254,75341,2,0,P|292:270|203:284,1,129.599996044922,8|0,0:0|3:0,0:0:0:0:
238,206,75641,1,8,0:0:0:0:
387,338,75791,2,0,P|432:345|481:372,1,86.3999973632813,2|8,3:2|0:0,0:0:0:0:
412,194,76091,1,0,3:0:0:0:
407,168,76166,1,0,3:0:0:0:
403,142,76241,1,8,0:0:0:0:
248,24,76391,5,2,3:2:0:0:
312,198,76541,2,0,L|290:337,1,129.599996044922,8|0,0:0|3:0,0:0:0:0:
228,364,76841,1,8,0:0:0:0:
107,207,76991,2,0,P|155:200|200:167,1,86.3999973632813,2|8,3:2|0:0,0:0:0:0:
26,323,77291,1,0,3:0:0:0:
50,317,77366,1,0,3:0:0:0:
70,334,77441,1,8,0:0:0:0:
253,286,77591,6,0,L|247:237,3,43.1999986816407,6|0|8|0,3:2|3:0|0:0|3:0,0:0:0:0:
316,149,77891,1,8,0:0:0:0:
321,123,77966,1,0,3:0:0:0:
327,97,78041,1,8,0:0:0:0:
333,71,78116,1,8,0:0:0:0:
339,45,78191,2,0,L|375:13,2,43.1999986816407,2|8|0,3:2|0:0|3:0,0:0:0:0:
166,120,78491,1,8,0:0:0:0:
325,231,78641,2,0,L|379:248,1,43.1999986816407,8|0,0:0|3:0,0:0:0:0:
504,352,78791,5,6,3:2:0:0:
482,338,78866,1,0,3:0:0:0:
466,317,78941,1,8,0:0:0:0:
456,292,79016,1,0,3:0:0:0:
456,266,79091,1,0,3:0:0:0:
467,242,79166,1,0,3:0:0:0:
478,219,79241,2,0,P|482:194|481:175,3,43.1999986816407,10|0|0|0,0:0|3:0|3:0|3:0,0:0:0:0:
352,116,79541,2,0,P|333:133|322:148,3,43.1999986816407,8|0|0|0,0:0|3:0|3:0|3:0,0:0:0:0:
360,276,79841,2,0,P|370:255|377:235,1,43.1999986816407,8|0,0:0|3:0,0:0:0:0:
236,156,79991,5,2,3:2:0:0:
211,163,80066,1,0,3:0:0:0:
189,176,80141,1,8,0:0:0:0:
171,195,80216,1,0,3:0:0:0:
161,219,80291,1,0,3:0:0:0:
161,244,80366,1,0,3:0:0:0:
169,268,80441,1,8,0:0:0:0:
182,289,80516,1,0,3:0:0:0:
204,301,80591,2,0,P|223:279|232:264,3,43.1999986816407,2|0|8|0,3:2|3:0|0:0|3:0,0:0:0:0:
93,299,80891,2,0,P|74:321|65:336,3,43.1999986816407,0|0|8|0,3:0|3:0|0:0|3:0,0:0:0:0:
43,185,81191,5,6,3:2:0:0:
62,201,81266,1,0,3:0:0:0:
86,210,81341,1,8,0:0:0:0:
111,210,81416,1,0,3:0:0:0:
135,203,81491,1,0,3:0:0:0:
154,186,81566,1,0,3:0:0:0:
169,164,81641,2,0,L|160:116,3,43.1999986816407,10|0|4|0,0:0|3:0|3:2|3:0,0:0:0:0:
266,29,81941,2,0,L|257:77,3,43.1999986816407,8|0|0|0,0:0|3:0|3:0|3:0,0:0:0:0:
364,161,82241,2,0,L|355:113,1,43.1999986816407,8|0,0:0|3:0,0:0:0:0:
269,229,82391,5,6,3:2:0:0:
259,253,82466,1,0,3:0:0:0:
257,278,82541,1,8,0:0:0:0:
260,303,82616,1,0,3:0:0:0:
271,326,82691,1,0,3:0:0:0:
290,343,82766,1,0,3:0:0:0:
314,351,82841,1,8,0:0:0:0:
339,349,82916,1,0,3:0:0:0:
363,341,82991,2,0,P|370:317|373:291,2,43.1999986816407,2|0|8,3:2|3:0|0:0,0:0:0:0:
464,255,83291,1,8,0:0:0:0:
321,157,83441,2,0,P|324:178|330:198,1,43.1999986816407,8|8,0:0|0:0,0:0:0:0:
432,24,83591,5,4,3:2:0:0:
302,67,83741,2,0,P|247:62|164:37,1,129.599996044922,8|0,0:0|3:0,0:0:0:0:
126,98,84041,1,8,0:0:0:0:
224,262,84191,2,0,P|195:226|177:178,1,86.3999973632813,2|8,3:2|0:0,0:0:0:0:
36,169,84491,1,0,3:0:0:0:
21,190,84566,1,0,3:0:0:0:
7,212,84641,1,8,0:0:0:0:
156,366,84791,5,2,3:2:0:0:
329,287,84941,2,0,B|339:215|339:215|290:161,1,129.599996044922,8|0,0:0|3:0,0:0:0:0:
240,215,85241,1,8,0:0:0:0:
397,371,85391,2,0,P|418:339|431:287,1,86.3999973632813,2|8,3:2|0:0,0:0:0:0:
189,292,85691,1,0,3:0:0:0:
213,299,85766,1,0,3:0:0:0:
237,307,85841,1,8,0:0:0:0:
463,185,85991,5,6,3:2:0:0:
371,42,86141,2,0,P|291:45|261:100,1,129.599996044922,8|0,0:0|3:0,0:0:0:0:
286,151,86441,1,8,0:0:0:0:
106,265,86591,2,0,P|88:231|87:173,1,86.3999973632813,2|8,3:2|0:0,0:0:0:0:
302,353,86891,1,0,3:0:0:0:
315,330,86966,1,0,3:0:0:0:
317,304,87041,1,8,0:0:0:0:
142,335,87191,5,2,3:2:0:0:
147,346,87266,1,0,3:0:0:0:
152,357,87341,2,0,L|102:354,2,43.1999986816407,8|0|0,0:0|3:0|3:0,0:0:0:0:
213,252,87566,1,8,0:0:0:0:
218,263,87641,2,0,L|168:260,1,43.1999986816407,0|0,3:0|3:0,0:0:0:0:
52,212,87791,1,10,0:0:0:0:
47,223,87866,2,0,L|97:220,1,43.1999986816407,0|0,3:0|3:0,0:0:0:0:
194,138,88016,1,8,0:0:0:0:
199,149,88091,2,0,L|149:146,1,43.1999986816407,0|0,3:0|3:0,0:0:0:0:
93,25,88241,2,0,L|143:22,1,43.1999986816407,8|0,0:0|3:0,0:0:0:0:
281,104,88391,6,0,P|290:83|293:57,3,43.1999986816407,6|0|0|0,3:2|3:0|3:0|3:0,0:0:0:0:
429,24,88691,2,0,P|420:45|417:71,1,43.1999986816407,8|0,0:0|3:0,0:0:0:0:
493,169,88841,1,2,3:2:0:0:
498,194,88916,1,0,3:0:0:0:
490,218,88991,1,0,3:0:0:0:
472,236,89066,1,0,3:0:0:0:
449,248,89141,1,2,3:2:0:0:
423,248,89216,1,0,3:0:0:0:
400,236,89291,2,0,P|387:219|379:194,1,43.1999986816407,8|0,0:0|3:0,0:0:0:0:
417,65,89441,5,0,3:0:0:0:
420,77,89516,1,0,3:0:0:0:
423,89,89591,1,10,0:0:0:0:
263,225,89741,5,10,0:0:0:0:
273,183,89816,1,8,0:0:0:0:
283,141,89891,1,8,0:0:0:0:
429,339,90041,5,10,0:0:0:0:
83,339,90341,1,10,0:0:0:0:
429,339,90641,1,10,0:0:0:0:
83,339,90791,5,8,0:0:0:0:
256,339,90941,1,8,0:0:0:0:
429,339,91091,1,8,0:0:0:0:
256,192,91241,12,0,92891,0:0:0:0:
83,339,93191,5,8,0:0:0:0:
256,339,93341,1,8,0:0:0:0:
429,339,93491,1,8,0:0:0:0:
83,45,94391,5,10,0:0:0:0:
256,45,94541,1,10,0:0:0:0:
429,45,94691,1,10,0:0:0:0:
429,45,95591,6,0,P|410:85|398:139,1,86.3999973632813,4|2,3:2|0:0,0:0:0:0:
249,85,96191,2,0,P|252:129|269:181,1,86.3999973632813,8|2,0:0|0:0,0:0:0:0:
109,194,96791,2,0,P|134:230|174:267,1,86.3999973632813,0|2,3:0|0:0,0:0:0:0:
41,356,97391,1,8,0:0:0:0:
256,327,97691,1,2,3:2:0:0:
471,356,97991,6,0,P|434:331|413:280,1,86.3999973632813,0|2,3:0|0:0,0:0:0:0:
457,100,98591,1,8,0:0:0:0:
300,217,98891,1,0,3:0:0:0:
207,33,99191,5,6,3:2:0:0:
457,100,99491,1,6,3:2:0:0:
390,351,99791,1,8,0:0:0:0:
140,284,100091,1,2,3:2:0:0:
256,361,100241,1,8,0:0:0:0:
383,266,100391,5,4,3:2:0:0:
383,266,100466,1,0,3:0:0:0:
383,266,100541,2,0,P|380:234|373:200,1,57.6,0|8,3:0|0:0,0:0:0:0:
230,106,100841,2,0,P|207:153|197:223,1,115.2,2|2,3:2|3:2,0:0:0:0:
124,353,101291,2,0,L|86:365,2,28.8,8|0|0,0:0|3:0|3:0,0:0:0:0:
289,272,101591,5,2,3:2:0:0:
288,280,101666,1,0,3:0:0:0:
287,288,101741,2,0,L|302:359,1,57.6,0|8,3:0|0:0,0:0:0:0:
406,215,102041,1,2,3:2:0:0:
401,221,102116,1,0,3:0:0:0:
397,228,102191,2,0,L|380:298,1,57.6,0|0,3:0|3:0,0:0:0:0:
444,363,102491,2,0,L|469:340,2,28.8,10|0|0,0:0|3:0|3:0,0:0:0:0:
319,193,102791,6,0,L|294:216,2,28.8,6|0|0,3:2|3:0|3:0,0:0:0:0:
489,270,103091,1,8,0:0:0:0:
446,112,103241,1,2,3:2:0:0:
446,112,103541,1,2,3:2:0:0:
362,57,103691,2,0,L|366:20,2,28.8,8|0|0,0:0|3:0|3:0,0:0:0:0:
247,134,103991,2,0,L|223:105,2,28.8,2|0|0,3:2|3:0|3:0,0:0:0:0:
344,150,104291,5,8,0:0:0:0:
242,227,104441,1,2,3:2:0:0:
234,223,104516,1,0,3:0:0:0:
226,219,104591,1,0,3:0:0:0:
346,247,104741,1,0,3:0:0:0:
244,324,104891,1,10,0:0:0:0:
236,320,104966,1,0,3:0:0:0:
228,316,105041,1,0,3:0:0:0:
40,225,105191,6,0,L|-1:235,2,28.8,2|0|0,3:2|3:0|3:0,0:0:0:0:
123,364,105491,1,8,0:0:0:0:
187,140,105641,1,2,3:2:0:0:
123,364,105941,1,2,3:2:0:0:
212,252,106091,2,0,L|203:216,2,28.8,8|0|0,0:0|3:0|3:0,0:0:0:0:
100,131,106391,2,0,L|110:95,2,28.8,2|0|0,3:2|3:0|3:0,0:0:0:0:
244,17,106691,5,8,0:0:0:0:
338,116,106841,1,2,3:2:0:0:
346,114,106916,1,0,3:0:0:0:
354,112,106991,1,0,3:0:0:0:
401,28,107141,1,0,3:0:0:0:
491,152,107291,1,10,0:0:0:0:
483,150,107366,1,0,3:0:0:0:
475,148,107441,1,0,3:0:0:0:
287,246,107591,6,0,L|274:285,2,28.8,6|0|0,3:2|3:0|3:0,0:0:0:0:
485,317,107891,1,8,0:0:0:0:
350,360,108041,1,2,3:2:0:0:
350,360,108341,1,2,3:2:0:0:
196,310,108491,2,0,L|186:282,2,28.8,8|0|0,0:0|3:0|3:0,0:0:0:0:
107,175,108791,2,0,L|119:149,2,28.8,2|0|0,3:2|3:0|3:0,0:0:0:0:
18,370,109091,5,8,0:0:0:0:
103,261,109241,1,2,3:2:0:0:
104,269,109316,1,0,3:0:0:0:
105,277,109391,1,0,3:0:0:0:
23,154,109541,1,0,3:0:0:0:
132,44,109691,1,10,0:0:0:0:
131,52,109766,1,0,3:0:0:0:
130,60,109841,1,0,3:0:0:0:
275,165,109991,6,0,L|316:153,2,28.8,2|0|0,3:2|3:0|3:0,0:0:0:0:
320,253,110291,1,8,0:0:0:0:
263,77,110441,1,2,3:2:0:0:
320,253,110741,1,2,3:2:0:0:
418,177,110891,2,0,L|438:139,2,28.8,8|0|0,0:0|3:0|3:0,0:0:0:0:
488,54,111191,2,0,L|476:13,2,28.8,2|0|0,3:2|3:0|3:0,0:0:0:0:
338,8,111491,5,8,0:0:0:0:
206,55,111641,1,2,3:2:0:0:
214,52,111716,1,0,3:0:0:0:
222,49,111791,1,0,3:0:0:0:
338,8,111941,1,0,3:0:0:0:
291,179,112091,1,10,0:0:0:0:
294,171,112166,1,0,3:0:0:0:
297,163,112241,1,0,3:0:0:0:
90,111,112391,5,14,0:0:0:0:
204,228,112541,1,0,3:0:0:0:
206,247,112616,1,0,3:0:0:0:
208,266,112691,1,0,3:0:0:0:
210,285,112766,1,0,3:0:0:0:
212,304,112841,2,0,L|274:333,1,64.799998022461,10|0,0:0|0:0,0:0:0:0:
57,361,113141,2,0,L|119:332,1,64.799998022461,0|0,3:0|3:0,0:0:0:0:
300,251,113441,1,10,0:0:0:0:
300,251,113891,6,0,L|307:199,1,32.3999990112305,0|0,3:0|0:0,0:0:0:0:
233,26,114191,2,0,L|226:78,1,32.3999990112305,8|0,0:0|0:0,0:0:0:0:
380,266,114491,2,0,L|387:214,1,32.3999990112305,0|0,3:0|0:0,0:0:0:0:
495,53,114791,5,10,0:0:0:0:
399,144,114941,1,0,3:0:0:0:
379,141,115016,1,0,3:0:0:0:
359,138,115091,1,0,3:0:0:0:
339,134,115166,1,0,3:0:0:0:
319,131,115241,2,0,L|251:119,1,64.799998022461,10|0,0:0|0:0,0:0:0:0:
126,28,115541,2,0,L|58:16,1,64.799998022461,0|0,3:0|3:0,0:0:0:0:
243,210,115841,1,10,0:0:0:0:
243,210,116291,6,0,P|225:254|225:319,1,97.1999970336915,0|0,3:0|0:0,0:0:0:0:
183,379,116591,2,0,P|153:341|97:308,1,97.1999970336915,8|0,0:0|0:0,0:0:0:0:
67,243,116891,2,0,P|114:236|170:204,1,97.1999970336915,0|0,3:0|0:0,0:0:0:0:
243,210,117191,5,10,0:0:0:0:
387,374,117341,1,0,3:0:0:0:
393,355,117416,1,0,3:0:0:0:
399,336,117491,1,0,3:0:0:0:
405,317,117566,1,0,3:0:0:0:
411,298,117641,2,0,L|399:223,1,64.799998022461,10|0,0:0|0:0,0:0:0:0:
441,65,117941,1,0,3:0:0:0:
378,146,118091,1,0,3:0:0:0:
295,85,118241,5,10,0:0:0:0:
358,2,118391,1,0,3:0:0:0:
378,146,118691,1,0,3:0:0:0:
213,33,118841,2,0,P|144:20|67:20,1,129.599996044922,8|0,0:0|3:0,0:0:0:0:
7,245,119291,1,8,0:0:0:0:
142,146,119441,1,8,0:0:0:0:
158,135,119516,1,8,0:0:0:0:
175,126,119591,6,0,P|244:113|321:113,1,129.599996044922,2|0,3:2|3:0,0:0:0:0:
487,210,120041,1,8,0:0:0:0:
487,210,120341,2,0,P|488:188|491:165,2,32.3999990112305,0|0|8,3:0|3:0|0:0,0:0:0:0:
389,38,120641,6,0,P|388:60|385:83,2,32.3999990112305,8|8|10,0:0|0:0|0:0,0:0:0:0:
238,156,120941,1,0,3:0:0:0:
249,140,121016,1,0,3:0:0:0:
255,121,121091,1,0,3:0:0:0:
258,101,121166,1,0,3:0:0:0:
258,81,121241,2,0,P|247:47|225:17,1,64.799998022461,10|0,0:0|0:0,0:0:0:0:
108,176,121541,1,0,3:0:0:0:
120,160,121616,1,0,3:0:0:0:
130,142,121691,2,0,P|137:107|133:70,1,64.799998022461,10|0,0:0|0:0,0:0:0:0:
286,224,121991,5,6,3:2:0:0:
108,295,122141,1,8,0:0:0:0:
222,367,122291,2,0,L|226:326,2,36,0|0|8,3:0|3:0|0:0,0:0:0:0:
416,303,122591,2,0,P|388:277|378:241,1,72,0|8,3:0|0:0,0:0:0:0:
421,101,122891,1,0,3:0:0:0:
424,111,122966,1,0,3:0:0:0:
427,121,123041,1,8,0:0:0:0:
181,215,123191,5,2,3:2:0:0:
290,250,123341,1,8,0:0:0:0:
161,111,123491,2,0,L|118:124,2,36,0|0|8,3:0|3:0|0:0,0:0:0:0:
319,51,123791,2,0,P|306:83|302:139,1,72,0|8,3:0|0:0,0:0:0:0:
211,298,124091,1,0,3:0:0:0:
217,306,124166,1,0,3:0:0:0:
223,314,124241,1,8,0:0:0:0:
119,367,124391,5,2,3:2:0:0:
27,198,124541,1,8,0:0:0:0:
166,130,124691,2,0,P|181:130|208:140,2,36,0|0|8,3:0|3:0|0:0,0:0:0:0:
59,293,124991,2,0,P|91:264|108:226,1,72,0|8,3:0|0:0,0:0:0:0:
73,86,125291,1,0,3:0:0:0:
69,75,125366,1,0,3:0:0:0:
65,64,125441,1,8,0:0:0:0:
212,210,125591,5,2,3:2:0:0:
256,45,125741,1,8,0:0:0:0:
420,116,125891,2,0,P|435:119|460:111,2,36,0|0|8,3:0|3:0|0:0,0:0:0:0:
477,33,126191,1,6,3:2:0:0:
345,184,126341,1,8,0:0:0:0:
349,205,126416,1,8,0:0:0:0:
353,226,126491,1,0,3:0:0:0:
357,247,126566,1,0,3:0:0:0:
361,268,126641,1,8,0:0:0:0:
365,289,126716,1,8,0:0:0:0:
369,310,126791,6,0,L|376:352,3,36,2|0|0|0,3:2|3:0|3:0|3:0,0:0:0:0:
440,230,127091,2,0,L|467:262,3,36,0|0|0|0,3:0|3:0|3:0|3:0,0:0:0:0:
423,92,127391,1,8,0:0:0:0:
425,102,127466,1,0,3:0:0:0:
428,112,127541,1,0,3:0:0:0:
431,122,127616,1,0,3:0:0:0:
434,132,127691,2,0,L|473:146,3,36,0|0|0|0,3:0|3:0|3:0|3:0,0:0:0:0:
350,35,127991,6,0,L|309:45,3,36,2|0|0|0,3:2|3:0|3:0|3:0,0:0:0:0:
240,131,128291,2,0,L|199:121,3,36,0|0|0|0,3:0|3:0|3:0|3:0,0:0:0:0:
101,25,128591,1,8,0:0:0:0:
102,35,128666,1,0,3:0:0:0:
103,45,128741,1,0,3:0:0:0:
104,55,128816,1,0,3:0:0:0:
105,65,128891,2,0,L|80:109,3,36,0|0|0|0,3:0|3:0|3:0|3:0,0:0:0:0:
17,247,129191,5,10,0:0:0:0:
37,241,129266,1,0,3:0:0:0:
58,235,129341,1,0,3:0:0:0:
79,230,129416,1,0,3:0:0:0:
100,225,129491,2,0,L|137:216,1,36,0|0,3:0|3:0,0:0:0:0:
185,122,129641,1,10,0:0:0:0:
206,117,129716,1,0,3:0:0:0:
227,112,129791,2,0,L|264:103,1,36,0|0,3:0|3:0,0:0:0:0:
368,19,129941,6,0,P|384:34|397:67,1,54.0000020599366,8|0,0:0|3:0,0:0:0:0:
327,201,130091,2,0,P|331:179|354:151,1,54.0000020599366,8|0,0:0|3:0,0:0:0:0:
504,154,130241,2,0,P|483:160|447:155,1,54.0000020599366,8|0,0:0|3:0,0:0:0:0:
368,19,130391,5,10,0:0:0:0:
327,201,130541,1,10,0:0:0:0:
504,154,130691,1,10,0:0:0:0:
504,154,131591,6,0,P|487:256|512:344,1,172.799994726563,6|0,3:2|3:0,0:0:0:0:
432,372,131966,1,0,3:0:0:0:
422,347,132041,2,0,P|386:331|333:325,1,86.3999973632813,10|0,0:0|3:0,0:0:0:0:
283,208,132341,1,8,0:0:0:0:
182,359,132491,1,0,3:0:0:0:
175,333,132566,1,0,3:0:0:0:
162,310,132641,6,0,P|87:268|-14:297,1,172.799994726563,10|0,0:0|3:0,0:0:0:0:
123,152,133091,2,0,P|126:175|144:205,2,43.1999986816407,0|0|8,3:0|3:0|0:0,0:0:0:0:
234,33,133391,2,0,P|233:76|202:125,1,86.3999973632813,2|8,3:2|0:0,0:0:0:0:
62,76,133691,1,0,3:0:0:0:
59,50,133766,1,0,3:0:0:0:
68,25,133841,1,8,0:0:0:0:
235,201,133991,5,6,3:2:0:0:
349,79,134141,2,0,P|414:80|490:104,1,129.599996044922,0|0,0:0|3:0,0:0:0:0:
493,171,134441,1,10,0:0:0:0:
260,19,134591,1,4,3:2:0:0:
375,169,134741,2,0,P|391:229|390:262,1,86.3999973632813,8|0,0:0|3:0,0:0:0:0:
337,322,134966,1,0,3:0:0:0:
326,297,135041,1,10,0:0:0:0:
187,99,135191,6,0,P|227:123|280:122,1,86.3999973632813,6|8,3:2|0:0,0:0:0:0:
412,38,135491,2,0,P|407:52|399:80,2,43.1999986816407,0|0|8,3:0|3:0|0:0,0:0:0:0:
258,197,135791,1,2,3:2:0:0:
267,172,135866,1,0,3:0:0:0:
287,156,135941,1,8,0:0:0:0:
312,151,136016,1,0,3:0:0:0:
337,156,136091,2,0,P|358:172|375:189,3,43.1999986816407,0|0|8|0,3:0|3:0|0:0|0:0,0:0:0:0:
366,258,136391,5,6,3:2:0:0:
174,354,136541,2,0,P|175:286|198:208,1,129.599996044922,8|0,0:0|3:0,0:0:0:0:
254,271,136841,1,8,0:0:0:0:
384,355,136991,2,0,P|421:328|462:322,1,86.3999973632813,2|8,3:2|0:0,0:0:0:0:
324,198,137291,1,0,3:0:0:0:
343,215,137366,1,0,3:0:0:0:
368,213,137441,1,8,0:0:0:0:
443,18,137591,5,2,3:2:0:0:
320,105,137741,2,0,P|290:60|213:9,1,129.599996044922,8|0,0:0|3:0,0:0:0:0:
174,65,138041,1,8,0:0:0:0:
37,101,138191,2,0,P|41:56|71:21,1,86.3999973632813,2|8,3:2|0:0,0:0:0:0:
193,158,138491,1,0,3:0:0:0:
190,183,138566,1,0,3:0:0:0:
187,208,138641,1,8,0:0:0:0:
29,369,138791,5,2,3:2:0:0:
178,289,138941,2,0,P|245:297|324:318,1,129.599996044922,8|0,0:0|3:0,0:0:0:0:
355,369,139241,1,8,0:0:0:0:
277,148,139391,2,0,P|309:177|333:215,1,86.3999973632813,2|8,3:2|0:0,0:0:0:0:
452,334,139691,1,0,3:0:0:0:
474,320,139766,1,0,3:0:0:0:
486,297,139841,1,8,0:0:0:0:
439,123,139991,6,0,P|421:114|396:116,3,43.1999986816407,6|0|8|0,3:2|3:0|0:0|3:0,0:0:0:0:
311,171,140291,1,8,0:0:0:0:
289,184,140366,1,0,3:0:0:0:
264,191,140441,1,8,0:0:0:0:
238,187,140516,1,8,0:0:0:0:
216,172,140591,2,0,P|209:150|209:123,2,43.1999986816407,2|8|0,3:2|0:0|3:0,0:0:0:0:
336,30,140891,1,8,0:0:0:0:
435,204,141041,2,0,P|422:225|397:245,1,43.1999986816407,8|0,0:0|3:0,0:0:0:0:
222,322,141191,5,6,3:2:0:0:
230,297,141266,1,0,3:0:0:0:
251,282,141341,1,8,0:0:0:0:
276,275,141416,1,0,3:0:0:0:
301,281,141491,1,0,3:0:0:0:
319,298,141566,1,0,3:0:0:0:
331,320,141641,2,0,P|354:336|372:339,3,43.1999986816407,10|0|0|0,0:0|3:0|3:0|3:0,0:0:0:0:
331,184,141941,2,0,P|303:188|288:199,3,43.1999986816407,8|0|0|0,0:0|3:0|3:0|3:0,0:0:0:0:
159,221,142241,2,0,P|149:247|151:265,1,43.1999986816407,8|0,0:0|3:0,0:0:0:0:
2,358,142391,5,2,3:2:0:0:
22,341,142466,1,0,3:0:0:0:
37,320,142541,1,8,0:0:0:0:
48,296,142616,1,0,3:0:0:0:
52,270,142691,1,0,3:0:0:0:
49,244,142766,1,0,3:0:0:0:
41,219,142841,1,8,0:0:0:0:
28,196,142916,1,0,3:0:0:0:
11,175,142991,2,0,P|4:146|6:128,3,43.1999986816407,2|0|8|0,3:2|3:0|0:0|3:0,0:0:0:0:
116,68,143291,2,0,P|131:42|145:31,3,43.1999986816407,0|0|8|0,3:0|3:0|0:0|3:0,0:0:0:0:
265,78,143591,5,6,3:2:0:0:
279,56,143666,1,0,3:0:0:0:
299,40,143741,1,8,0:0:0:0:
322,29,143816,1,0,3:0:0:0:
347,29,143891,1,0,3:0:0:0:
372,33,143966,1,0,3:0:0:0:
397,43,144041,2,0,P|417:56|428:76,3,43.1999986816407,10|0|4|0,0:0|3:0|3:2|3:0,0:0:0:0:
341,174,144341,2,0,P|324:155|319:132,3,43.1999986816407,8|0|0|0,0:0|3:0|3:0|3:0,0:0:0:0:
200,40,144641,2,0,P|186:61|185:84,1,43.1999986816407,8|0,0:0|3:0,0:0:0:0:
209,258,144791,5,6,3:2:0:0:
223,279,144866,1,0,3:0:0:0:
246,290,144941,1,8,0:0:0:0:
271,287,145016,1,0,3:0:0:0:
294,275,145091,1,0,3:0:0:0:
316,262,145166,1,0,3:0:0:0:
341,260,145241,1,0,3:0:0:0:
365,268,145316,1,0,3:0:0:0:
386,281,145391,2,0,P|393:304|390:329,2,43.1999986816407,2|0|8,3:2|3:0|0:0,0:0:0:0:
261,199,145691,1,8,0:0:0:0:
472,314,145841,2,0,P|472:292|466:272,1,43.1999986816407,8|8,0:0|0:0,0:0:0:0:
318,359,145991,5,6,3:2:0:0:
152,296,146141,2,0,P|155:227|171:147,1,129.599996044922,8|0,0:0|3:0,0:0:0:0:
80,204,146441,1,8,0:0:0:0:
214,364,146591,2,0,P|241:329|257:286,1,86.3999973632813,2|8,3:2|0:0,0:0:0:0:
224,98,146891,1,0,3:0:0:0:
201,85,146966,1,0,3:0:0:0:
175,80,147041,1,8,0:0:0:0:
379,25,147191,5,2,3:2:0:0:
274,190,147341,2,0,L|415:211,1,129.599996044922,8|0,0:0|3:0,0:0:0:0:
454,264,147641,1,8,0:0:0:0:
349,117,147791,2,0,P|394:106|448:103,1,86.3999973632813,2|8,3:2|0:0,0:0:0:0:
379,309,148091,1,0,3:0:0:0:
354,301,148166,1,0,3:0:0:0:
335,282,148241,1,8,0:0:0:0:
238,71,148391,5,6,3:2:0:0:
81,206,148541,2,0,P|37:173|77:110,1,129.599996044922,8|0,0:0|3:0,0:0:0:0:
137,147,148841,1,8,0:0:0:0:
50,375,148991,2,0,P|63:330|96:296,1,86.3999973632813,2|8,3:2|0:0,0:0:0:0:
224,217,149291,1,0,3:0:0:0:
228,242,149366,1,0,3:0:0:0:
232,267,149441,1,8,0:0:0:0:
390,364,149591,5,2,3:2:0:0:
392,351,149666,1,0,3:0:0:0:
394,338,149741,2,0,L|441:332,2,43.1999986816407,8|0|0,0:0|3:0|3:0,0:0:0:0:
466,199,149966,1,8,0:0:0:0:
467,212,150041,2,0,L|423:229,1,43.1999986816407,0|0,3:0|3:0,0:0:0:0:
340,265,150191,1,8,0:0:0:0:
336,277,150266,2,0,L|288:278,1,43.1999986816407,0|0,3:0|3:0,0:0:0:0:
204,309,150416,1,8,0:0:0:0:
196,319,150491,2,0,L|150:304,1,43.1999986816407,0|0,3:0|3:0,0:0:0:0:
57,317,150641,1,8,0:0:0:0:
46,324,150716,1,0,3:0:0:0:
35,331,150791,6,0,L|-3:302,3,43.1999986816407,6|0|0|0,3:2|3:0|3:0|3:0,0:0:0:0:
103,230,151091,2,0,L|92:182,1,43.1999986816407,8|0,0:0|3:0,0:0:0:0:
228,242,151241,1,2,3:2:0:0:
235,217,151316,1,0,3:0:0:0:
242,192,151391,1,0,3:0:0:0:
249,167,151466,1,0,3:0:0:0:
256,142,151541,1,2,3:2:0:0:
263,117,151616,1,0,3:0:0:0:
270,92,151691,2,0,L|281:45,1,43.1999986816407,8|0,0:0|3:0,0:0:0:0:
171,47,151841,5,0,3:0:0:0:
183,50,151916,1,0,3:0:0:0:
195,53,151991,1,10,0:0:0:0:
390,170,152141,5,10,0:0:0:0:
431,157,152216,1,8,0:0:0:0:
472,144,152291,1,8,0:0:0:0:
394,20,152441,5,10,0:0:0:0:
256,238,152741,1,10,0:0:0:0:
118,20,153041,1,10,0:0:0:0:
337,141,153191,5,10,0:0:0:0:
175,95,153341,1,0,3:0:0:0:
165,99,153416,1,0,3:0:0:0:
155,103,153491,1,0,3:0:0:0:
145,107,153566,1,0,3:0:0:0:
135,111,153641,2,0,L|10:70,1,129.599996044922,10|0,0:0|0:0,0:0:0:0:
132,189,153941,2,0,L|7:148,1,129.599996044922,10|0,0:0|0:0,0:0:0:0:
8,148,155291,1,0,3:0:0:0:
18,146,155366,1,0,3:0:0:0:
28,144,155441,1,0,3:0:0:0:
38,142,155516,1,0,3:0:0:0:
48,140,155591,6,0,L|59:85,1,43.1999986816407,10|0,0:0|0:0,0:0:0:0:
88,217,156041,2,0,L|260:157,1,172.8,10|0,0:0|0:0,0:0:0:0:
360,30,156341,2,0,L|434:51,1,72,10|0,0:0|0:0,0:0:0:0:
496,188,156491,5,0,3:0:0:0:
495,198,156566,1,0,3:0:0:0:
494,208,156641,1,0,3:0:0:0:
493,218,156716,1,0,3:0:0:0:
492,228,156791,2,0,P|440:233|380:189,1,108,6|0,3:2|0:0,0:0:0:0:
281,71,157091,5,8,0:0:0:0:
271,66,157166,1,8,0:0:0:0:
261,61,157241,1,8,0:0:0:0:
250,57,157316,1,8,0:0:0:0:
239,53,157391,2,0,P|198:86|187:159,1,108,6|0,3:2|0:0,0:0:0:0:
291,257,157691,5,8,0:0:0:0:
293,267,157766,1,8,0:0:0:0:
295,277,157841,1,8,0:0:0:0:
297,287,157916,1,8,0:0:0:0:
299,297,157991,5,6,3:2:0:0:
214,351,158291,1,0,3:0:0:0:
120,313,158591,1,2,3:2:0:0:
205,259,158891,1,2,3:2:0:0:
299,297,159191,5,6,3:2:0:0:
442,286,159491,1,0,3:0:0:0:
492,150,159791,1,2,3:2:0:0:
348,159,160091,1,2,3:2:0:0:
195,356,160391,5,10,0:0:0:0:
61,268,160541,1,0,3:0:0:0:
60,257,160616,1,0,3:0:0:0:
59,246,160691,1,0,3:0:0:0:
58,235,160766,1,0,3:0:0:0:
57,224,160841,2,0,L|51:147,1,72,14|0,0:0|0:0,0:0:0:0:
160,268,161141,1,0,3:0:0:0:
165,258,161216,1,0,3:0:0:0:
170,248,161291,1,10,0:0:0:0:
195,356,161441,5,0,3:0:0:0:
216,356,161516,1,0,3:0:0:0:
237,356,161591,2,0,L|370:364,1,129.599996044922,14|0,0:0|0:0,0:0:0:0:
460,250,161891,5,0,3:0:0:0:
448,250,161966,1,0,3:0:0:0:
437,251,162041,1,0,3:0:0:0:
426,251,162116,1,0,3:0:0:0:
415,252,162191,2,0,L|250:261,1,162.00000617981,14|0,0:0|0:0,0:0:0:0:
96,163,162491,5,0,3:0:0:0:
106,164,162566,1,0,3:0:0:0:
116,165,162641,1,0,3:0:0:0:
126,166,162716,1,0,3:0:0:0:
136,168,162791,6,0,B|233:174|233:174|288:130|288:130|392:140,1,270,14|0,0:0|0:0,0:0:0:0:
389,139,163991,5,10,0:0:0:0:
423,53,164141,1,8,0:0:0:0:
389,139,164741,1,10,0:0:0:0:
423,53,164891,1,10,0:0:0:0:
330,67,165041,1,8,0:0:0:0:
122,244,166391,5,10,0:0:0:0:
89,331,166541,1,8,0:0:0:0:
122,244,167141,1,10,0:0:0:0:
89,331,167291,1,10,0:0:0:0:
182,317,167441,1,8,0:0:0:0:
182,317,168341,1,0,3:0:0:0:
185,327,168416,1,0,3:0:0:0:
189,336,168491,2,0,L|309:351,1,108,8|0,0:0|0:0,0:0:0:0:
296,349,168791,5,6,3:2:0:0:
241,215,169091,1,0,3:0:0:0:
374,161,169391,1,10,0:0:0:0:
428,295,169691,1,0,3:0:0:0:
240,294,169991,5,2,3:2:0:0:
296,160,170291,1,0,3:0:0:0:
428,216,170591,1,10,0:0:0:0:
372,349,170891,1,0,3:0:0:0:
276,91,171191,5,6,3:2:0:0:
320,230,171491,1,0,3:0:0:0:
181,272,171791,1,10,0:0:0:0:
140,134,172091,1,0,3:0:0:0:
115,43,172241,1,8,0:0:0:0:
52,112,172391,5,10,0:0:0:0:
51,122,172466,1,0,3:0:0:0:
50,132,172541,1,0,3:0:0:0:
49,142,172616,1,0,3:0:0:0:
48,152,172691,2,0,L|66:194,1,36,0|0,3:0|3:0,0:0:0:0:
139,273,172841,1,10,0:0:0:0:
138,283,172916,1,0,3:0:0:0:
137,293,172991,1,0,3:0:0:0:
136,303,173066,1,0,3:0:0:0:
135,313,173141,2,0,L|153:355,1,36,0|0,3:0|3:0,0:0:0:0:
263,270,173291,2,0,L|289:165,1,108,10|0,0:0|0:0,0:0:0:0:
392,83,173591,5,6,3:2:0:0:
405,66,173666,1,0,3:0:0:0:
408,44,173741,1,0,3:0:0:0:
397,24,173816,1,0,3:0:0:0:
377,15,173891,1,0,3:0:0:0:
355,19,173966,1,0,3:0:0:0:
336,29,174041,2,0,P|311:28|291:15,3,36,2|0|8|0,3:2|3:0|0:0|3:0,0:0:0:0:
233,112,174341,2,0,P|208:113|188:126,3,36,2|0|0|0,3:2|3:0|3:0|3:0,0:0:0:0:
93,30,174641,1,0,3:0:0:0:
96,40,174716,1,0,3:0:0:0:
99,50,174791,6,0,P|96:119|73:197,1,144,6|0,3:2|3:0,0:0:0:0:
91,364,175241,1,2,3:2:0:0:
102,345,175316,1,0,3:0:0:0:
119,332,175391,1,8,0:0:0:0:
138,322,175466,1,0,3:0:0:0:
159,318,175541,2,0,P|180:323|203:336,3,36,2|0|0|0,3:2|3:0|3:0|3:0,0:0:0:0:
262,241,175841,2,0,P|251:219|246:184,1,36,0|0,3:0|3:0,0:0:0:0:
276,83,175991,5,6,3:2:0:0:
294,71,176066,1,0,3:0:0:0:
315,68,176141,1,0,3:0:0:0:
335,73,176216,1,0,3:0:0:0:
353,84,176291,1,0,3:0:0:0:
369,98,176366,1,0,3:0:0:0:
386,110,176441,2,0,P|408:106|426:91,3,36,2|0|8|0,3:2|3:0|0:0|3:0,0:0:0:0:
472,6,176741,2,0,P|450:10|432:25,3,36,2|0|0|0,3:2|3:0|3:0|3:0,0:0:0:0:
504,154,177041,2,0,P|488:163|470:165,1,36,0|0,3:0|3:0,0:0:0:0:
434,268,177191,6,0,P|394:206|322:179,1,144,6|0,3:2|3:0,0:0:0:0:
205,304,177641,1,2,3:2:0:0:
186,316,177716,1,0,3:0:0:0:
165,322,177791,1,8,0:0:0:0:
143,324,177866,1,8,0:0:0:0:
122,318,177941,2,0,P|101:306|87:288,2,36,2|0|0,3:2|3:0|3:0,0:0:0:0:
16,136,178241,2,0,P|15:111|24:90,1,36,0|0,3:0|3:0,0:0:0:0:
79,15,178391,5,6,3:2:0:0:
100,16,178466,1,0,3:0:0:0:
121,17,178541,1,0,3:0:0:0:
142,19,178616,1,0,3:0:0:0:
163,21,178691,1,8,0:0:0:0:
184,23,178766,1,0,3:0:0:0:
205,25,178841,2,0,L|218:77,3,36,0|0|2|0,3:0|3:0|3:2|3:0,0:0:0:0:
130,129,179141,2,0,L|143:181,3,36,0|0|8|0,3:0|3:0|0:0|3:0,0:0:0:0:
55,233,179441,2,0,L|68:285,1,36,0|0,3:0|3:0,0:0:0:0:
161,366,179591,5,6,3:2:0:0:
168,345,179666,1,0,3:0:0:0:
180,327,179741,1,0,3:0:0:0:
200,319,179816,1,0,3:0:0:0:
221,319,179891,1,8,0:0:0:0:
239,329,179966,1,0,3:0:0:0:
256,341,180041,2,0,P|277:338|298:323,3,36,0|0|2|0,3:0|3:0|3:2|3:0,0:0:0:0:
379,233,180341,2,0,P|358:236|337:251,3,36,0|0|8|0,3:0|3:0|0:0|3:0,0:0:0:0:
220,208,180641,2,0,P|241:205|262:190,1,36,0|0,3:0|3:0,0:0:0:0:
340,49,180791,5,6,3:2:0:0:
359,57,180866,1,0,3:0:0:0:
378,65,180941,1,0,3:0:0:0:
397,74,181016,1,0,3:0:0:0:
408,92,181091,1,10,0:0:0:0:
392,105,181166,1,0,3:0:0:0:
376,117,181241,1,0,3:0:0:0:
358,129,181316,1,0,3:0:0:0:
336,130,181391,1,10,0:0:0:0:
333,109,181466,1,0,3:0:0:0:
330,90,181541,1,0,3:0:0:0:
329,68,181616,1,0,3:0:0:0:
340,49,181691,2,0,L|384:37,3,36,10|0|0|0,0:0|3:0|3:0|3:0,0:0:0:0:
486,102,181991,6,0,P|474:121|461:154,1,36,14|0,0:0|3:0,0:0:0:0:
422,252,182141,1,0,3:0:0:0:
419,273,182216,1,0,3:0:0:0:
420,294,182291,1,0,3:0:0:0:
425,314,182366,1,0,3:0:0:0:
434,333,182441,2,0,P|454:350|474:359,1,36,10|0,0:0|3:0,0:0:0:0:
336,187,182591,1,0,3:0:0:0:
320,200,182666,1,0,3:0:0:0:
305,216,182741,1,0,3:0:0:0:
295,233,182816,1,0,3:0:0:0:
288,253,182891,2,0,P|288:305|319:369,1,108,10|0,0:0|0:0,0:0:0:0:
309,356,183191,5,6,3:2:0:0:
188,274,183341,2,0,L|54:249,1,108,8|0,0:0|3:0,0:0:0:0:
21,191,183641,2,0,L|96:175,1,72,10|0,0:0|3:0,0:0:0:0:
46,23,183941,1,10,0:0:0:0:
197,177,184091,1,0,3:0:0:0:
195,167,184166,1,0,3:0:0:0:
193,157,184241,1,8,0:0:0:0:
267,16,184391,5,2,3:2:0:0:
392,133,184541,2,0,P|397:85|458:32,1,108,8|0,0:0|3:0,0:0:0:0:
498,78,184841,2,0,P|501:113|488:160,1,72,10|0,0:0|3:0,0:0:0:0:
375,304,185141,1,10,0:0:0:0:
257,169,185291,1,0,3:0:0:0:
247,175,185366,1,0,3:0:0:0:
238,181,185441,1,8,0:0:0:0:
187,368,185591,5,6,3:2:0:0:
450,266,185741,2,0,P|415:228|346:203,1,108,8|0,0:0|3:0,0:0:0:0:
329,139,186041,2,0,P|365:133|408:111,1,72,10|0,0:0|3:0,0:0:0:0:
239,262,186341,1,10,0:0:0:0:
295,29,186491,1,0,3:0:0:0:
297,39,186566,1,0,3:0:0:0:
299,49,186641,1,8,0:0:0:0:
176,191,186791,5,2,3:2:0:0:
48,51,186941,2,0,P|26:79|19:114,1,72,8|0,0:0|3:0,0:0:0:0:
72,175,187166,1,0,3:0:0:0:
64,194,187241,2,0,P|87:259|153:314,1,144,10|8,0:0|0:0,0:0:0:0:
277,339,187691,2,0,P|271:358|274:390,2,36,0|0|8,3:0|3:0|0:0,0:0:0:0:
413,156,187991,5,6,3:2:0:0:
426,172,188066,1,0,3:0:0:0:
434,191,188141,1,8,0:0:0:0:
431,212,188216,1,0,3:0:0:0:
422,231,188291,1,0,3:0:0:0:
416,251,188366,1,0,3:0:0:0:
415,272,188441,1,10,0:0:0:0:
423,291,188516,1,0,3:0:0:0:
434,308,188591,2,0,L|441:353,2,36,0|0|0,3:0|3:0|3:0,0:0:0:0:
300,184,188891,2,0,L|307:139,2,36,2|0|8,3:2|3:0|0:0,0:0:0:0:
164,335,189191,5,2,3:2:0:0:
156,211,189341,1,10,0:0:0:0:
158,221,189416,1,0,3:0:0:0:
160,231,189491,2,0,P|176:243|210:245,3,36,0|0|8|0,3:0|3:0|0:0|3:0,0:0:0:0:
289,258,189791,2,0,P|265:281|255:330,1,72,2|8,3:2|0:0,0:0:0:0:
128,362,190091,2,0,P|116:341|110:329,2,36,2|0|8,3:2|3:0|0:0,0:0:0:0:
29,227,190391,5,6,3:2:0:0:
22,206,190466,1,0,3:0:0:0:
24,184,190541,1,8,0:0:0:0:
38,167,190616,1,0,3:0:0:0:
57,158,190691,1,2,3:2:0:0:
78,161,190766,1,0,3:0:0:0:
98,167,190841,1,8,0:0:0:0:
118,174,190916,1,0,3:0:0:0:
139,176,190991,1,2,3:2:0:0:
159,169,191066,1,0,3:0:0:0:
173,152,191141,1,8,0:0:0:0:
179,131,191216,1,0,3:0:0:0:
177,109,191291,2,0,P|174:86|170:72,2,36,0|0|10,3:0|3:0|0:0,0:0:0:0:
342,17,191591,5,2,3:2:0:0:
337,26,191666,1,0,3:0:0:0:
332,35,191741,2,0,L|313:146,1,108,8|0,0:0|3:0,0:0:0:0:
272,202,192041,2,0,L|288:279,1,72,10|0,0:0|3:0,0:0:0:0:
469,373,192341,1,10,0:0:0:0:
393,288,192491,1,0,3:0:0:0:
392,298,192566,1,0,3:0:0:0:
391,308,192641,1,8,0:0:0:0:
252,355,192791,6,0,P|217:341|164:324,1,72,6|8,3:2|0:0,0:0:0:0:
65,137,193091,1,2,3:2:0:0:
84,146,193166,1,0,3:0:0:0:
103,155,193241,1,8,0:0:0:0:
197,246,193391,2,0,P|231:200|247:143,1,108,2|2,3:2|3:2,0:0:0:0:
206,91,193691,1,0,3:0:0:0:
402,28,193841,6,0,P|449:74|423:167,1,144,10|8,0:0|0:0,0:0:0:0:
334,248,194291,1,2,3:2:0:0:
330,226,194366,1,0,3:0:0:0:
326,204,194441,1,8,0:0:0:0:
418,347,194591,2,0,P|423:307|437:267,1,72,2|8,3:2|0:0,0:0:0:0:
272,336,194891,2,0,P|260:320|241:310,2,36,2|0|8,3:2|3:0|0:0,0:0:0:0:
147,199,195191,6,0,P|175:172|206:160,1,72,0|10,3:0|0:0,0:0:0:0:
357,21,195491,1,0,3:0:0:0:
333,29,195566,1,0,3:0:0:0:
309,38,195641,1,8,0:0:0:0:
166,82,195791,2,0,P|117:63|76:17,1,108,2|0,3:2|3:0,0:0:0:0:
19,64,196091,1,2,3:2:0:0:
141,164,196241,6,0,P|192:168|290:130,1,144,8|8,0:0|0:0,0:0:0:0:
473,17,196691,1,2,3:2:0:0:
471,42,196766,1,0,3:0:0:0:
469,67,196841,1,8,0:0:0:0:
289,15,196991,2,0,P|326:34|351:75,1,72,6|8,3:2|0:0,0:0:0:0:
366,133,197216,1,8,0:0:0:0:
370,154,197291,1,2,3:2:0:0:
213,238,197441,2,0,P|216:211|225:190,1,36,8|8,0:0|0:0,0:0:0:0:
276,93,197591,5,2,3:2:0:0:
261,108,197666,1,0,3:0:0:0:
241,118,197741,1,0,3:0:0:0:
220,123,197816,1,0,3:0:0:0:
198,125,197891,1,0,3:0:0:0:
176,120,197966,1,0,3:0:0:0:
156,109,198041,1,0,3:0:0:0:
141,93,198116,1,0,3:0:0:0:
131,73,198191,2,0,L|134:31,3,36,10|0|0|0,0:0|3:0|3:0|3:0,0:0:0:0:
18,98,198491,2,0,L|21:140,3,36,0|0|0|0,3:0|3:0|3:0|3:0,0:0:0:0:
60,248,198791,5,2,3:2:0:0:
73,264,198866,1,0,3:0:0:0:
92,274,198941,1,0,3:0:0:0:
113,278,199016,1,0,3:0:0:0:
134,278,199091,1,0,3:0:0:0:
154,270,199166,1,0,3:0:0:0:
172,258,199241,1,0,3:0:0:0:
184,240,199316,1,0,3:0:0:0:
194,221,199391,2,0,L|243:214,3,36,10|0|0|0,0:0|3:0|3:0|3:0,0:0:0:0:
330,260,199691,2,0,L|379:253,3,36,0|0|0|0,3:0|3:0|3:0|3:0,0:0:0:0:
461,348,199991,6,0,L|482:312,1,36,10|0,0:0|3:0,0:0:0:0:
472,169,200141,1,0,3:0:0:0:
463,162,200216,1,0,3:0:0:0:
454,155,200291,1,0,3:0:0:0:
445,148,200366,1,0,3:0:0:0:
436,141,200441,2,0,L|395:133,1,36,10|0,0:0|3:0,0:0:0:0:
300,22,200591,1,0,3:0:0:0:
294,31,200666,1,0,3:0:0:0:
288,40,200741,2,0,L|252:56,1,36,8|0,0:0|3:0,0:0:0:0:
194,165,200891,2,0,L|198:125,1,36,8|0,0:0|3:0,0:0:0:0:
135,19,201041,2,0,L|166:42,1,36,8|0,0:0|3:0,0:0:0:0:
282,136,201191,5,10,0:0:0:0:
107,236,201341,1,10,0:0:0:0:
281,337,201491,1,10,0:0:0:0:
281,337,202391,5,6,3:2:0:0:
231,47,203591,1,6,3:2:0:0:
165,283,204791,5,6,3:2:0:0:
347,101,205391,1,6,3:2:0:0:
203,172,205991,5,6,3:2:0:0:
309,212,206291,1,6,3:2:0:0:
464,317,206591,5,8,0:0:0:0:
388,360,206741,1,0,3:1:0:0:
388,360,206816,1,0,3:0:0:0:
388,360,206891,2,0,L|342:364,3,36,0|0|0|0,3:0|3:0|3:0|3:0,0:0:0:0:
287,326,207191,5,6,3:2:0:0:
63,248,207491,1,0,3:0:0:0:
125,318,207641,1,8,0:0:0:0:
158,232,207791,1,0,3:0:0:0:
158,232,208091,1,8,0:0:0:0:
435,143,208391,5,0,3:0:0:0:
373,213,208541,1,10,0:0:0:0:
340,127,208691,1,0,3:0:0:0:
340,127,208991,1,8,0:0:0:0:
62,48,209291,1,0,3:0:0:0:
124,118,209441,1,8,0:0:0:0:
157,32,209591,5,10,0:0:0:0:
167,34,209666,1,0,3:0:0:0:
177,36,209741,1,0,3:0:0:0:
187,38,209816,1,0,3:0:0:0:
197,40,209891,1,8,0:0:0:0:
207,42,209966,1,0,0:0:0:0:
217,44,210041,2,0,L|224:6,1,36,2|0,3:2|0:0,0:0:0:0:
311,190,210341,2,0,L|335:157,1,36,2|0,3:2|0:0,0:0:0:0:
204,313,210641,6,0,P|184:252|128:220,1,108,6|4,3:2|0:0,0:0:0:0:
84,281,210941,1,0,3:0:0:0:
82,291,211016,1,0,3:0:0:0:
80,301,211091,1,0,3:0:0:0:
78,311,211166,1,0,3:0:0:0:
76,321,211241,1,0,3:0:0:0:
74,331,211316,1,0,3:0:0:0:
73,341,211391,2,0,L|29:354,2,36,8|8|0,0:0|0:0|3:0,0:0:0:0:
36,192,211691,1,8,0:0:0:0:
192,343,211841,2,0,L|226:332,1,36,10|8,0:0|0:0,0:0:0:0:
312,228,211991,5,6,3:2:0:0:
334,215,212066,1,0,3:0:0:0:
359,211,212141,1,8,0:0:0:0:
384,216,212216,1,0,3:0:0:0:
406,229,212291,1,0,3:0:0:0:
421,249,212366,1,0,3:0:0:0:
431,272,212441,2,0,P|430:288|418:322,3,43.1999986816407,10|0|0|0,0:0|3:0|3:0|3:0,0:0:0:0:
304,366,212741,2,0,P|305:350|317:316,3,43.1999986816407,8|0|0|0,0:0|3:0|3:0|3:0,0:0:0:0:
212,258,213041,2,0,P|218:237|220:216,1,43.1999986816407,8|0,0:0|3:0,0:0:0:0:
114,42,213191,5,2,3:2:0:0:
94,58,213266,1,0,3:0:0:0:
82,81,213341,1,8,0:0:0:0:
79,106,213416,1,0,3:0:0:0:
87,130,213491,1,0,3:0:0:0:
103,149,213566,1,0,3:0:0:0:
125,161,213641,1,8,0:0:0:0:
150,163,213716,1,0,3:0:0:0:
175,157,213791,2,0,P|186:141|194:113,3,43.1999986816407,2|0|8|0,3:2|3:0|0:0|3:0,0:0:0:0:
74,227,214091,2,0,P|80:247|92:265,3,43.1999986816407,0|0|8|0,3:0|3:0|0:0|3:0,0:0:0:0:
168,371,214391,5,6,3:2:0:0:
178,347,214466,1,0,3:0:0:0:
198,331,214541,1,8,0:0:0:0:
222,321,214616,1,0,3:0:0:0:
247,325,214691,1,0,3:0:0:0:
266,341,214766,1,0,3:0:0:0:
282,361,214841,2,0,L|303:311,3,43.1999986816407,10|0|4|0,0:0|3:0|3:2|3:0,0:0:0:0:
174,206,215141,2,0,L|177:256,3,43.1999986816407,8|0|0|0,0:0|3:0|3:0|3:0,0:0:0:0:
85,361,215441,2,0,L|44:317,1,43.1999986816407,8|0,0:0|3:0,0:0:0:0:
8,223,215591,5,6,3:2:0:0:
12,197,215666,1,0,3:0:0:0:
17,171,215741,1,8,0:0:0:0:
22,145,215816,1,0,3:0:0:0:
27,119,215891,1,0,3:0:0:0:
32,93,215966,1,0,3:0:0:0:
37,67,216041,1,8,0:0:0:0:
42,41,216116,1,0,3:0:0:0:
47,15,216191,2,0,L|107:9,2,43.1999986816407,2|0|8,3:2|3:0|0:0,0:0:0:0:
192,78,216491,1,8,0:0:0:0:
295,133,216641,2,0,L|355:127,1,43.1999986816407,8|0,0:0|3:0,0:0:0:0:
470,18,216791,5,6,3:2:0:0:
350,54,216941,2,0,P|281:44|228:8,1,129.599996044922,8|0,0:0|3:0,0:0:0:0:
192,78,217241,1,8,0:0:0:0:
55,11,217391,2,0,P|50:52|32:97,1,86.3999973632813,2|8,3:2|0:0,0:0:0:0:
134,198,217691,1,0,3:0:0:0:
112,212,217766,1,0,3:0:0:0:
90,226,217841,1,8,0:0:0:0:
227,384,217991,5,2,3:2:0:0:
86,314,218141,2,0,P|143:314|217:289,1,129.599996044922,8|0,0:0|3:0,0:0:0:0:
237,224,218441,1,8,0:0:0:0:
179,54,218591,2,0,P|164:93|169:146,1,86.3999973632813,2|8,3:2|0:0,0:0:0:0:
322,151,218891,1,0,3:0:0:0:
336,129,218966,1,0,3:0:0:0:
336,103,219041,1,8,0:0:0:0:
495,11,219191,5,6,3:2:0:0:
432,154,219341,2,0,P|434:212|452:286,1,129.599996044922,8|0,0:0|3:0,0:0:0:0:
486,347,219641,1,8,0:0:0:0:
279,295,219791,2,0,P|312:291|355:260,1,86.3999973632813,2|8,3:2|0:0,0:0:0:0:
233,139,220091,1,0,3:0:0:0:
212,154,220166,1,0,3:0:0:0:
204,178,220241,1,8,0:0:0:0:
81,332,220391,5,2,3:2:0:0:
75,343,220466,1,0,3:0:0:0:
69,354,220541,2,0,L|55:306,2,43.1999986816407,8|0|0,0:0|3:0|3:0,0:0:0:0:
203,311,220766,1,8,0:0:0:0:
200,323,220841,2,0,L|174:280,1,43.1999986816407,0|0,3:0|3:0,0:0:0:0:
204,166,220991,1,8,0:0:0:0:
204,178,221066,2,0,L|167:143,1,43.1999986816407,0|0,3:0|3:0,0:0:0:0:
125,26,221216,1,8,0:0:0:0:
135,20,221291,2,0,L|123:68,1,43.1999986816407,0|0,3:0|3:0,0:0:0:0:
70,158,221441,2,0,L|22:172,1,43.1999986816407,8|0,0:0|3:0,0:0:0:0:
53,331,221591,6,0,P|65:314|77:287,3,43.1999986816407,6|0|0|0,3:2|3:0|3:0|3:0,0:0:0:0:
195,260,221891,2,0,P|198:281|206:301,1,43.1999986816407,8|0,0:0|3:0,0:0:0:0:
314,366,222041,1,2,3:2:0:0:
339,360,222116,1,0,3:0:0:0:
364,354,222191,1,0,3:0:0:0:
389,348,222266,1,0,3:0:0:0:
414,342,222341,1,2,3:2:0:0:
439,337,222416,1,0,3:0:0:0:
464,332,222491,2,0,L|476:290,1,43.1999986816407,8|0,0:0|3:0,0:0:0:0:
412,167,222641,5,0,3:0:0:0:
414,179,222716,1,0,3:0:0:0:
416,191,222791,1,10,0:0:0:0:
286,292,222941,5,10,0:0:0:0:
294,249,223016,1,8,0:0:0:0:
302,206,223091,1,8,0:0:0:0:
103,336,223241,5,10,0:0:0:0:
257,74,223541,1,10,0:0:0:0:
103,336,223841,1,10,0:0:0:0:
29,172,223991,5,10,0:0:0:0:
145,247,224141,1,0,3:0:0:0:
155,250,224216,1,0,3:0:0:0:
165,253,224291,1,0,3:0:0:0:
175,256,224366,1,0,3:0:0:0:
185,261,224441,2,0,L|312:208,1,129.599996044922,10|0,0:0|0:0,0:0:0:0:
274,110,224741,2,0,L|401:163,1,129.599996044922,10|0,0:0|0:0,0:0:0:0:
393,159,226091,1,0,3:0:0:0:
396,148,226166,1,0,3:0:0:0:
399,137,226241,1,0,3:0:0:0:
403,126,226316,1,0,3:0:0:0:
407,115,226391,6,0,L|395:55,1,43.1999986816407,10|0,0:0|0:0,0:0:0:0:
184,21,226841,2,0,L|324:121,1,172.8,10|0,0:0|0:0,0:0:0:0:
54,96,227141,2,0,L|125:84,1,72,10|0,0:0|0:0,0:0:0:0:
224,141,227291,5,0,3:0:0:0:
226,151,227366,1,0,3:0:0:0:
228,161,227441,1,0,3:0:0:0:
230,171,227516,1,0,3:0:0:0:
232,181,227591,2,0,L|223:305,1,108,6|0,3:2|0:0,0:0:0:0:
75,337,227891,5,8,0:0:0:0:
73,327,227966,1,8,0:0:0:0:
71,317,228041,1,8,0:0:0:0:
69,307,228116,1,8,0:0:0:0:
67,297,228191,2,0,L|76:173,1,108,6|0,3:2|0:0,0:0:0:0:
224,141,228491,5,8,0:0:0:0:
226,151,228566,1,8,0:0:0:0:
228,161,228641,1,8,0:0:0:0:
230,171,228716,1,8,0:0:0:0:
231,179,228791,5,6,3:2:0:0:
366,228,229091,1,0,3:0:0:0:
265,330,229391,1,2,3:2:0:0:
400,379,229691,1,2,3:2:0:0:
469,135,229991,5,6,3:2:0:0:
386,252,230291,1,0,3:0:0:0:
275,160,230591,1,2,3:2:0:0:
192,277,230891,1,2,3:2:0:0:
57,21,231191,5,10,0:0:0:0:
237,97,231341,1,0,3:0:0:0:
226,98,231416,1,0,3:0:0:0:
215,99,231491,1,0,3:0:0:0:
204,100,231566,1,0,3:0:0:0:
193,101,231641,2,0,L|119:107,1,72,14|0,0:0|0:0,0:0:0:0:
295,178,231941,1,0,3:0:0:0:
291,188,232016,1,0,3:0:0:0:
287,198,232091,1,10,0:0:0:0:
408,171,232241,5,0,3:0:0:0:
414,191,232316,1,0,3:0:0:0:
420,211,232391,2,0,L|460:343,1,129.599996044922,14|0,0:0|0:0,0:0:0:0:
346,259,232691,5,0,3:0:0:0:
344,269,232766,1,0,3:0:0:0:
342,279,232841,1,0,3:0:0:0:
341,289,232916,1,0,3:0:0:0:
340,299,232991,2,0,L|189:355,1,151.199995385742,14|0,0:0|0:0,0:0:0:0:
158,256,233291,5,0,3:0:0:0:
151,264,233366,1,0,3:0:0:0:
145,273,233441,1,0,3:0:0:0:
139,282,233516,1,0,3:0:0:0:
133,291,233591,6,0,B|76:162|112:42|112:42|190:50|236:93|238:143|176:184,1,475.199985498047,6|0,3:2|0:0,0:0:0:0:
179,181,234491,6,0,P|197:208|192:236,1,57.6,10|0,0:0|0:0,0:0:0:0:
44,273,234641,2,0,P|26:246|31:218,1,57.6,10|0,0:0|0:0,0:0:0:0:
