osu file format v14

[General]
AudioFilename: audio.mp3
AudioLeadIn: 0
PreviewTime: 68441
Countdown: 0
SampleSet: Soft
StackLeniency: 0.7
Mode: 0
LetterboxInBreaks: 0
WidescreenStoryboard: 1

[Editor]
Bookmarks: 16391,28391,40391,49991,59591,69191,78791,90791,100391,112391,121991,131591,141191,153191,163991,173591,183191,192791,202391,211991,223991,234791
DistanceSpacing: 0.3
BeatDivisor: 2
GridSize: 4
TimelineZoom: 0.9000001

[Metadata]
Title:Veracila
TitleUnicode:Veracila
Artist:DUAL ALTER WORLD
ArtistUnicode:DUAL ALTER WORLD
Creator:Hinsvar
Version:Easy
Source:
Tags:ALTER EGO Japanese Metal Rock J-Metal JMetal J-Rock JRock 小岩井ことり Koiwai Kotori RYU Featured Artist FA Mappers' Guild MPG
BeatmapID:2992404
BeatmapSetID:1428384

[Difficulty]
HPDrainRate:2
CircleSize:2
OverallDifficulty:3
ApproachRate:4.5
SliderMultiplier:0.88
SliderTickRate:1

[Events]
//Background and Video events
0,0,"veracila.jpg",0,0
//Break Periods
//Storyboard Layer 0 (Background)
//Storyboard Layer 1 (Fail)
//Storyboard Layer 2 (Pass)
//Storyboard Layer 3 (Foreground)
//Storyboard Layer 4 (Overlay)
//Storyboard Sound Samples

[TimingPoints]
1236,348.837209302326,4,2,1,70,1,0
15791,300,4,2,1,70,1,0
16391,300,4,2,1,70,1,0
28391,-100,4,2,1,80,0,0
33191,-100,4,2,1,75,0,0
40391,-100,4,2,1,60,0,0
49991,-100,4,2,1,65,0,0
59591,-100,4,2,1,70,0,0
67991,-100,4,2,1,75,0,0
69191,-100,4,2,1,85,0,1
78641,-100,4,2,1,85,0,0
78791,-100,4,2,1,85,0,1
90791,-100,4,2,1,80,0,0
95591,-100,4,2,1,70,0,0
102791,-100,4,2,1,60,0,0
112391,-100,4,2,1,65,0,0
121991,-100,4,2,1,70,0,0
130391,-100,4,2,1,75,0,0
131591,-100,4,2,1,85,0,1
141041,-100,4,2,1,85,0,0
141191,-100,4,2,1,85,0,1
153191,-100,4,2,1,70,0,0
163991,-100,4,2,1,65,0,0
173591,-100,4,2,1,75,0,0
183191,-100,4,2,1,80,0,0
202391,-100,4,2,1,70,0,0
207191,-100,4,2,1,75,0,0
211991,-100,4,2,1,85,0,1
223991,-100,4,2,1,70,0,0
232391,-100,4,2,1,75,0,0
233591,-100,4,2,1,80,0,0

[Colours]
Combo1 : 77,240,81
Combo2 : 64,159,255
Combo3 : 255,47,151
Combo4 : 103,245,238

[HitObjects]
405,48,16391,6,0,P|455:74|472:166,1,132,10|10,0:0|0:0,0:0:0:0:
460,237,17141,1,10,0:0:0:0:
460,237,18791,6,0,P|410:211|393:119,1,132,10|10,0:0|0:0,0:0:0:0:
405,48,19541,1,10,0:0:0:0:
261,26,19991,2,0,L|63:33,1,176,6|6,3:2|3:2,0:0:0:0:
14,212,21191,5,6,3:2:0:0:
141,357,21791,1,2,3:2:0:0:
332,327,22391,1,6,3:2:0:0:
205,182,22991,1,2,3:2:0:0:
14,212,23591,6,0,P|70:251|93:329,1,132,14|10,0:0|0:0,0:0:0:0:
177,356,24341,1,10,0:0:0:0:
313,305,24791,2,0,P|342:212|429:148,2,176,6|6|6,3:2|3:2|3:2,0:0:0:0:
313,305,28391,6,0,P|278:249|208:200,1,132,14|2,3:2|3:2,0:0:0:0:
144,260,29141,1,2,3:2:0:0:
57,216,29441,2,0,B|10:114|10:114|116:16,1,220,2|10,3:2|3:2,0:0:0:0:
165,100,30491,1,8,3:2:0:0:
252,58,30791,6,0,P|324:45|411:50,1,132,14|2,0:0|3:2,0:0:0:0:
465,96,31541,1,2,3:2:0:0:
434,187,31841,2,0,P|421:247|408:330,1,132,2|8,3:2|0:0,0:0:0:0:
320,353,32591,2,0,P|301:307|263:261,1,88,14|0,3:2|3:0,0:0:0:0:
193,229,33191,6,0,P|191:133|227:45,1,176,6|2,3:2|3:2,0:0:0:0:
307,20,34091,1,0,3:0:0:0:
377,86,34391,2,0,P|378:181|342:269,1,176,2|2,3:2|3:2,0:0:0:0:
262,297,35291,1,0,3:0:0:0:
193,229,35591,6,0,P|127:202|53:211,1,132,6|10,3:2|3:2,0:0:0:0:
17,122,36341,1,10,3:2:0:0:
71,42,36641,2,0,P|159:99|291:68,1,220,2|10,3:2|0:0,0:0:0:0:
458,48,37991,6,0,P|392:199|414:307,1,264,4|0,3:2|3:0,0:0:0:0:
338,360,39191,2,0,L|188:341,1,132,10|8,0:0|0:0,0:0:0:0:
146,267,39941,1,10,0:0:0:0:
296,212,40391,6,0,P|311:149|293:59,2,132,6|2|8,3:2|3:2|0:0,0:0:0:0:
363,281,41591,2,0,P|425:262|494:201,2,132,2|2|10,3:2|3:2|0:0,0:0:0:0:
305,359,42791,6,0,L|162:314,1,132,2|2,3:2|3:2,0:0:0:0:
76,198,43691,1,8,0:0:0:0:
144,130,43991,2,0,L|162:35,1,88,2|8,3:2|0:0,0:0:0:0:
252,13,44591,1,0,3:0:0:0:
328,76,44891,1,10,0:0:0:0:
404,16,45191,6,0,P|456:54|467:146,2,132,6|2|10,3:2|3:2|0:0,0:0:0:0:
328,76,46391,2,0,P|345:138|397:176,2,132,2|2|10,3:2|3:2|0:0,0:0:0:0:
239,35,47591,2,0,P|167:30|91:49,1,132,2|2,3:2|3:2,0:0:0:0:
30,179,48491,1,8,0:0:0:0:
98,247,48791,2,0,L|86:346,1,88,2|8,3:2|0:0,0:0:0:0:
177,371,49391,1,0,3:0:0:0:
271,348,49691,1,10,0:0:0:0:
364,323,49991,6,0,P|370:244|337:176,1,132,14|10,0:0|0:0,0:0:0:0:
261,161,50741,1,0,3:0:0:0:
229,251,51041,1,10,0:0:0:0:
89,176,51491,2,0,P|76:131|81:76,2,88,0|8|0,3:0|0:0|3:0,0:0:0:0:
183,154,52391,6,0,P|208:87|246:12,1,132,10|10,0:0|0:0,0:0:0:0:
330,22,53141,1,0,3:0:0:0:
396,92,53441,1,10,0:0:0:0:
346,242,53891,2,0,B|337:292|337:292|362:344,2,88,0|8|0,3:0|0:0|3:0,0:0:0:0:
260,196,54791,6,0,P|206:227|105:248,1,132,10|10,0:0|0:0,0:0:0:0:
90,332,55541,1,0,3:0:0:0:
181,364,55841,1,10,0:0:0:0:
374,359,56441,2,0,P|424:321|447:230,1,132,8|8,0:0|0:0,0:0:0:0:
375,193,57191,6,0,B|356:128|356:128|375:45,2,132,10|8|8,0:0|0:0|0:0,0:0:0:0:
315,269,58391,2,0,B|255:236|255:236|210:164,1,132,10|10,0:0|0:0,0:0:0:0:
160,32,59291,1,10,0:0:0:0:
65,55,59591,6,0,P|32:125|59:245,1,176,6|0,3:2|3:0,0:0:0:0:
139,201,60491,1,0,3:0:0:0:
224,246,60791,2,0,P|257:176|230:56,1,176,2|0,3:2|3:0,0:0:0:0:
320,19,61691,1,0,3:0:0:0:
407,60,61991,5,2,3:2:0:0:
469,243,62591,2,0,P|466:288|438:342,2,88,0|0|2,3:0|3:0|3:2,0:0:0:0:
405,168,63491,1,0,3:0:0:0:
313,200,63791,2,0,P|292:243|288:290,1,88,6|0,3:2|3:0,0:0:0:0:
358,347,64391,5,2,3:2:0:0:
165,323,64991,2,0,L|69:345,2,88,8|0|2,0:0|3:0|3:2,0:0:0:0:
261,153,66191,2,0,L|357:175,1,88,8|0,0:0|3:0,0:0:0:0:
421,234,66791,6,0,P|475:194|477:119,2,132,10|10|8,0:0|0:0|0:0,0:0:0:0:
347,173,67991,1,10,0:0:0:0:
337,77,68291,1,10,0:0:0:0:
337,77,69191,6,0,B|274:57|274:57|209:99,1,132,6|10,3:2|0:0,0:0:0:0:
168,175,69941,1,8,0:0:0:0:
72,161,70241,2,0,P|38:105|57:37,1,132,10|0,0:0|3:0,0:0:0:0:
147,28,70991,1,2,3:2:0:0:
218,92,71291,1,0,3:0:0:0:
306,52,71591,6,0,P|333:118|337:189,1,132,6|10,3:2|0:0,0:0:0:0:
302,267,72341,1,10,0:0:0:0:
367,337,72641,2,0,P|464:281|466:160,1,220,10|2,0:0|3:2,0:0:0:0:
323,62,73991,6,0,P|304:154|291:268,1,176,6|2,3:2|3:2,0:0:0:0:
223,302,74891,1,0,3:0:0:0:
137,255,75191,2,0,P|101:165|58:80,1,176,2|2,3:2|3:2,0:0:0:0:
131,22,76091,1,0,3:0:0:0:
206,82,76391,6,0,P|272:80|355:63,1,132,2|8,3:2|0:0,0:0:0:0:
422,22,77141,1,8,0:0:0:0:
481,98,77441,2,0,B|499:162|499:162|473:254,1,132,8|8,0:0|0:0,0:0:0:0:
428,306,78191,1,2,3:2:0:0:
244,243,78791,6,0,P|192:278|151:352,1,132,6|10,3:2|0:0,0:0:0:0:
62,362,79541,1,8,0:0:0:0:
23,273,79841,2,0,B|13:214|13:214|29:139,1,132,8|0,0:0|3:0,0:0:0:0:
109,90,80591,1,2,3:2:0:0:
175,160,80891,1,0,3:0:0:0:
134,247,81191,6,0,P|161:302|237:338,1,132,6|10,3:2|0:0,0:0:0:0:
302,282,81941,1,10,0:0:0:0:
344,195,82241,2,0,P|432:207|469:337,1,220,10|2,0:0|3:2,0:0:0:0:
285,357,83591,6,0,P|212:316|102:308,1,176,4|2,3:2|3:2,0:0:0:0:
59,230,84491,1,0,3:0:0:0:
122,157,84791,2,0,P|208:147|285:105,1,176,2|2,3:2|3:2,0:0:0:0:
344,28,85691,1,0,3:0:0:0:
428,73,85991,6,0,B|469:127|469:127|463:194,1,132,6|8,3:2|0:0,0:0:0:0:
385,248,86741,1,8,0:0:0:0:
309,187,87041,2,0,P|224:152|86:154,1,220,8|10,0:0|0:0,0:0:0:0:
116,344,88391,6,0,P|160:347|211:334,2,88,6|8|0,3:2|0:0|3:0,0:0:0:0:
40,282,89291,1,8,0:0:0:0:
30,185,89591,2,0,P|75:138|135:109,1,132,10|10,0:0|0:0,0:0:0:0:
221,153,90341,1,10,0:0:0:0:
319,28,90791,5,8,0:0:0:0:
407,66,91091,1,8,0:0:0:0:
319,28,93191,5,8,0:0:0:0:
407,66,93491,1,8,0:0:0:0:
319,356,94391,1,10,0:0:0:0:
407,318,94691,1,10,0:0:0:0:
319,28,95591,6,0,P|228:29|121:18,1,176,4|8,3:2|0:0,0:0:0:0:
18,169,96791,2,0,P|19:260|8:367,1,176,0|8,3:0|0:0,0:0:0:0:
106,363,97691,1,2,3:2:0:0:
202,352,97991,2,0,P|201:261|212:154,1,176,0|8,3:0|0:0,0:0:0:0:
299,143,98891,1,0,3:0:0:0:
377,199,99191,2,0,P|418:202|470:193,2,88,6|6|8,3:2|3:2|0:0,0:0:0:0:
190,147,100391,6,0,B|171:87|171:87|203:7,2,132,4|2|8,3:2|3:2|0:0,0:0:0:0:
155,237,101591,2,0,B|88:224|88:224|15:250,1,132,2|2,3:2|3:2,0:0:0:0:
9,87,102491,1,10,0:0:0:0:
100,119,102791,6,0,P|144:75|164:4,2,132,6|2|8,3:2|3:2|0:0,0:0:0:0:
142,206,103991,2,0,P|204:206|268:169,2,132,2|2|10,3:2|3:2|0:0,0:0:0:0:
107,296,105191,2,0,P|151:340|222:360,1,132,2|2,3:2|3:2,0:0:0:0:
372,328,106091,1,8,0:0:0:0:
403,236,106391,2,0,L|395:141,1,88,2|8,3:2|0:0,0:0:0:0:
331,76,106991,1,0,3:0:0:0:
261,143,107291,1,10,0:0:0:0:
165,126,107591,6,0,P|117:92|94:12,2,132,6|2|8,3:2|3:2|0:0,0:0:0:0:
148,221,108791,2,0,P|118:272|131:354,2,132,2|2|10,3:2|3:2|0:0,0:0:0:0:
239,188,109991,2,0,P|287:221|310:301,1,132,2|2,3:2|3:2,0:0:0:0:
453,357,110891,1,8,0:0:0:0:
439,261,111191,2,0,P|441:217|456:171,1,88,2|8,3:2|0:0,0:0:0:0:
503,92,111791,1,0,3:0:0:0:
437,20,112091,1,10,0:0:0:0:
374,94,112391,6,0,P|289:95|238:78,1,132,14|10,0:0|0:0,0:0:0:0:
160,33,113141,1,0,3:0:0:0:
109,115,113441,1,10,0:0:0:0:
198,245,113891,2,0,B|213:290|213:290|204:349,2,88,0|8|0,3:0|0:0|3:0,0:0:0:0:
102,264,114791,6,0,P|32:247|-15:183,1,132,10|10,0:0|0:0,0:0:0:0:
0,107,115541,1,0,3:0:0:0:
94,125,115841,1,10,0:0:0:0:
245,80,116291,2,0,L|310:18,2,88,0|8|0,3:0|0:0|3:0,0:0:0:0:
215,172,117191,6,0,P|216:252|239:307,1,132,10|10,0:0|0:0,0:0:0:0:
315,353,117941,1,0,3:0:0:0:
402,312,118241,1,10,0:0:0:0:
468,130,118841,2,0,B|456:64|456:64|391:26,1,132,8|8,0:0|0:0,0:0:0:0:
312,73,119591,6,0,P|272:42|183:29,2,132,2|8|8,3:2|0:0|0:0,0:0:0:0:
312,170,120791,2,0,P|272:201|183:214,1,132,10|10,0:0|0:0,0:0:0:0:
55,137,121691,1,10,0:0:0:0:
19,227,121991,6,0,P|12:299|88:371,1,176,6|0,3:2|3:0,0:0:0:0:
160,314,122891,1,0,3:0:0:0:
253,338,123191,2,0,P|299:266|275:184,1,176,2|0,3:2|3:0,0:0:0:0:
189,139,124091,1,0,3:0:0:0:
122,208,124391,5,2,3:2:0:0:
292,299,124991,2,0,P|341:302|396:280,2,88,0|0|2,3:0|3:0|3:2,0:0:0:0:
240,216,125891,1,0,3:0:0:0:
280,128,126191,2,0,P|322:116|365:119,1,88,6|0,3:2|3:0,0:0:0:0:
416,202,126791,5,2,3:2:0:0:
278,337,127391,2,0,L|190:366,2,88,8|0|2,0:0|3:0|3:2,0:0:0:0:
161,181,128591,2,0,L|70:162,1,88,8|0,0:0|3:0,0:0:0:0:
32,75,129191,6,0,B|84:33|84:33|158:50,2,132,10|10|8,0:0|0:0|0:0,0:0:0:0:
74,163,130391,1,10,0:0:0:0:
46,255,130691,1,10,0:0:0:0:
46,255,131591,6,0,P|126:253|193:287,1,132,6|10,3:2|0:0,0:0:0:0:
264,239,132341,1,8,0:0:0:0:
357,212,132641,2,0,P|394:266|394:346,1,132,10|0,0:0|3:0,0:0:0:0:
309,369,133391,1,2,3:2:0:0:
218,333,133691,1,0,3:0:0:0:
152,263,133991,6,0,P|84:275|12:306,1,132,6|10,3:2|0:0,0:0:0:0:
5,203,134741,1,8,0:0:0:0:
49,117,135041,2,0,P|138:119|253:184,1,220,10|2,0:0|3:2,0:0:0:0:
335,355,136391,6,0,P|416:332|444:241,1,176,6|2,3:2|3:2,0:0:0:0:
435,155,137291,1,0,3:0:0:0:
379,75,137591,2,0,P|296:53|227:118,1,176,2|2,3:2|3:2,0:0:0:0:
221,204,138491,1,0,3:0:0:0:
188,295,138791,6,0,B|127:324|127:324|47:270,1,132,2|8,3:2|0:0,0:0:0:0:
41,197,139541,1,8,0:0:0:0:
79,108,139841,2,0,B|139:78|139:78|219:132,1,132,8|8,0:0|0:0,0:0:0:0:
221,204,140591,1,2,3:2:0:0:
65,319,141191,6,0,P|113:347|196:352,1,132,6|10,3:2|0:0,0:0:0:0:
272,307,141941,1,8,0:0:0:0:
357,353,142241,2,0,P|385:305|390:222,1,132,0|0,0:0|3:0,0:0:0:0:
319,165,142991,1,2,3:2:0:0:
236,215,143291,1,0,3:0:0:0:
149,171,143591,6,0,B|117:122|117:122|145:42,1,132,6|10,3:2|0:0,0:0:0:0:
233,21,144341,1,10,0:0:0:0:
288,100,144641,2,0,P|368:136|492:89,1,220,10|2,0:0|3:2,0:0:0:0:
466,286,145991,6,0,P|382:279|336:376,1,176,6|2,3:2|3:2,0:0:0:0:
245,306,146891,1,0,3:0:0:0:
212,214,147191,2,0,P|276:159|240:58,1,176,2|2,3:2|3:2,0:0:0:0:
176,30,148091,1,0,3:0:0:0:
83,59,148391,6,0,L|39:208,1,132,6|8,3:2|0:0,0:0:0:0:
121,245,149141,1,8,0:0:0:0:
212,214,149441,2,0,P|303:265|305:370,1,220,8|8,0:0|0:0,0:0:0:0:
465,263,150791,6,0,L|474:158,2,88,6|8|0,3:2|0:0|3:0,0:0:0:0:
406,340,151691,1,8,0:0:0:0:
324,287,151991,2,0,P|252:274|164:300,1,132,10|10,0:0|0:0,0:0:0:0:
121,348,152741,1,10,0:0:0:0:
51,205,153191,6,0,L|63:58,1,132,10|10,0:0|0:0,0:0:0:0:
149,31,153941,1,10,0:0:0:0:
149,31,155591,6,0,L|137:178,1,132,10|10,0:0|0:0,0:0:0:0:
51,205,156341,1,10,0:0:0:0:
131,341,156791,2,0,P|208:341|304:297,1,176,6|6,3:2|3:2,0:0:0:0:
439,170,157991,5,6,3:2:0:0:
286,51,158591,1,2,3:2:0:0:
117,145,159191,1,6,3:2:0:0:
270,264,159791,1,2,3:2:0:0:
439,170,160391,6,0,P|441:96|422:11,2,132,10|14|10,0:0|0:0|0:0,0:0:0:0:
370,237,161591,2,0,P|330:234|291:196,1,88,14|0,0:0|3:0,0:0:0:0:
209,157,162191,2,0,P|169:160|130:198,1,88,14|0,0:0|3:0,0:0:0:0:
101,281,162791,1,14,0:0:0:0:
101,281,163991,5,10,0:0:0:0:
359,333,164741,2,0,L|376:247,1,88,10|8,0:0|0:0,0:0:0:0:
376,246,166391,5,10,0:0:0:0:
118,298,167141,2,0,L|101:212,1,88,10|8,0:0|0:0,0:0:0:0:
100,211,168491,1,8,0:0:0:0:
121,116,168791,5,6,3:2:0:0:
294,30,169391,1,10,0:0:0:0:
457,134,169991,1,2,3:2:0:0:
284,220,170591,1,10,0:0:0:0:
121,116,171191,5,6,3:2:0:0:
112,309,171791,1,10,0:0:0:0:
284,220,172391,2,0,P|298:152|297:89,2,132,10|10|10,0:0|0:0|0:0,0:0:0:0:
330,325,173591,6,0,P|416:351|509:293,1,176,6|8,3:2|0:0,0:0:0:0:
505,220,174491,1,0,3:0:0:0:
467,130,174791,2,0,P|381:104|288:162,1,176,6|8,3:2|0:0,0:0:0:0:
292,235,175691,1,0,3:0:0:0:
196,249,175991,5,6,3:2:0:0:
45,126,176591,2,0,P|40:78|53:35,1,88,8|0,0:0|3:0,0:0:0:0:
145,21,177191,2,0,P|215:45|293:117,1,176,6|8,3:2|0:0,0:0:0:0:
328,201,178091,1,0,3:0:0:0:
411,152,178391,6,0,P|422:108|429:48,2,88,6|8|2,3:2|0:0|3:2,0:0:0:0:
466,231,179291,1,8,0:0:0:0:
383,282,179591,2,0,P|372:326|365:386,2,88,6|8|2,3:2|0:0|3:2,0:0:0:0:
328,201,180491,1,8,0:0:0:0:
237,234,180791,5,6,3:2:0:0:
152,187,181091,2,0,P|135:151|133:95,2,88,10|10|10,0:0|0:0|0:0,0:0:0:0:
131,281,181991,2,0,B|85:335|85:335|18:365,2,132,14|10|10,0:0|0:0|0:0,0:0:0:0:
222,249,183191,6,0,P|278:269|329:326,1,132,6|10,3:2|0:0,0:0:0:0:
414,280,183941,1,10,0:0:0:0:
388,123,184391,2,0,P|332:103|281:46,1,132,2|10,3:2|0:0,0:0:0:0:
196,92,185141,1,10,0:0:0:0:
78,198,185591,6,0,P|96:257|110:332,1,132,6|10,3:2|0:0,0:0:0:0:
212,347,186341,2,0,P|240:287|275:231,1,132,10|2,0:0|3:2,0:0:0:0:
406,142,187241,2,0,P|451:192|441:270,1,132,10|0,0:0|3:0,0:0:0:0:
391,331,187991,5,6,3:2:0:0:
301,293,188291,2,0,B|275:257|275:257|289:210,2,88,0|0|2,3:0|3:0|3:2,0:0:0:0:
225,353,189191,2,0,L|119:340,1,88,2|0,3:2|3:0,0:0:0:0:
71,271,189791,1,2,3:2:0:0:
154,221,190091,1,2,3:2:0:0:
104,136,190391,5,6,3:2:0:0:
277,49,190991,2,0,P|277:93|268:141,1,88,2|0,3:2|3:0,0:0:0:0:
318,219,191591,2,0,P|380:216|427:167,1,132,2|10,3:2|0:0,0:0:0:0:
449,73,192341,1,10,0:0:0:0:
295,32,192791,5,6,3:2:0:0:
220,93,193091,1,2,3:2:0:0:
128,61,193391,2,0,P|60:83|37:102,1,88,2|2,3:2|0:0,0:0:0:0:
24,186,193991,1,0,3:0:0:0:
82,262,194291,2,0,P|96:305|96:359,2,88,2|2|2,3:2|3:2|3:2,0:0:0:0:
228,128,195491,6,0,P|242:85|242:31,2,88,0|2|2,3:0|3:2|3:2,0:0:0:0:
268,215,196391,1,0,3:0:0:0:
358,181,196691,1,2,3:2:0:0:
447,217,196991,2,0,B|466:254|466:254|456:310,1,88,6|2,3:2|3:2,0:0:0:0:
378,354,197591,6,0,P|303:333|200:333,1,176,2|10,3:2|0:0,0:0:0:0:
29,250,198791,2,0,P|50:175|50:72,1,176,2|10,3:2|0:0,0:0:0:0:
240,36,199991,2,0,B|292:75|292:75|347:29,2,132,10|10|8,0:0|0:0|0:0,0:0:0:0:
145,57,201191,1,10,0:0:0:0:
49,76,201491,1,10,0:0:0:0:
103,361,202391,5,6,3:2:0:0:
103,361,203591,1,6,3:2:0:0:
103,361,204791,5,6,3:2:0:0:
72,169,205391,1,6,3:2:0:0:
246,252,205991,2,0,L|349:263,1,88,6|6,3:2|3:2,0:0:0:0:
409,321,206591,1,8,0:0:0:0:
471,247,206891,1,0,3:0:0:0:
418,165,207191,6,0,P|399:101|405:29,2,132,6|8|8,3:2|0:0|0:0,0:0:0:0:
282,246,208541,2,0,P|250:187|195:140,1,132,10|8,0:0|0:0,0:0:0:0:
110,111,209291,1,0,3:0:0:0:
70,199,209591,6,0,P|74:265|104:331,1,132,10|2,0:0|3:2,0:0:0:0:
187,366,210341,1,2,3:2:0:0:
277,330,210641,1,6,3:2:0:0:
277,330,211991,6,0,P|339:310|423:318,1,132,6|10,3:2|0:0,0:0:0:0:
461,234,212741,1,8,0:0:0:0:
370,198,213041,2,0,B|340:142|340:142|359:63,1,132,8|0,0:0|3:0,0:0:0:0:
450,53,213791,1,2,3:2:0:0:
490,141,214091,1,0,3:0:0:0:
460,234,214391,6,0,P|452:298|450:376,1,132,6|10,3:2|0:0,0:0:0:0:
357,338,215141,1,10,0:0:0:0:
269,378,215441,2,0,P|177:300|57:285,1,220,10|2,0:0|3:2,0:0:0:0:
11,101,216791,6,0,P|69:33|162:53,1,176,6|2,3:2|3:2,0:0:0:0:
200,123,217691,1,0,3:0:0:0:
283,74,217991,2,0,P|372:66|423:146,1,176,2|2,3:2|3:2,0:0:0:0:
398,223,218891,1,0,3:0:0:0:
329,291,219191,6,0,P|273:267|257:189,1,132,6|8,3:2|0:0,0:0:0:0:
275,108,219941,1,8,0:0:0:0:
181,83,220241,2,0,B|83:140|83:140|108:261,1,220,8|8,0:0|0:0,0:0:0:0:
284,323,221591,6,0,P|297:285|302:229,2,88,6|8|0,3:2|0:0|3:0,0:0:0:0:
198,368,222491,1,8,0:0:0:0:
136,293,222791,2,0,P|95:259|6:250,1,132,10|10,0:0|0:0,0:0:0:0:
4,151,223541,1,10,0:0:0:0:
123,48,223991,6,0,B|182:33|182:33|263:69,1,132,10|10,0:0|0:0,0:0:0:0:
274,154,224741,1,10,0:0:0:0:
274,154,226391,6,0,B|337:160|337:160|386:112,1,132,10|10,0:0|0:0,0:0:0:0:
457,45,227141,1,10,0:0:0:0:
496,189,227591,2,0,P|490:279|457:371,1,176,6|6,3:2|3:2,0:0:0:0:
300,254,228791,5,6,3:2:0:0:
129,345,229391,1,2,3:2:0:0:
38,174,229991,1,6,3:2:0:0:
209,83,230591,1,2,3:2:0:0:
300,254,231191,6,0,B|362:272|362:272|433:236,2,132,10|14|10,0:0|0:0|0:0,0:0:0:0:
239,177,232391,2,0,B|157:147|157:147|84:213,1,176,14|14,0:0|0:0,0:0:0:0:
249,346,233591,6,0,B|401:361|401:361|461:213,1,308,6|10,3:2|0:0,0:0:0:0:
