osu file format v14

[General]
AudioFilename: audio.mp3
AudioLeadIn: 0
PreviewTime: 55013
Countdown: 0
SampleSet: Soft
StackLeniency: 0.7
Mode: 0
LetterboxInBreaks: 0
WidescreenStoryboard: 1

[Editor]
Bookmarks: 9097,18382,27525,45882,50382,55025,70954,89382
DistanceSpacing: 0.1
BeatDivisor: 4
GridSize: 32
TimelineZoom: 1.5

[Metadata]
Title:CONSOLE1 (Cut Ver.)
TitleUnicode:CONSOLE1 (Cut Ver.)
Artist:DUAL ALTER WORLD
ArtistUnicode:DUAL ALTER WORLD
Creator:Nao Tomori
Version:Easy
Source:
Tags:japanese power metal short version lasse pishifat icekalt ryu 小岩井 ことり kotori koiwai alter ego
BeatmapID:2634480
BeatmapSetID:1267302

[Difficulty]
HPDrainRate:2
CircleSize:3
OverallDifficulty:2.5
ApproachRate:4
SliderMultiplier:0.549999999999999
SliderTickRate:0.5

[Events]
//Background and Video events
0,0,"criin sun bg.jpg",0,0
//Break Periods
2,71236,73145
2,107808,115431
//Storyboard Layer 0 (Background)
//Storyboard Layer 1 (Fail)
//Storyboard Layer 2 (Pass)
//Storyboard Layer 3 (Foreground)
//Storyboard Layer 4 (Overlay)
//Storyboard Sound Samples

[TimingPoints]
-820,285.714285714286,4,1,34,80,1,0
180,-100,4,1,34,80,0,0
608,-100,4,1,34,80,0,0
9323,-100,4,1,34,70,0,0
18465,-100,4,1,34,60,0,0
21894,-100,4,1,34,60,0,0
22323,-100,4,1,34,60,0,0
23037,-100,4,1,34,60,0,0
26465,-100,4,1,34,60,0,0
27608,-100,4,1,34,70,0,0
36751,-100,4,1,34,60,0,0
37180,-100,4,1,34,60,0,0
40180,-100,4,1,34,60,0,0
41323,-100,4,1,34,60,0,0
44751,-100,4,1,34,60,0,0
45894,-100,4,1,34,70,0,0
55037,-80,4,1,34,80,0,1
68751,-80,4,1,34,90,0,1
70751,-80,4,1,34,80,0,1
71037,-100,4,1,34,70,0,0
76037,-100,4,1,34,70,0,0
78323,-100,4,1,34,70,0,0
79037,-125,4,1,34,70,0,0
80037,-125,4,1,34,40,0,0
80180,-100,4,1,34,85,0,0
84751,-100,4,1,34,80,0,0
89322,-80,4,1,34,80,0,0
98465,-80,4,1,34,80,0,0
98894,-80,4,1,34,75,0,0
105322,-80,4,1,34,80,0,0
106465,-80,4,1,34,85,0,0
107608,-100,4,2,34,60,0,0
107751,-100,4,2,34,20,0,0
109751,-100,4,2,34,25,0,0
116322,-100,4,2,34,50,0,0
116751,-100,4,1,34,70,0,0
125894,-100,4,1,34,60,0,0
126323,-100,4,1,34,60,0,0
129322,-100,4,1,34,75,0,0
130465,-100,4,1,34,60,0,0
130894,-100,4,1,34,60,0,0
133894,-100,4,1,34,75,0,0
135037,-100,4,2,34,60,0,0
135180,-100,4,2,34,60,0,0
136180,-100,4,2,34,60,0,0
136323,-100,4,2,34,60,0,0
143037,-100,4,1,34,70,0,0
143465,-100,4,1,34,70,0,0
143751,-100,4,1,34,70,0,0
144180,-80,4,1,34,90,0,1
157894,-80,4,1,34,95,0,1
159894,-80,4,1,34,80,0,1
160180,-100,4,1,34,80,0,0
169322,-100,4,1,34,70,0,0
169465,-100,4,1,34,10,0,0
169894,-100,4,1,34,30,0,0
170037,-100,4,1,34,70,0,0
170180,-100,4,1,34,70,0,0
170537,-100,4,1,34,10,0,0
171180,-100,4,1,34,30,0,0

[Colours]
Combo1 : 189,184,252
Combo2 : 248,167,167
Combo3 : 247,207,117
Combo4 : 187,242,219

[HitObjects]
30,156,180,6,0,P|74:129|110:128,1,82.4999999999999,6|2,0:0|0:0,0:0:0:0:
146,169,894,2,0,B|178:175|178:175|205:166,1,54.9999999999999,2|2,0:0|0:0,0:0:0:0:
253,139,1465,2,0,P|289:125|338:143,1,82.4999999999999,2|2,0:0|0:0,0:0:0:0:
377,177,2180,1,2,0:0:0:0:
434,159,2465,6,0,P|449:174|460:237,2,82.4999999999999,2|2|2,0:0|0:0|0:1,0:0:0:0:
464,106,3608,2,0,B|400:55,1,82.4999999999999,14|8,0:1|0:3,0:0:0:0:
355,15,4322,1,2,0:0:0:0:
287,75,4751,6,0,P|236:96|203:93,1,82.4999999999999,6|2,0:0|0:0,0:0:0:0:
154,69,5465,1,2,0:0:0:0:
95,84,5751,1,2,0:0:0:0:
59,133,6037,2,0,L|72:224,1,82.4999999999999,2|10,0:0|0:0,0:0:0:0:
77,274,6751,1,10,0:0:0:0:
111,321,7037,6,0,P|155:334|191:318,1,82.4999999999999,10|2,0:0|0:0,0:0:0:0:
227,275,7751,1,2,0:0:0:0:
304,322,8180,2,0,B|338:318|338:318|347:324|347:324|386:332,1,82.4999999999999,14|8,0:0|0:3,0:0:0:0:
436,301,8894,1,8,0:0:0:0:
399,218,9322,6,0,P|387:186|408:142,1,82.4999999999999,6|10,0:0|0:0,0:0:0:0:
417,84,10037,2,0,L|330:98,2,82.4999999999999,0|4|10,0:0|0:2|0:0,0:0:0:0:
454,36,11180,1,2,0:0:0:0:
503,112,11608,2,0,B|517:139|517:139|505:200,1,82.4999999999999,6|10,0:0|0:0,0:0:0:0:
472,240,12322,1,2,0:0:0:0:
506,323,12751,2,0,P|484:341|431:337,1,82.4999999999999,4|10,0:2|0:1,0:0:0:0:
378,309,13465,1,2,0:0:0:0:
293,341,13894,6,0,P|251:339|207:353,1,82.4999999999999,6|12,0:0|0:2,0:0:0:0:
157,325,14608,1,2,0:1:0:0:
197,243,15037,2,0,L|193:156,1,82.4999999999999,4|10,0:2|0:0,0:0:0:0:
159,110,15751,2,0,P|121:94|75:112,2,82.4999999999999,2|6|10,0:0|0:0|0:0,0:0:0:0:
190,58,16894,1,2,0:0:0:0:
267,105,17322,2,0,B|295:111|295:111|348:99,1,82.4999999999999,4|10,0:2|0:0,0:0:0:0:
403,76,18037,2,0,B|393:121|391:134|388:161,1,82.4999999999999,2|4,0:0|0:1,0:0:0:0:
430,237,18894,6,0,P|445:260|438:324,1,82.4999999999999,2|2,0:2|0:2,0:0:0:0:
395,350,19608,1,2,0:2:0:0:
316,301,20037,2,0,L|319:244,2,54.9999999999999,2|10|2,0:2|0:2|0:2,0:0:0:0:
271,342,20894,2,0,P|220:328|187:338,2,82.4999999999999,0|2|0,0:0|0:2|0:0,0:0:0:0:
258,251,22180,2,0,L|260:163,1,82.4999999999999,0|10,0:0|0:2,0:0:0:0:
291,116,22894,1,2,0:2:0:0:
196,40,23465,6,0,B|151:38|104:44,1,82.4999999999999,2|2,0:2|0:2,0:0:0:0:
71,86,24180,1,2,0:2:0:0:
109,132,24465,2,0,P|118:164|110:217,1,82.4999999999999,2|10,0:2|0:2,0:0:0:0:
76,261,25180,1,2,0:2:0:0:
111,309,25465,2,0,P|144:329|208:296,1,110,0|8,0:0|0:0,0:0:0:0:
254,268,26322,2,0,L|364:286,1,110,0|10,0:0|0:2,0:0:0:0:
415,255,27180,1,10,0:2:0:0:
497,291,27608,6,0,P|497:253|510:203,1,82.4999999999999,6|8,0:0|0:2,0:0:0:0:
465,166,28322,1,2,0:0:0:0:
489,78,28751,1,4,0:2:0:0:
413,27,29180,2,0,L|352:37,1,54.9999999999999,10|2,0:0|0:0,0:0:0:0:
302,106,29894,2,0,P|260:118|220:95,2,82.4999999999999,6|10|0,0:0|0:0|0:0,0:0:0:0:
341,151,31037,2,0,L|326:237,1,82.4999999999999,4|10,0:2|0:0,0:0:0:0:
367,276,31751,1,2,0:0:0:0:
295,332,32180,6,0,B|268:345|268:345|211:335,1,82.4999999999999,6|8,0:0|0:0,0:0:0:0:
156,343,32894,2,0,L|147:259,1,82.4999999999999,2|4,0:0|0:2,0:0:0:0:
207,193,33751,1,10,0:0:0:0:
207,193,34037,1,2,0:0:0:0:
140,130,34465,2,0,P|106:121|64:138,2,82.4999999999999,6|10|0,0:0|0:0|0:0,0:0:0:0:
167,76,35608,2,0,P|188:81|254:69,1,82.4999999999999,4|10,0:2|0:0,0:0:0:0:
301,98,36322,2,0,P|337:108|388:120,1,82.4999999999999,2|4,0:0|0:0,0:0:0:0:
400,207,37180,6,0,L|383:292,1,82.4999999999999,2|2,0:2|0:2,0:0:0:0:
440,310,37894,2,0,L|457:225,1,82.4999999999999,2|2,0:2|0:2,0:0:0:0:
505,193,38608,1,10,0:2:0:0:
502,132,38894,1,2,0:2:0:0:
488,72,39180,6,0,P|448:66|403:86,1,82.4999999999999,0|2,0:0|0:2,0:0:0:0:
346,146,40037,2,0,P|306:152|261:132,1,82.4999999999999,0|0,0:0|0:0,0:0:0:0:
202,73,40894,1,10,0:2:0:0:
202,73,41180,2,0,L|89:83,1,110,2|2,0:2|0:2,0:0:0:0:
42,158,42180,5,2,0:2:0:0:
42,158,42465,1,2,0:2:0:0:
85,200,42751,2,0,P|73:235|71:287,1,82.4999999999999,2|10,0:2|0:2,0:0:0:0:
139,338,43608,2,0,P|164:320|225:310,1,82.4999999999999,6|0,0:2|0:0,0:0:0:0:
301,332,44465,2,0,P|326:350|406:350,1,110,2|0,0:0|0:0,0:0:0:0:
459,280,45465,1,10,0:2:0:0:
412,241,45751,6,0,P|388:214|403:143,1,110,10|10,0:2|0:1,0:0:0:0:
437,98,46608,1,2,0:0:0:0:
372,33,47037,2,0,L|278:48,1,82.4999999999999,6|10,0:2|0:2,0:0:0:0:
243,84,47751,1,2,0:2:0:0:
162,41,48180,2,0,P|105:23|84:24,1,82.4999999999999,6|8,0:1|0:0,0:0:0:0:
33,59,48894,2,0,L|38:149,1,82.4999999999999,0|6,0:0|0:2,0:0:0:0:
105,201,49751,1,8,0:0:0:0:
105,201,50037,1,2,0:2:0:0:
184,158,50465,6,0,P|215:149|269:148,1,82.4999999999999,6|8,0:0|0:0,0:0:0:0:
316,178,51180,1,0,0:0:0:0:
365,142,51465,1,10,0:2:0:0:
418,169,51751,2,0,L|435:282,1,110,0|2,0:0|0:2,0:0:0:0:
371,343,52751,2,0,B|344:317|344:317|292:330,1,82.4999999999999,6|10,0:1|0:2,0:0:0:0:
253,289,53465,2,0,L|170:273,2,82.4999999999999,10|6|0,0:2|0:2|0:3,0:0:0:0:
298,249,54608,1,10,0:0:0:0:
403,290,55037,6,0,P|411:256|401:182,1,103.125,6|0,0:0|0:0,0:0:0:0:
352,127,55751,2,0,L|274:144,1,68.7499999999999,2|0,0:2|0:0,0:0:0:0:
286,143,56180,2,0,L|184:134,1,103.125,2|0,0:0|0:0,0:0:0:0:
117,84,56894,1,2,0:2:0:0:
12,148,57322,6,0,B|-8:177|-8:177|17:201|20:251,1,103.125,6|10,0:2|0:0,0:0:0:0:
0,321,58037,2,0,P|33:343|68:337,1,68.7499999999999,2|10,0:2|0:2,0:0:0:0:
60,340,58465,2,0,P|91:319|162:316,1,103.125,2|10,0:0|0:0,0:0:0:0:
228,354,59180,1,2,0:2:0:0:
320,276,59608,6,0,L|432:286,1,103.125,6|8,0:0|0:0,0:0:0:0:
495,242,60322,2,0,P|498:211|474:171,1,68.7499999999999,2|10,0:2|0:2,0:0:0:0:
481,178,60751,2,0,L|378:168,1,103.125,2|10,0:0|0:0,0:0:0:0:
321,108,61465,2,0,L|242:122,1,68.7499999999999,2|10,0:2|0:2,0:0:0:0:
229,153,61894,5,6,0:2:0:0:
127,116,62322,2,0,L|54:106,1,68.7499999999999,10|2,0:0|0:0,0:0:0:0:
21,112,62751,1,2,0:0:0:0:
39,192,63037,2,0,L|18:306,2,103.125,6|10|0,0:0|0:0|0:0,0:0:0:0:
118,212,64180,6,0,P|167:234|221:209,1,103.125,6|8,0:0|0:2,0:0:0:0:
290,242,64894,2,0,P|339:220|393:245,2,103.125,2|2|8,0:0|0:1|0:2,0:0:0:0:
245,310,66037,1,2,0:2:0:0:
356,361,66465,6,0,L|465:345,1,103.125,6|8,0:2|0:0,0:0:0:0:
498,275,67180,2,0,P|483:243|489:198,1,68.7499999999999,2|8,0:1|0:0,0:0:0:0:
484,210,67608,2,0,P|503:166|473:109,1,103.125,2|8,0:0|0:0,0:0:0:0:
411,76,68322,1,10,0:2:0:0:
305,140,68751,6,0,B|270:160|270:160|206:143,1,103.125,6|10,0:0|0:2,0:0:0:0:
145,196,69465,1,10,0:2:0:0:
176,272,69751,1,10,0:2:0:0:
258,269,70037,2,0,L|325:279,2,68.7499999999999,10|10|8,0:2|0:2|0:1,0:0:0:0:
261,310,70751,2,0,B|274:383,1,68.7499999999999,8|6,0:1|0:1,0:0:0:0:
411,32,74465,6,0,P|403:82|396:124,1,82.4999999999999,6|8,0:0|0:3,0:0:0:0:
430,170,75180,2,0,P|468:168|514:182,2,82.4999999999999,2|4|2,0:0|0:0|0:3,0:0:0:0:
345,270,76608,1,2,0:3:0:0:
345,270,77180,2,0,B|285:277|302:312|249:318,1,110,2|8,0:3|0:0,0:0:0:0:
218,307,77894,6,0,L|203:219,1,82.4999999999999,6|10,0:0|0:0,0:0:0:0:
245,155,78608,2,0,L|248:96,1,54.9999999999999,8|8,0:3|0:3,0:0:0:0:
247,100,79037,2,0,P|281:79|393:139,1,176,6|6,0:2|0:0,0:0:0:0:
486,158,80608,5,2,0:0:0:0:
479,223,80894,1,2,0:0:0:0:
475,288,81180,1,2,0:0:0:0:
473,353,81465,2,0,P|437:342|388:365,1,82.4999999999999,2|2,0:0|0:0,0:0:0:0:
337,328,82180,1,2,0:0:0:0:
278,357,82465,6,0,B|241:368|241:368|195:353,1,82.4999999999999,2|2,0:0|0:0,0:0:0:0:
136,333,83180,2,0,L|130:270,1,54.9999999999999,2|0,0:0|0:0,0:0:0:0:
130,278,83608,2,0,L|138:193,1,82.4999999999999,6|8,0:0|0:3,0:0:0:0:
108,137,84322,1,2,0:0:0:0:
154,50,84751,6,0,P|194:40|231:55,1,82.4999999999999,6|2,0:0|0:0,0:0:0:0:
289,84,85465,1,2,0:0:0:0:
259,142,85751,1,2,0:0:0:0:
304,188,86037,2,0,L|395:172,1,82.4999999999999,2|10,0:0|0:0,0:0:0:0:
439,209,86751,1,10,0:0:0:0:
435,274,87037,6,0,P|402:299|359:293,1,82.4999999999999,10|2,0:0|0:0,0:0:0:0:
301,318,87751,2,0,L|235:331,1,54.9999999999999,2|8,0:0|0:3,0:0:0:0:
247,328,88180,2,0,L|160:319,1,82.4999999999999,6|8,0:0|0:3,0:0:0:0:
112,359,88894,1,10,0:0:0:0:
27,309,89322,6,0,P|14:273|50:207,1,103.125,6|10,0:0|0:0,0:0:0:0:
96,159,90037,1,2,0:0:0:0:
36,103,90322,1,10,0:0:0:0:
81,35,90608,2,0,L|153:29,1,68.7499999999999,2|10,0:0|0:0,0:0:0:0:
209,93,91180,2,0,L|285:103,1,68.7499999999999,0|8,0:0|0:0,0:0:0:0:
277,101,91608,6,0,B|313:121|313:121|380:107,1,103.125,6|10,0:2|0:0,0:0:0:0:
449,156,92322,2,0,L|427:231,1,68.7499999999999,2|8,0:0|0:0,0:0:0:0:
430,222,92751,2,0,P|385:214|302:340,1,206.25,2|2,0:0|0:0,0:0:0:0:
216,322,93894,6,0,L|108:310,1,103.125,6|10,0:0|0:0,0:0:0:0:
98,231,94608,2,0,B|33:241|33:241|-3:207,2,103.125,2|2|8,0:0|0:0|0:0,0:0:0:0:
152,171,95751,1,2,0:0:0:0:
152,171,96037,1,10,0:0:0:0:
234,165,96322,2,0,L|306:177,1,68.7499999999999,2|10,0:0|0:0,0:0:0:0:
380,145,96894,2,0,L|447:133,1,68.7499999999999,2|2,0:0|0:0,0:0:0:0:
448,134,97322,6,0,B|473:181|473:181|421:256|449:331,1,206.25,6|0,0:0|0:0,0:0:0:0:
377,368,98465,2,0,L|263:358,1,103.125,6|10,0:0|0:1,0:0:0:0:
224,293,99180,2,0,L|153:285,1,68.7499999999999,2|10,0:0|0:0,0:0:0:0:
167,204,99751,2,0,L|235:211,1,68.7499999999999,2|10,0:0|0:0,0:0:0:0:
275,139,100322,6,0,B|315:133|358:153|358:153|369:130|363:101,1,137.5,2|2,0:0|0:0,0:0:0:0:
330,25,101180,1,10,0:0:0:0:
250,41,101465,2,0,B|226:43|200:26|200:26|169:63|116:49,2,137.5,2|2|2,0:0|0:0|0:0,0:0:0:0:
203,155,103037,6,0,L|215:267,1,103.125,6|8,0:0|0:0,0:0:0:0:
270,316,103751,1,2,0:0:0:0:
335,266,104037,1,10,0:0:0:0:
400,314,104322,2,0,P|454:334|510:275,1,137.5,2|2,0:0|0:0,0:0:0:0:
447,178,105322,6,0,L|466:36,1,137.5,2|2,0:0|0:0,0:0:0:0:
391,6,106180,1,2,0:0:0:0:
332,62,106465,2,0,P|291:44|221:58,1,103.125,6|8,0:0|0:0,0:0:0:0:
179,112,107180,2,0,L|188:190,1,68.7499999999999,10|10,0:0|0:0,0:0:0:0:
173,210,107608,1,6,0:2:0:0:
62,336,116751,6,0,L|45:249,1,82.4999999999999,6|2,0:1|0:2,0:0:0:0:
75,201,117465,2,0,L|86:109,2,82.4999999999999,10|6|2,0:2|0:2|0:2,0:0:0:0:
126,233,118608,1,10,0:2:0:0:
204,278,119037,2,0,P|245:267|288:280,1,82.4999999999999,6|2,0:1|0:2,0:0:0:0:
328,316,119751,1,10,0:2:0:0:
403,266,120180,2,0,L|385:179,1,82.4999999999999,6|2,0:2|0:2,0:0:0:0:
423,137,120894,2,0,L|430:52,1,82.4999999999999,10|6,0:2|0:1,0:0:0:0:
350,10,121751,5,0,0:0:0:0:
305,51,122037,2,0,P|267:54|229:22,2,82.4999999999999,10|6|2,0:2|0:2|0:2,0:0:0:0:
343,98,123180,1,10,0:2:0:0:
275,158,123608,2,0,L|183:166,1,82.4999999999999,6|2,0:1|0:2,0:0:0:0:
150,207,124322,1,10,0:2:0:0:
64,176,124751,2,0,P|55:153|80:94,1,82.4999999999999,0|8,0:2|0:3,0:0:0:0:
121,64,125465,2,0,L|178:78,1,54.9999999999999,10|10,0:2|0:2,0:0:0:0:
174,77,125894,6,0,L|261:67,1,82.4999999999999,6|2,0:2|0:2,0:0:0:0:
305,102,126608,1,2,0:2:0:0:
354,66,126894,1,2,0:2:0:0:
405,98,127180,2,0,L|411:184,1,82.4999999999999,2|2,0:2|0:2,0:0:0:0:
417,240,127894,1,2,0:2:0:0:
383,286,128180,6,0,P|343:299|300:284,1,82.4999999999999,2|2,0:2|0:2,0:0:0:0:
254,255,128894,1,10,0:0:0:0:
186,315,129322,2,0,L|96:330,1,82.4999999999999,6|8,0:0|0:3,0:0:0:0:
45,312,130037,1,2,0:0:0:0:
85,230,130465,6,0,L|73:149,1,82.4999999999999,6|2,0:2|0:2,0:0:0:0:
95,92,131180,1,2,0:2:0:0:
153,106,131465,1,2,0:2:0:0:
191,58,131751,2,0,P|230:39|278:44,1,82.4999999999999,2|2,0:2|0:2,0:0:0:0:
313,80,132465,1,2,0:2:0:0:
291,136,132751,6,0,L|299:221,1,82.4999999999999,2|2,0:2|0:2,0:0:0:0:
338,263,133465,1,10,0:0:0:0:
423,232,133894,2,0,L|434:147,1,82.4999999999999,6|8,0:0|0:3,0:0:0:0:
479,110,134608,1,2,0:0:0:0:
416,37,135037,5,6,0:1:0:0:
416,37,136180,1,6,0:2:0:0:
416,37,137322,1,6,0:1:0:0:
416,37,138465,2,0,P|385:66|338:61,1,82.4999999999999,6|0,0:2|0:0,0:0:0:0:
293,35,139180,1,8,0:0:0:0:
228,104,139608,5,6,0:1:0:0:
228,104,140751,1,6,0:0:0:0:
228,104,141894,2,0,L|144:117,1,82.4999999999999,6|0,0:1|0:0,0:0:0:0:
99,154,142608,2,0,L|15:141,2,82.4999999999999,8|6|8,0:3|0:2|0:3,0:0:0:0:
141,196,143751,1,8,0:0:0:0:
241,152,144180,6,0,P|269:178|336:170,1,103.125,6|10,0:0|0:0,0:0:0:0:
395,125,144894,2,0,P|423:110|497:128,2,103.125,2|6|10,0:2|0:2|0:0,0:0:0:0:
330,77,146037,1,2,0:2:0:0:
217,35,146465,6,0,L|108:44,1,103.125,6|10,0:0|0:0,0:0:0:0:
58,102,147180,2,0,P|70:130|84:174,1,68.7499999999999,2|10,0:2|0:2,0:0:0:0:
81,166,147608,2,0,P|65:196|42:264,1,103.125,6|10,0:2|0:0,0:0:0:0:
72,335,148322,1,2,0:2:0:0:
186,296,148751,6,0,L|288:310,1,103.125,6|10,0:0|0:0,0:0:0:0:
358,270,149465,2,0,L|430:261,1,68.7499999999999,2|10,0:2|0:2,0:0:0:0:
426,261,149894,2,0,B|412:234|412:234|432:154,1,103.125,6|10,0:2|0:0,0:0:0:0:
458,88,150608,1,2,0:2:0:0:
349,34,151037,6,0,P|313:27|278:42,1,68.7499999999999,6|0,0:0|0:0,0:0:0:0:
283,37,151465,2,0,P|233:53|173:31,1,103.125,10|2,0:0|0:0,0:0:0:0:
111,71,152180,2,0,L|121:179,1,103.125,6|10,0:2|0:0,0:0:0:0:
79,242,152894,1,10,0:0:0:0:
161,329,153322,6,0,P|201:342|252:299,1,103.125,6|8,0:0|0:0,0:0:0:0:
222,233,154037,2,0,L|216:158,1,68.7499999999999,2|8,0:0|0:0,0:0:0:0:
216,164,154465,2,0,L|226:54,1,103.125,6|8,0:2|0:0,0:0:0:0:
295,21,155180,1,2,0:2:0:0:
389,95,155608,6,0,B|428:111|428:111|498:86,1,103.125,6|8,0:0|0:0,0:0:0:0:
508,167,156322,2,0,P|520:196|520:243,1,68.7499999999999,0|8,0:0|0:0,0:0:0:0:
499,266,156751,2,0,P|450:261|393:291,1,103.125,6|8,0:2|0:0,0:0:0:0:
353,346,157465,1,10,0:2:0:0:
262,266,157894,6,0,B|226:254|226:254|152:276,1,103.125,6|10,0:0|0:2,0:0:0:0:
95,230,158608,1,10,0:2:0:0:
139,163,158894,1,10,0:2:0:0:
109,83,159180,2,0,L|33:73,2,68.7499999999999,10|10|0,0:2|0:2|0:0,0:0:0:0:
109,83,159894,1,10,0:1:0:0:
183,30,160180,6,0,P|221:26|261:46,1,82.4999999999999,6|2,0:0|0:0,0:0:0:0:
302,87,160894,1,2,0:0:0:0:
265,136,161180,1,2,0:0:0:0:
305,185,161465,2,0,L|389:178,1,82.4999999999999,2|2,0:0|0:0,0:0:0:0:
440,214,162180,1,2,0:0:0:0:
423,276,162465,6,0,B|399:303|399:303|344:288,1,82.4999999999999,2|2,0:0|0:0,0:0:0:0:
305,332,163180,2,0,L|244:343,1,54.9999999999999,2|0,0:0|0:0,0:0:0:0:
250,341,163608,2,0,P|196:327|170:329,1,82.4999999999999,6|8,0:0|0:3,0:0:0:0:
113,358,164322,1,2,0:0:0:0:
37,297,164751,6,0,L|29:205,1,82.4999999999999,6|2,0:0|0:0,0:0:0:0:
69,163,165465,1,2,0:0:0:0:
26,114,165751,1,2,0:0:0:0:
56,57,166037,2,0,L|144:72,1,82.4999999999999,2|10,0:0|0:0,0:0:0:0:
199,55,166751,1,10,0:0:0:0:
240,103,167037,6,0,P|225:134|241:190,1,82.4999999999999,10|2,0:0|0:0,0:0:0:0:
296,195,167751,2,0,L|360:188,1,54.9999999999999,2|2,0:0|0:0,0:0:0:0:
350,189,168180,2,0,P|399:209|437:202,1,82.4999999999999,14|8,0:0|0:3,0:0:0:0:
480,167,168894,1,10,0:0:0:0:
510,258,169322,6,0,P|498:282|421:305,1,110,6|0,1:2|2:0,0:0:0:0:
394,291,170037,1,8,0:3:0:0:
313,343,170465,2,0,L|198:330,1,110,6|0,0:2|0:0,0:0:0:0:
