osu file format v14

[General]
AudioFilename: audio.mp3
AudioLeadIn: 0
PreviewTime: -1
Countdown: 1
SampleSet: None
StackLeniency: 0.4
Mode: 0
LetterboxInBreaks: 0
WidescreenStoryboard: 1

[Editor]
DistanceSpacing: 0.8
BeatDivisor: 2
GridSize: 32
TimelineZoom: 1

[Metadata]
Title:Turn Around
TitleUnicode:Turn Around
Artist:DROELOE
ArtistUnicode:DROELOE
Creator:Oeti
Version:not a big deal ( Medium )
Source:
Tags:Music
BeatmapID:1745527
BeatmapSetID:833304

[Difficulty]
HPDrainRate:1.5
CircleSize:3.1
OverallDifficulty:2.5
ApproachRate:2.3
SliderMultiplier:1.4
SliderTickRate:1

[Events]
//Background and Video events
//Break Periods
//Storyboard Layer 0 (Background)
//Storyboard Layer 1 (Fail)
//Storyboard Layer 2 (Pass)
//Storyboard Layer 3 (Foreground)
//Storyboard Sound Samples

[TimingPoints]
0,705.882352941176,4,2,0,34,1,0

[HitObjects]
128,93,705,5,0,0:0:0:0:
336,96,2470,1,0,0:0:0:0:
125,92,3882,1,0,0:0:0:0:
350,112,5294,1,0,0:0:0:0:
71,116,6705,1,0,0:0:0:0:
354,104,8117,1,0,0:0:0:0:
35,89,9529,5,0,0:0:0:0:
457,83,10941,1,0,0:0:0:0:
6,76,12705,1,0,0:0:0:0:
480,83,14470,1,0,0:0:0:0:
409,83,15529,5,0,0:0:0:0:
359,84,15882,1,0,0:0:0:0:
298,90,16235,1,0,0:0:0:0:
257,93,16941,1,0,0:0:0:0:
201,91,17294,1,0,0:0:0:0:
119,84,17999,5,0,0:0:0:0:
83,90,18352,1,0,0:0:0:0:
38,94,18705,1,0,0:0:0:0:
53,100,19764,1,0,0:0:0:0:
107,102,20117,1,0,0:0:0:0:
155,107,20823,1,0,0:0:0:0:
217,110,21176,5,0,0:0:0:0:
263,106,21529,1,0,0:0:0:0:
310,104,21882,1,0,0:0:0:0:
341,99,22235,1,0,0:0:0:0:
393,106,22941,5,0,0:0:0:0:
423,101,23294,1,0,0:0:0:0:
331,107,23647,1,0,0:0:0:0:
292,122,23999,1,0,0:0:0:0:
249,127,24352,1,0,0:0:0:0:
202,136,24705,1,0,0:0:0:0:
148,139,25058,1,0,0:0:0:0:
106,145,25411,1,0,0:0:0:0:
71,152,25764,1,0,0:0:0:0:
47,174,26470,5,0,0:0:0:0:
94,184,26823,1,0,0:0:0:0:
113,189,27176,1,0,0:0:0:0:
126,196,27529,1,0,0:0:0:0:
146,201,27882,1,0,0:0:0:0:
159,206,28235,1,0,0:0:0:0:
169,204,28588,1,0,0:0:0:0:
182,209,28941,1,0,0:0:0:0:
190,211,29294,1,0,0:0:0:0:
208,207,29647,1,0,0:0:0:0:
217,208,29999,1,0,0:0:0:0:
246,202,30352,1,0,0:0:0:0:
258,202,30705,1,0,0:0:0:0:
116,91,31058,5,0,0:0:0:0:
321,95,31411,1,0,0:0:0:0:
175,146,32117,1,0,0:0:0:0:
173,205,32470,1,0,0:0:0:0:
264,241,32823,1,0,0:0:0:0:
266,133,33176,1,0,0:0:0:0:
135,143,33529,1,0,0:0:0:0:
162,213,33882,1,0,0:0:0:0:
299,207,34235,1,0,0:0:0:0:
224,108,34941,5,0,0:0:0:0:
151,110,35294,1,0,0:0:0:0:
113,190,35647,1,0,0:0:0:0:
265,213,35999,1,0,0:0:0:0:
153,256,36352,1,0,0:0:0:0:
251,289,36705,1,0,0:0:0:0:
216,214,37058,1,0,0:0:0:0:
311,196,37411,1,0,0:0:0:0:
188,131,38117,5,0,0:0:0:0:
320,107,38470,1,0,0:0:0:0:
136,36,38823,1,0,0:0:0:0:
297,204,39176,1,0,0:0:0:0:
166,217,39529,1,0,0:0:0:0:
281,264,39882,1,0,0:0:0:0:
212,297,40235,1,0,0:0:0:0:
198,192,40941,5,0,0:0:0:0:
300,143,41294,1,0,0:0:0:0:
148,84,41647,1,0,0:0:0:0:
316,66,41999,1,0,0:0:0:0:
266,183,42352,5,0,0:0:0:0:
169,186,42705,1,0,0:0:0:0:
291,248,43058,1,0,0:0:0:0:
199,267,43411,1,0,0:0:0:0:
269,199,44117,5,0,0:0:0:0:
146,184,44470,1,0,0:0:0:0:
293,117,44823,1,0,0:0:0:0:
101,234,46235,2,0,L|309:102,1,210
239,255,47647,2,0,L|234:136,2,70
266,184,49764,2,0,L|162:176,1,70
264,227,52588,2,0,L|257:122,1,70
411,196,53647,2,0,L|216:191,1,140
249,246,55058,2,0,L|244:121,2,70
256,192,56823,12,0,59294,0:0:0:0:
220,75,59999,5,0,0:0:0:0:
322,81,60705,1,0,0:0:0:0:
197,135,61058,1,0,0:0:0:0:
282,142,61411,1,0,0:0:0:0:
193,183,61764,1,0,0:0:0:0:
258,188,62117,1,0,0:0:0:0:
217,220,62823,1,0,0:0:0:0:
253,234,63176,1,0,0:0:0:0:
159,209,63882,5,0,0:0:0:0:
265,198,64235,1,0,0:0:0:0:
191,181,64588,1,0,0:0:0:0:
267,164,64941,1,0,0:0:0:0:
178,137,65294,1,0,0:0:0:0:
268,106,65999,1,0,0:0:0:0:
173,60,66352,1,0,0:0:0:0:
238,58,66705,5,0,0:0:0:0:
162,104,67058,1,0,0:0:0:0:
260,112,67411,1,0,0:0:0:0:
182,154,67764,1,0,0:0:0:0:
249,165,68117,1,0,0:0:0:0:
197,188,68823,1,0,0:0:0:0:
276,202,69176,1,0,0:0:0:0:
132,190,70235,2,0,L|353:171,1,210
259,281,71999,2,0,L|242:47,1,210
108,113,73764,2,0,L|334:89,1,210
350,194,75882,2,0,L|49:180,1,280
256,192,77999,12,0,80117,0:0:0:0:
173,183,81529,6,0,L|386:176,1,210
216,295,83647,2,0,L|215:159,2,70
216,190,85058,2,0,L|155:113,2,70
233,172,86470,2,0,L|288:86,3,70
255,177,88588,2,0,L|364:167,2,70
