osu file format v14

[General]
AudioFilename: audio.mp3
AudioLeadIn: 0
PreviewTime: -1
Countdown: 1
SampleSet: Soft
StackLeniency: 0.9
Mode: 2
LetterboxInBreaks: 0
WidescreenStoryboard: 1

[Editor]
DistanceSpacing: 0.8
BeatDivisor: 16
GridSize: 32
TimelineZoom: 1

[Metadata]
Title:Turn Around
TitleUnicode:Turn Around
Artist:DROELOE
ArtistUnicode:DROELOE
Creator:Oeti
Version:TURN AROUND BOI!
Source:
Tags:Music
BeatmapID:1745529
BeatmapSetID:833304

[Difficulty]
HPDrainRate:5.5
CircleSize:6.5
OverallDifficulty:2.7
ApproachRate:10
SliderMultiplier:1.4
SliderTickRate:1

[Events]
//Background and Video events
//Break Periods
//Storyboard Layer 0 (Background)
//Storyboard Layer 1 (Fail)
//Storyboard Layer 2 (Pass)
//Storyboard Layer 3 (Foreground)
//Storyboard Sound Samples

[TimingPoints]
0,705.882352941176,4,2,0,34,1,0

[HitObjects]
70,107,882,5,0,0:0:0:0:
329,97,1985,1,0,0:0:0:0:
202,113,2338,1,0,0:0:0:0:
332,110,2558,1,0,0:0:0:0:
180,137,2823,1,0,0:0:0:0:
136,100,3661,5,0,0:0:0:0:
303,97,4014,1,0,0:0:0:0:
158,137,4367,1,0,0:0:0:0:
298,145,4676,1,0,0:0:0:0:
178,197,5029,1,0,0:0:0:0:
307,207,5294,1,0,0:0:0:0:
179,257,5647,1,0,0:0:0:0:
288,277,5955,1,0,0:0:0:0:
265,328,6485,5,0,0:0:0:0:
186,328,6749,1,0,0:0:0:0:
302,293,7058,1,0,0:0:0:0:
178,273,7367,1,0,0:0:0:0:
306,244,7632,1,0,0:0:0:0:
179,210,7941,1,0,0:0:0:0:
288,178,8249,1,0,0:0:0:0:
219,119,8823,5,0,0:0:0:0:
307,103,9088,1,0,0:0:0:0:
166,60,9352,1,0,0:0:0:0:
286,40,9617,1,0,0:0:0:0:
176,104,9926,1,0,0:0:0:0:
320,110,10191,1,0,0:0:0:0:
171,173,10499,1,0,0:0:0:0:
188,209,11073,5,0,0:0:0:0:
319,259,11338,1,0,0:0:0:0:
164,303,11602,1,0,0:0:0:0:
303,305,11867,1,0,0:0:0:0:
206,230,12176,1,0,0:0:0:0:
319,204,12485,1,0,0:0:0:0:
167,135,12794,1,0,0:0:0:0:
316,120,13147,1,0,0:0:0:0:
245,64,13588,5,0,0:0:0:0:
174,73,13985,1,0,0:0:0:0:
305,103,14426,1,0,0:0:0:0:
168,142,14779,1,0,0:0:0:0:
308,154,15088,1,0,0:0:0:0:
171,223,15441,1,0,0:0:0:0:
286,240,15794,1,0,0:0:0:0:
167,284,16102,1,0,0:0:0:0:
197,258,16941,5,0,0:0:0:0:
113,70,17514,1,0,0:0:0:0:
113,70,17602,1,0,0:0:0:0:
113,70,17691,1,0,0:0:0:0:
60,165,17955,1,0,0:0:0:0:
60,165,17999,1,0,0:0:0:0:
60,165,18044,1,0,0:0:0:0:
60,165,18132,1,0,0:0:0:0:
60,165,18176,1,0,0:0:0:0:
60,165,18220,1,0,0:0:0:0:
76,214,18529,1,0,0:0:0:0:
76,214,18573,1,0,0:0:0:0:
76,214,18617,1,0,0:0:0:0:
76,214,18705,1,0,0:0:0:0:
76,214,18749,1,0,0:0:0:0:
76,214,18794,1,0,0:0:0:0:
145,238,19058,1,0,0:0:0:0:
145,238,19102,1,0,0:0:0:0:
145,238,19191,1,0,0:0:0:0:
145,238,19279,1,0,0:0:0:0:
145,238,19323,1,0,0:0:0:0:
145,238,19367,1,0,0:0:0:0:
162,252,19411,1,0,0:0:0:0:
61,98,21044,1,0,0:0:0:0:
293,104,21441,1,0,0:0:0:0:
111,128,22014,5,0,0:0:0:0:
330,115,22323,1,0,0:0:0:0:
81,152,22632,1,0,0:0:0:0:
353,148,22985,1,0,0:0:0:0:
155,190,23294,1,0,0:0:0:0:
405,204,23558,1,0,0:0:0:0:
116,229,23735,1,0,0:0:0:0:
111,97,24573,5,0,0:0:0:0:
111,97,24617,1,0,0:0:0:0:
104,96,24661,1,0,0:0:0:0:
97,97,24705,1,0,0:0:0:0:
91,99,24749,1,0,0:0:0:0:
88,100,24794,1,0,0:0:0:0:
85,104,24838,1,0,0:0:0:0:
84,106,24882,1,0,0:0:0:0:
81,110,24926,1,0,0:0:0:0:
79,113,24970,1,0,0:0:0:0:
79,115,25014,1,0,0:0:0:0:
79,118,25058,1,0,0:0:0:0:
78,119,25102,1,0,0:0:0:0:
76,121,25147,1,0,0:0:0:0:
73,128,25235,1,0,0:0:0:0:
71,134,25279,1,0,0:0:0:0:
65,145,25323,1,0,0:0:0:0:
65,147,25367,1,0,0:0:0:0:
65,152,25411,1,0,0:0:0:0:
65,156,25455,1,0,0:0:0:0:
63,164,25499,1,0,0:0:0:0:
61,168,25544,1,0,0:0:0:0:
58,172,25588,1,0,0:0:0:0:
58,172,25632,1,0,0:0:0:0:
59,178,25676,1,0,0:0:0:0:
66,213,25720,5,0,0:0:0:0:
59,180,25720,1,0,0:0:0:0:
59,180,25764,1,0,0:0:0:0:
59,181,25808,1,0,0:0:0:0:
59,183,25852,1,0,0:0:0:0:
60,187,25897,1,0,0:0:0:0:
60,190,25941,1,0,0:0:0:0:
61,192,25985,1,0,0:0:0:0:
61,194,26029,1,0,0:0:0:0:
62,195,26073,1,0,0:0:0:0:
63,199,26117,1,0,0:0:0:0:
66,213,26205,1,0,0:0:0:0:
66,213,26514,1,0,0:0:0:0:
66,216,26558,1,0,0:0:0:0:
66,213,26558,1,0,0:0:0:0:
65,218,26602,1,0,0:0:0:0:
64,222,26647,1,0,0:0:0:0:
64,228,26691,1,0,0:0:0:0:
65,235,26735,1,0,0:0:0:0:
65,237,26779,1,0,0:0:0:0:
65,244,26823,1,0,0:0:0:0:
66,247,26867,1,0,0:0:0:0:
65,250,26911,1,0,0:0:0:0:
66,254,26955,1,0,0:0:0:0:
66,255,26999,1,0,0:0:0:0:
67,263,27044,1,0,0:0:0:0:
68,264,27088,1,0,0:0:0:0:
69,268,27132,1,0,0:0:0:0:
71,272,27176,1,0,0:0:0:0:
72,273,27220,1,0,0:0:0:0:
78,283,27264,1,0,0:0:0:0:
79,284,27308,1,0,0:0:0:0:
94,294,27352,1,0,0:0:0:0:
100,297,27397,1,0,0:0:0:0:
129,303,27441,1,0,0:0:0:0:
137,304,27485,1,0,0:0:0:0:
139,303,27529,1,0,0:0:0:0:
112,295,27617,5,0,0:0:0:0:
140,300,27749,1,0,0:0:0:0:
151,300,27794,1,0,0:0:0:0:
166,300,27838,1,0,0:0:0:0:
168,300,27882,1,0,0:0:0:0:
173,299,27926,1,0,0:0:0:0:
178,299,27970,1,0,0:0:0:0:
185,300,28014,1,0,0:0:0:0:
194,301,28058,1,0,0:0:0:0:
199,301,28102,1,0,0:0:0:0:
200,301,28147,1,0,0:0:0:0:
201,301,28191,1,0,0:0:0:0:
203,300,28235,1,0,0:0:0:0:
206,300,28279,1,0,0:0:0:0:
213,300,28323,1,0,0:0:0:0:
217,300,28367,1,0,0:0:0:0:
242,299,28632,1,0,0:0:0:0:
255,300,28676,1,0,0:0:0:0:
257,300,28720,1,0,0:0:0:0:
270,300,28764,1,0,0:0:0:0:
276,300,28808,1,0,0:0:0:0:
281,300,28852,1,0,0:0:0:0:
288,301,28897,1,0,0:0:0:0:
291,301,28941,1,0,0:0:0:0:
301,303,28985,1,0,0:0:0:0:
306,303,29029,1,0,0:0:0:0:
316,303,29073,1,0,0:0:0:0:
322,300,29117,1,0,0:0:0:0:
324,299,29161,1,0,0:0:0:0:
328,296,29205,1,0,0:0:0:0:
332,293,29249,1,0,0:0:0:0:
336,290,29294,1,0,0:0:0:0:
339,288,29338,1,0,0:0:0:0:
328,296,29382,5,0,0:0:0:0:
345,280,29382,1,0,0:0:0:0:
348,278,29426,1,0,0:0:0:0:
348,273,29470,1,0,0:0:0:0:
349,243,29823,1,0,0:0:0:0:
347,237,29867,1,0,0:0:0:0:
345,233,29911,1,0,0:0:0:0:
342,226,29955,1,0,0:0:0:0:
339,222,29999,1,0,0:0:0:0:
331,217,30044,1,0,0:0:0:0:
329,215,30088,1,0,0:0:0:0:
324,211,30132,1,0,0:0:0:0:
320,209,30176,1,0,0:0:0:0:
315,207,30220,1,0,0:0:0:0:
306,205,30264,1,0,0:0:0:0:
300,205,30308,1,0,0:0:0:0:
291,204,30352,1,0,0:0:0:0:
275,206,30397,1,0,0:0:0:0:
268,208,30441,1,0,0:0:0:0:
267,209,30485,1,0,0:0:0:0:
240,219,30661,1,0,0:0:0:0:
229,221,30882,1,0,0:0:0:0:
217,231,30970,1,0,0:0:0:0:
215,232,31014,1,0,0:0:0:0:
206,238,31058,1,0,0:0:0:0:
199,241,31102,1,0,0:0:0:0:
191,242,31147,1,0,0:0:0:0:
180,239,31191,1,0,0:0:0:0:
167,227,31235,1,0,0:0:0:0:
158,209,31279,1,0,0:0:0:0:
161,198,31367,1,0,0:0:0:0:
167,193,31411,1,0,0:0:0:0:
182,186,31455,1,0,0:0:0:0:
182,186,31499,5,0,0:0:0:0:
182,185,31499,1,0,0:0:0:0:
183,181,31499,1,0,0:0:0:0:
195,173,31808,1,0,0:0:0:0:
196,172,31852,1,0,0:0:0:0:
208,170,31897,1,0,0:0:0:0:
221,169,31941,1,0,0:0:0:0:
236,170,31985,1,0,0:0:0:0:
241,170,32029,1,0,0:0:0:0:
252,172,32073,1,0,0:0:0:0:
258,172,32117,1,0,0:0:0:0:
262,170,32161,1,0,0:0:0:0:
262,158,32205,1,0,0:0:0:0:
262,149,32249,1,0,0:0:0:0:
249,132,32294,1,0,0:0:0:0:
246,126,32338,1,0,0:0:0:0:
233,115,32426,1,0,0:0:0:0:
230,114,32470,1,0,0:0:0:0:
229,110,32514,1,0,0:0:0:0:
188,107,32955,1,0,0:0:0:0:
178,98,33044,1,0,0:0:0:0:
174,87,33088,1,0,0:0:0:0:
171,79,33132,1,0,0:0:0:0:
171,77,33176,1,0,0:0:0:0:
172,73,33220,1,0,0:0:0:0:
176,64,33264,1,0,0:0:0:0:
181,57,33308,1,0,0:0:0:0:
182,55,33352,1,0,0:0:0:0:
204,42,33397,1,0,0:0:0:0:
204,42,33441,1,0,0:0:0:0:
212,44,33485,1,0,0:0:0:0:
225,47,33529,1,0,0:0:0:0:
247,49,33573,1,0,0:0:0:0:
259,46,33617,1,0,0:0:0:0:
259,46,33661,1,0,0:0:0:0:
270,58,33705,1,0,0:0:0:0:
262,89,33794,1,0,0:0:0:0:
240,192,33838,5,0,0:0:0:0:
257,97,33838,1,0,0:0:0:0:
250,100,33882,1,0,0:0:0:0:
247,101,33926,1,0,0:0:0:0:
231,103,33970,1,0,0:0:0:0:
225,105,34014,1,0,0:0:0:0:
218,105,34058,1,0,0:0:0:0:
201,107,34102,1,0,0:0:0:0:
195,109,34147,1,0,0:0:0:0:
190,113,34191,1,0,0:0:0:0:
189,123,34235,1,0,0:0:0:0:
191,126,34279,1,0,0:0:0:0:
194,135,34323,1,0,0:0:0:0:
208,148,34367,1,0,0:0:0:0:
230,155,34455,1,0,0:0:0:0:
241,162,34499,1,0,0:0:0:0:
246,166,34544,1,0,0:0:0:0:
248,174,34588,1,0,0:0:0:0:
225,197,35161,1,0,0:0:0:0:
206,199,35205,1,0,0:0:0:0:
195,198,35249,1,0,0:0:0:0:
183,198,35294,1,0,0:0:0:0:
181,198,35338,1,0,0:0:0:0:
177,199,35382,1,0,0:0:0:0:
175,204,35426,1,0,0:0:0:0:
177,209,35470,1,0,0:0:0:0:
178,259,35514,5,0,0:0:0:0:
186,223,35514,1,0,0:0:0:0:
198,231,35558,1,0,0:0:0:0:
214,234,35602,1,0,0:0:0:0:
227,237,35647,1,0,0:0:0:0:
240,240,35691,1,0,0:0:0:0:
245,244,35735,1,0,0:0:0:0:
257,261,35779,1,0,0:0:0:0:
257,267,35823,1,0,0:0:0:0:
248,276,35867,1,0,0:0:0:0:
235,282,35911,1,0,0:0:0:0:
217,287,35955,1,0,0:0:0:0:
194,287,35999,1,0,0:0:0:0:
188,287,36044,1,0,0:0:0:0:
187,286,36088,1,0,0:0:0:0:
176,250,36573,1,0,0:0:0:0:
170,232,36617,1,0,0:0:0:0:
161,219,36661,1,0,0:0:0:0:
157,212,36705,1,0,0:0:0:0:
158,204,36749,1,0,0:0:0:0:
172,197,36794,1,0,0:0:0:0:
196,188,36838,1,0,0:0:0:0:
206,182,36882,1,0,0:0:0:0:
208,178,36926,1,0,0:0:0:0:
226,171,37014,1,0,0:0:0:0:
232,161,37058,1,0,0:0:0:0:
234,146,37102,1,0,0:0:0:0:
224,137,37147,1,0,0:0:0:0:
219,129,37191,1,0,0:0:0:0:
203,118,37235,1,0,0:0:0:0:
199,116,37279,1,0,0:0:0:0:
192,114,37323,1,0,0:0:0:0:
184,106,37367,5,0,0:0:0:0:
192,114,37367,1,0,0:0:0:0:
178,109,37411,1,0,0:0:0:0:
171,98,37455,1,0,0:0:0:0:
164,65,37941,1,0,0:0:0:0:
171,63,37985,1,0,0:0:0:0:
179,62,38029,1,0,0:0:0:0:
193,60,38073,1,0,0:0:0:0:
198,60,38117,1,0,0:0:0:0:
206,62,38161,1,0,0:0:0:0:
215,62,38205,1,0,0:0:0:0:
228,65,38249,1,0,0:0:0:0:
238,70,38294,1,0,0:0:0:0:
246,77,38338,1,0,0:0:0:0:
245,88,38382,1,0,0:0:0:0:
241,96,38426,1,0,0:0:0:0:
225,103,38470,1,0,0:0:0:0:
213,106,38514,1,0,0:0:0:0:
205,107,38558,1,0,0:0:0:0:
196,108,38602,1,0,0:0:0:0:
181,222,38779,5,0,0:0:0:0:
178,106,38955,1,0,0:0:0:0:
167,109,38999,1,0,0:0:0:0:
166,112,39044,1,0,0:0:0:0:
165,118,39088,1,0,0:0:0:0:
172,127,39132,1,0,0:0:0:0:
179,131,39176,1,0,0:0:0:0:
196,138,39220,1,0,0:0:0:0:
204,145,39264,1,0,0:0:0:0:
206,149,39308,1,0,0:0:0:0:
207,157,39352,1,0,0:0:0:0:
206,164,39397,1,0,0:0:0:0:
200,172,39441,1,0,0:0:0:0:
193,175,39485,1,0,0:0:0:0:
176,176,39529,1,0,0:0:0:0:
159,177,39573,1,0,0:0:0:0:
154,178,39617,1,0,0:0:0:0:
153,184,39661,1,0,0:0:0:0:
156,192,39705,1,0,0:0:0:0:
162,204,39749,1,0,0:0:0:0:
171,211,39794,1,0,0:0:0:0:
181,219,39838,1,0,0:0:0:0:
162,191,40058,5,0,0:0:0:0:
178,223,40235,1,0,0:0:0:0:
176,227,40279,1,0,0:0:0:0:
175,232,40323,1,0,0:0:0:0:
171,238,40367,1,0,0:0:0:0:
159,246,40411,1,0,0:0:0:0:
156,247,40455,1,0,0:0:0:0:
136,248,40499,1,0,0:0:0:0:
123,246,40544,1,0,0:0:0:0:
119,245,40588,1,0,0:0:0:0:
117,244,40632,1,0,0:0:0:0:
118,253,40676,1,0,0:0:0:0:
124,266,40720,1,0,0:0:0:0:
131,270,40764,1,0,0:0:0:0:
133,271,40808,1,0,0:0:0:0:
155,283,40852,1,0,0:0:0:0:
166,287,40897,1,0,0:0:0:0:
186,293,40941,1,0,0:0:0:0:
217,295,40985,1,0,0:0:0:0:
221,294,41029,1,0,0:0:0:0:
233,292,41073,1,0,0:0:0:0:
236,279,41117,1,0,0:0:0:0:
240,262,41426,1,0,0:0:0:0:
242,254,41470,1,0,0:0:0:0:
241,248,41514,1,0,0:0:0:0:
237,242,41558,1,0,0:0:0:0:
233,238,41602,1,0,0:0:0:0:
214,225,41647,1,0,0:0:0:0:
214,225,41691,1,0,0:0:0:0:
206,222,41735,1,0,0:0:0:0:
196,222,41779,1,0,0:0:0:0:
195,221,41823,1,0,0:0:0:0:
194,219,41867,1,0,0:0:0:0:
193,216,41911,1,0,0:0:0:0:
160,186,42352,1,0,0:0:0:0:
160,177,42397,1,0,0:0:0:0:
175,163,42485,1,0,0:0:0:0:
187,162,42529,1,0,0:0:0:0:
196,164,42573,1,0,0:0:0:0:
217,172,42661,1,0,0:0:0:0:
224,168,42705,1,0,0:0:0:0:
228,164,42749,1,0,0:0:0:0:
230,149,42794,1,0,0:0:0:0:
226,140,42838,1,0,0:0:0:0:
214,118,42882,1,0,0:0:0:0:
199,110,42926,1,0,0:0:0:0:
188,108,43014,1,0,0:0:0:0:
180,104,43058,1,0,0:0:0:0:
178,100,43102,1,0,0:0:0:0:
203,324,43499,5,0,0:0:0:0:
170,69,43720,1,0,0:0:0:0:
170,69,43764,1,0,0:0:0:0:
176,63,43808,1,0,0:0:0:0:
189,56,43852,1,0,0:0:0:0:
197,53,43897,1,0,0:0:0:0:
202,53,43941,1,0,0:0:0:0:
221,57,43985,1,0,0:0:0:0:
221,57,44029,1,0,0:0:0:0:
231,72,44073,1,0,0:0:0:0:
228,88,44117,1,0,0:0:0:0:
214,101,44205,1,0,0:0:0:0:
197,101,44249,1,0,0:0:0:0:
187,102,44294,1,0,0:0:0:0:
174,102,44338,1,0,0:0:0:0:
166,109,44382,1,0,0:0:0:0:
165,116,44426,1,0,0:0:0:0:
165,126,44470,1,0,0:0:0:0:
169,131,44514,1,0,0:0:0:0:
200,147,44558,1,0,0:0:0:0:
217,153,44602,1,0,0:0:0:0:
228,162,44647,1,0,0:0:0:0:
231,177,44735,1,0,0:0:0:0:
225,182,44779,1,0,0:0:0:0:
208,187,44867,1,0,0:0:0:0:
202,189,44911,1,0,0:0:0:0:
193,187,45573,1,0,0:0:0:0:
175,187,45617,1,0,0:0:0:0:
170,188,45661,1,0,0:0:0:0:
166,193,45705,1,0,0:0:0:0:
164,199,45749,1,0,0:0:0:0:
164,203,45794,1,0,0:0:0:0:
167,212,45838,1,0,0:0:0:0:
176,217,45882,1,0,0:0:0:0:
203,222,45926,1,0,0:0:0:0:
210,226,45970,1,0,0:0:0:0:
213,231,46014,1,0,0:0:0:0:
215,237,46058,1,0,0:0:0:0:
216,246,46102,1,0,0:0:0:0:
211,254,46147,1,0,0:0:0:0:
205,259,46191,1,0,0:0:0:0:
197,263,46235,1,0,0:0:0:0:
186,266,46279,1,0,0:0:0:0:
177,266,46323,1,0,0:0:0:0:
176,265,46367,1,0,0:0:0:0:
201,260,46588,1,0,0:0:0:0:
152,262,46764,1,0,0:0:0:0:
146,262,46808,1,0,0:0:0:0:
139,263,46852,1,0,0:0:0:0:
136,272,46897,1,0,0:0:0:0:
140,290,46985,1,0,0:0:0:0:
146,298,47029,1,0,0:0:0:0:
148,301,47073,1,0,0:0:0:0:
160,307,47117,1,0,0:0:0:0:
172,311,47161,1,0,0:0:0:0:
185,313,47205,1,0,0:0:0:0:
194,317,47249,1,0,0:0:0:0:
193,318,47294,1,0,0:0:0:0:
189,322,47338,1,0,0:0:0:0:
186,323,47382,1,0,0:0:0:0:
193,313,47779,5,0,0:0:0:0:
211,323,47955,1,0,0:0:0:0:
212,320,47999,1,0,0:0:0:0:
214,317,48044,1,0,0:0:0:0:
216,308,48088,1,0,0:0:0:0:
216,296,48132,1,0,0:0:0:0:
214,290,48176,1,0,0:0:0:0:
207,274,48220,1,0,0:0:0:0:
202,267,48264,1,0,0:0:0:0:
196,264,48308,1,0,0:0:0:0:
192,263,48352,1,0,0:0:0:0:
169,262,48397,1,0,0:0:0:0:
161,261,48441,1,0,0:0:0:0:
157,257,48485,1,0,0:0:0:0:
152,248,48529,1,0,0:0:0:0:
151,241,48573,1,0,0:0:0:0:
151,231,48617,1,0,0:0:0:0:
158,224,48661,1,0,0:0:0:0:
160,223,48705,1,0,0:0:0:0:
167,226,48749,1,0,0:0:0:0:
193,227,48794,1,0,0:0:0:0:
200,227,48838,1,0,0:0:0:0:
204,226,48882,1,0,0:0:0:0:
212,221,48926,1,0,0:0:0:0:
214,216,48970,1,0,0:0:0:0:
215,207,49014,1,0,0:0:0:0:
211,194,49058,1,0,0:0:0:0:
205,185,49102,1,0,0:0:0:0:
201,181,49147,1,0,0:0:0:0:
191,176,49191,1,0,0:0:0:0:
186,175,49235,1,0,0:0:0:0:
181,175,49279,1,0,0:0:0:0:
173,175,49323,1,0,0:0:0:0:
166,174,49367,1,0,0:0:0:0:
164,171,49411,1,0,0:0:0:0:
149,143,50205,1,0,0:0:0:0:
149,143,50249,1,0,0:0:0:0:
151,134,50294,1,0,0:0:0:0:
157,130,50338,1,0,0:0:0:0:
164,127,50382,1,0,0:0:0:0:
176,126,50426,1,0,0:0:0:0:
180,125,50470,1,0,0:0:0:0:
186,125,50514,1,0,0:0:0:0:
199,124,50558,1,0,0:0:0:0:
204,123,50602,1,0,0:0:0:0:
207,118,50647,1,0,0:0:0:0:
206,112,50691,1,0,0:0:0:0:
204,104,50735,1,0,0:0:0:0:
200,96,50779,1,0,0:0:0:0:
195,89,50823,1,0,0:0:0:0:
183,83,50867,1,0,0:0:0:0:
179,82,50911,1,0,0:0:0:0:
159,78,51617,1,0,0:0:0:0:
150,79,51661,1,0,0:0:0:0:
146,79,51705,1,0,0:0:0:0:
142,75,51749,1,0,0:0:0:0:
139,68,51794,1,0,0:0:0:0:
138,62,51838,1,0,0:0:0:0:
138,58,51882,1,0,0:0:0:0:
137,56,51926,1,0,0:0:0:0:
142,53,51970,1,0,0:0:0:0:
147,51,52014,1,0,0:0:0:0:
156,51,52058,1,0,0:0:0:0:
175,51,52102,1,0,0:0:0:0:
184,55,52147,1,0,0:0:0:0:
195,66,52191,1,0,0:0:0:0:
198,77,52235,1,0,0:0:0:0:
195,85,52279,1,0,0:0:0:0:
189,93,52323,1,0,0:0:0:0:
178,103,52367,1,0,0:0:0:0:
157,110,52411,1,0,0:0:0:0:
143,114,52455,1,0,0:0:0:0:
127,122,52499,1,0,0:0:0:0:
127,122,52544,1,0,0:0:0:0:
130,125,52588,5,0,0:0:0:0:
123,128,52588,1,0,0:0:0:0:
123,139,52632,1,0,0:0:0:0:
131,145,52676,1,0,0:0:0:0:
148,155,52720,1,0,0:0:0:0:
166,162,52764,1,0,0:0:0:0:
171,166,52808,1,0,0:0:0:0:
188,172,52852,1,0,0:0:0:0:
193,175,52897,1,0,0:0:0:0:
200,184,52941,1,0,0:0:0:0:
202,190,52985,1,0,0:0:0:0:
196,197,53029,1,0,0:0:0:0:
187,203,53117,1,0,0:0:0:0:
179,206,53161,1,0,0:0:0:0:
168,208,53205,1,0,0:0:0:0:
158,210,53249,1,0,0:0:0:0:
151,211,53294,1,0,0:0:0:0:
141,214,53338,1,0,0:0:0:0:
136,217,53382,1,0,0:0:0:0:
132,240,53470,1,0,0:0:0:0:
141,254,53514,1,0,0:0:0:0:
156,262,53558,1,0,0:0:0:0:
172,267,53602,1,0,0:0:0:0:
190,271,53647,1,0,0:0:0:0:
210,283,53691,1,0,0:0:0:0:
213,288,53735,1,0,0:0:0:0:
214,297,53779,1,0,0:0:0:0:
204,308,53823,1,0,0:0:0:0:
196,312,53867,1,0,0:0:0:0:
191,322,54529,1,0,0:0:0:0:
199,327,54573,1,0,0:0:0:0:
219,333,54617,1,0,0:0:0:0:
235,335,54661,1,0,0:0:0:0:
314,296,54705,5,0,0:0:0:0:
240,335,54749,1,0,0:0:0:0:
255,333,54794,1,0,0:0:0:0:
269,332,54838,1,0,0:0:0:0:
280,328,54882,1,0,0:0:0:0:
290,324,54926,1,0,0:0:0:0:
300,317,54970,1,0,0:0:0:0:
308,307,55014,1,0,0:0:0:0:
314,296,55058,1,0,0:0:0:0:
321,282,55102,1,0,0:0:0:0:
324,270,55147,1,0,0:0:0:0:
327,262,55191,1,0,0:0:0:0:
331,251,55235,1,0,0:0:0:0:
333,238,55279,1,0,0:0:0:0:
324,217,55323,1,0,0:0:0:0:
319,212,55367,1,0,0:0:0:0:
307,205,55411,1,0,0:0:0:0:
303,203,55455,1,0,0:0:0:0:
295,199,55499,1,0,0:0:0:0:
288,195,55544,1,0,0:0:0:0:
280,193,55588,1,0,0:0:0:0:
270,192,55632,1,0,0:0:0:0:
259,192,55676,1,0,0:0:0:0:
249,196,55720,1,0,0:0:0:0:
239,207,55764,1,0,0:0:0:0:
235,211,55808,1,0,0:0:0:0:
215,222,55852,1,0,0:0:0:0:
198,228,55897,1,0,0:0:0:0:
194,230,55941,1,0,0:0:0:0:
170,236,55985,1,0,0:0:0:0:
154,240,56029,1,0,0:0:0:0:
129,247,56073,1,0,0:0:0:0:
116,253,56117,1,0,0:0:0:0:
115,252,56161,1,0,0:0:0:0:
103,244,56205,1,0,0:0:0:0:
86,237,56249,1,0,0:0:0:0:
83,227,56294,1,0,0:0:0:0:
75,215,56338,1,0,0:0:0:0:
73,211,56382,1,0,0:0:0:0:
68,199,56426,1,0,0:0:0:0:
65,180,56470,1,0,0:0:0:0:
65,180,56514,1,0,0:0:0:0:
65,165,56558,1,0,0:0:0:0:
69,153,56602,1,0,0:0:0:0:
71,148,56647,1,0,0:0:0:0:
73,147,56691,1,0,0:0:0:0:
85,139,56735,1,0,0:0:0:0:
86,138,56779,1,0,0:0:0:0:
91,84,57044,5,0,0:0:0:0:
86,96,57264,1,0,0:0:0:0:
86,92,57308,1,0,0:0:0:0:
86,88,57352,1,0,0:0:0:0:
87,82,57397,1,0,0:0:0:0:
92,74,57441,1,0,0:0:0:0:
97,68,57485,1,0,0:0:0:0:
104,61,57529,1,0,0:0:0:0:
108,57,57573,1,0,0:0:0:0:
116,52,57617,1,0,0:0:0:0:
125,48,57661,1,0,0:0:0:0:
130,46,57705,1,0,0:0:0:0:
138,44,57749,1,0,0:0:0:0:
146,42,57794,1,0,0:0:0:0:
147,42,57838,1,0,0:0:0:0:
165,42,57882,1,0,0:0:0:0:
176,45,57926,1,0,0:0:0:0:
181,47,57970,1,0,0:0:0:0:
192,55,58014,1,0,0:0:0:0:
196,62,58058,1,0,0:0:0:0:
200,71,58147,1,0,0:0:0:0:
200,87,58191,1,0,0:0:0:0:
198,94,58235,1,0,0:0:0:0:
189,111,58279,1,0,0:0:0:0:
185,115,58323,1,0,0:0:0:0:
178,120,58367,1,0,0:0:0:0:
172,124,58411,1,0,0:0:0:0:
163,128,58455,1,0,0:0:0:0:
155,132,58499,1,0,0:0:0:0:
134,140,58544,1,0,0:0:0:0:
119,145,58588,1,0,0:0:0:0:
106,151,58632,1,0,0:0:0:0:
98,158,58676,1,0,0:0:0:0:
80,176,58720,1,0,0:0:0:0:
76,186,58764,1,0,0:0:0:0:
78,193,58808,1,0,0:0:0:0:
85,206,58852,1,0,0:0:0:0:
93,213,58897,1,0,0:0:0:0:
109,223,58941,1,0,0:0:0:0:
126,232,58985,1,0,0:0:0:0:
148,240,59029,1,0,0:0:0:0:
183,245,59073,1,0,0:0:0:0:
188,246,59117,1,0,0:0:0:0:
207,247,59161,1,0,0:0:0:0:
221,242,59205,1,0,0:0:0:0:
251,165,59823,1,0,0:0:0:0:
251,156,59867,1,0,0:0:0:0:
247,141,59911,1,0,0:0:0:0:
244,130,59955,1,0,0:0:0:0:
236,111,59999,1,0,0:0:0:0:
224,96,60044,1,0,0:0:0:0:
218,92,60088,1,0,0:0:0:0:
208,87,60132,1,0,0:0:0:0:
201,84,60176,1,0,0:0:0:0:
194,81,60220,1,0,0:0:0:0:
186,81,60264,1,0,0:0:0:0:
151,105,60308,5,0,0:0:0:0:
175,83,60308,1,0,0:0:0:0:
162,88,60352,1,0,0:0:0:0:
156,92,60397,1,0,0:0:0:0:
151,98,60441,1,0,0:0:0:0:
147,102,60485,1,0,0:0:0:0:
148,110,60529,1,0,0:0:0:0:
151,115,60573,1,0,0:0:0:0:
176,132,60617,1,0,0:0:0:0:
201,143,60661,1,0,0:0:0:0:
216,149,60705,1,0,0:0:0:0:
227,157,60749,1,0,0:0:0:0:
230,165,60794,1,0,0:0:0:0:
238,186,60838,1,0,0:0:0:0:
242,205,60882,1,0,0:0:0:0:
243,212,60926,1,0,0:0:0:0:
243,212,60970,1,0,0:0:0:0:
243,212,61014,1,0,0:0:0:0:
98,83,62294,1,0,0:0:0:0:
291,83,62735,1,0,0:0:0:0:
143,110,63132,1,0,0:0:0:0:
302,115,63529,1,0,0:0:0:0:
18,57,63970,1,0,0:0:0:0:
452,67,64323,1,0,0:0:0:0:
379,288,64632,1,0,0:0:0:0:
158,289,65029,1,0,0:0:0:0:
86,94,65426,1,0,0:0:0:0:
416,95,65735,1,0,0:0:0:0:
159,202,65911,1,0,0:0:0:0:
389,295,66088,1,0,0:0:0:0:
168,303,66264,1,0,0:0:0:0:
111,188,67455,2,0,L|404:179,1,288.75
246,193,69352,2,0,L|221:151,2,43.75
256,186,70191,2,0,L|281:137,1,52.5
261,178,71073,2,0,L|185:175,1,70
268,185,71779,2,0,L|256:215,2,26.25
259,172,72529,2,0,L|311:178,1,52.5
259,178,73191,2,0,L|253:155,3,17.5
254,177,73985,2,0,L|215:154,1,43.75
257,182,74647,2,0,L|298:159,1,43.75
265,182,75264,2,0,L|290:207,2,35
266,188,75970,2,0,L|247:208,2,26.25
269,191,76588,2,0,L|249:171,2,26.25
270,183,77117,2,0,L|275:156,2,26.25
266,188,77691,2,0,L|295:180,2,26.25
259,188,78264,2,0,P|286:219|258:188,1,166.25
242,190,80338,2,0,L|221:155,2,35
259,193,80999,2,0,L|288:164,2,35
261,196,81705,2,0,L|280:233,2,35
260,191,82323,2,0,L|236:212,2,26.25
259,198,83029,2,0,L|234:154,1,43.75
258,194,83647,2,0,L|280:173,2,26.25
275,197,84264,2,0,L|305:226,2,35
250,195,85676,6,0,L|224:157,2,43.75
246,190,86338,2,0,L|289:156,2,52.5
261,194,86999,2,0,L|288:229,2,43.75
248,192,87749,2,0,L|219:218,2,35
249,189,88499,2,0,L|218:155,1,43.75
254,197,89073,2,0,L|271:160,2,35
247,207,89735,2,0,P|281:236|247:199,1,192.5
