osu file format v14

[General]
AudioFilename: audio.mp3
AudioLeadIn: 0
PreviewTime: 40395
Countdown: 0
SampleSet: Normal
StackLeniency: 0.7
Mode: 1
LetterboxInBreaks: 0
WidescreenStoryboard: 1

[Editor]
Bookmarks: 10079,20184,40395,60605,80816,101026,121237
DistanceSpacing: 1.3
BeatDivisor: 4
GridSize: 32
TimelineZoom: 2.999999

[Metadata]
Title:just a moment
TitleUnicode:just a moment
Artist:DREAMWARE
ArtistUnicode:DREAMWARE
Creator:Dekovner
Version:Nozdormu's Futsuu
Source:
Tags:lunacore dariacore moment hyperflip vierre cloud ulko ulqui nozdormu erowdi electronic english frou a new kind of love randelman4ik katagiri k_a_t_a_g_i_r_i albionshallah lildeath lil death Imogen Heap Guy Sigsworth
BeatmapID:4113659
BeatmapSetID:1976706

[Difficulty]
HPDrainRate:7
CircleSize:3.8
OverallDifficulty:4
ApproachRate:9.4
SliderMultiplier:1.4
SliderTickRate:1

[Events]
//Background and Video events
0,0,"103538739_p0_waifu2x_art_noise21.jpg",0,0
//Break Periods
//Storyboard Layer 0 (Background)
//Storyboard Layer 1 (Fail)
//Storyboard Layer 2 (Pass)
//Storyboard Layer 3 (Foreground)
//Storyboard Layer 4 (Overlay)
//Storyboard Sound Samples

[TimingPoints]
-23,315.789473684211,4,1,0,100,1,0
2503,-100,4,1,0,50,0,0
10003,-100,4,1,0,80,0,0
20029,-94.3396226415094,4,1,0,100,0,0
20187,-94.3396226415094,4,1,0,100,0,1
38503,-94.3396226415094,4,1,0,100,0,0
38661,-96.1538461538461,4,1,0,80,0,0
39440,-98.0392156862745,4,1,0,80,0,0
39598,-99.009900990099,4,1,0,80,0,0
39756,-100,4,1,0,80,0,0
40240,-94.3396226415094,4,1,0,100,0,0
40398,-94.3396226415094,4,1,0,100,0,1
58713,-94.3396226415094,4,1,0,100,0,0
58871,-95.2380952380952,4,1,0,80,0,0
59177,-96.1538461538461,4,1,0,80,0,0
59335,-97.0873786407767,4,1,0,80,0,0
59651,-98.0392156862745,4,1,0,80,0,0
59809,-99.009900990099,4,1,0,80,0,0
59967,-100,4,1,0,80,0,0
60450,-100,4,1,0,60,0,0
71345,-100,4,1,0,70,0,0
80661,-94.3396226415094,4,1,0,100,0,0
80819,-94.3396226415094,4,1,0,100,0,1
99766,-94.3396226415094,4,1,0,100,0,0
99924,-94.3396226415094,4,1,0,20,0,0
100871,-94.3396226415094,4,1,0,100,0,0
101029,-94.3396226415094,4,1,0,100,0,1
119977,-94.3396226415094,4,1,0,100,0,0
120608,-90.9090909090909,4,1,0,100,0,0

[HitObjects]
256,192,3766,12,0,9924,0:0:0:0:
169,156,10082,5,12,0:0:0:0:
169,156,10398,1,8,0:0:0:0:
173,162,10555,1,0,0:0:0:0:
170,166,10871,1,0,0:0:0:0:
165,166,11029,1,8,0:0:0:0:
165,167,11345,1,0,0:0:0:0:
164,164,11661,1,8,0:0:0:0:
165,166,11977,1,0,0:0:0:0:
165,167,12134,1,0,0:0:0:0:
156,170,12292,1,0,0:0:0:0:
152,176,12608,1,8,0:0:0:0:
155,174,12924,1,0,0:0:0:0:
158,172,13082,1,8,0:0:0:0:
152,176,13555,1,0,0:0:0:0:
155,174,13871,1,8,0:0:0:0:
153,176,14029,1,8,0:0:0:0:
152,176,14345,1,0,0:0:0:0:
152,176,14503,1,0,0:0:0:0:
152,176,15134,1,8,0:0:0:0:
152,176,15450,1,0,0:0:0:0:
152,176,15608,1,8,0:0:0:0:
152,176,15766,1,0,0:0:0:0:
152,176,15924,1,0,0:0:0:0:
152,176,16082,1,8,0:0:0:0:
152,176,16398,1,0,0:0:0:0:
152,176,16713,1,8,0:0:0:0:
152,176,16871,1,8,0:0:0:0:
146,177,17029,1,0,0:0:0:0:
152,176,17345,1,0,0:0:0:0:
158,178,17661,1,8,0:0:0:0:
152,176,17819,1,0,0:0:0:0:
152,176,18134,1,0,0:0:0:0:
158,178,18450,1,8,0:0:0:0:
158,178,18608,1,8,0:0:0:0:
161,178,18924,1,0,0:0:0:0:
158,178,19240,1,0,0:0:0:0:
158,178,19555,1,0,0:0:0:0:
158,178,20187,1,4,0:0:0:0:
158,178,20424,1,0,0:0:0:0:
158,178,20661,1,0,0:0:0:0:
158,178,20819,1,8,0:0:0:0:
158,178,21134,1,0,0:0:0:0:
158,178,21450,1,8,0:0:0:0:
158,178,21687,1,8,0:0:0:0:
158,178,21924,1,8,0:0:0:0:
158,178,22082,1,0,0:0:0:0:
158,178,22398,1,8,0:0:0:0:
158,178,22713,1,0,0:0:0:0:
158,178,22871,1,0,0:0:0:0:
158,178,23029,1,0,0:0:0:0:
158,178,23345,1,8,0:0:0:0:
158,178,23661,1,0,0:0:0:0:
158,178,23819,1,0,0:0:0:0:
158,178,24292,1,8,0:0:0:0:
161,172,24450,1,8,0:0:0:0:
167,176,24608,1,0,0:0:0:0:
166,177,25240,1,4,0:0:0:0:
167,176,25477,1,8,0:0:0:0:
166,177,25713,1,8,0:0:0:0:
166,177,25871,1,0,0:0:0:0:
166,177,26187,1,0,0:0:0:0:
166,177,26503,1,8,0:0:0:0:
166,177,26740,1,0,0:0:0:0:
166,177,26977,1,0,0:0:0:0:
166,177,27134,1,8,0:0:0:0:
166,177,27450,1,8,0:0:0:0:
166,177,27766,1,0,0:0:0:0:
166,177,27924,1,0,0:0:0:0:
166,177,28082,1,0,0:0:0:0:
166,177,28398,1,8,0:0:0:0:
166,177,28713,1,8,0:0:0:0:
166,177,28871,1,8,0:0:0:0:
166,177,29345,1,0,0:0:0:0:
166,177,29503,1,0,0:0:0:0:
166,177,29661,1,8,0:0:0:0:
166,177,30292,1,4,0:0:0:0:
166,177,30529,1,0,0:0:0:0:
166,177,30766,1,0,0:0:0:0:
166,177,30924,1,8,0:0:0:0:
166,177,31240,1,0,0:0:0:0:
166,177,31555,1,8,0:0:0:0:
166,177,31792,1,8,0:0:0:0:
166,177,32029,1,8,0:0:0:0:
166,177,32187,1,0,0:0:0:0:
166,177,32503,1,8,0:0:0:0:
166,177,32819,1,0,0:0:0:0:
166,177,32977,1,0,0:0:0:0:
166,177,33134,1,0,0:0:0:0:
166,177,33450,1,8,0:0:0:0:
166,177,33766,1,0,0:0:0:0:
166,177,33924,1,0,0:0:0:0:
166,177,34398,1,8,0:0:0:0:
166,177,34555,1,8,0:0:0:0:
166,177,34713,1,0,0:0:0:0:
166,177,35345,1,4,0:0:0:0:
166,177,35582,1,8,0:0:0:0:
166,177,35819,1,8,0:0:0:0:
166,177,35977,1,0,0:0:0:0:
166,177,36292,1,0,0:0:0:0:
166,177,36608,1,8,0:0:0:0:
166,177,36845,1,0,0:0:0:0:
166,177,37082,1,0,0:0:0:0:
166,177,37240,1,8,0:0:0:0:
166,177,37555,1,8,0:0:0:0:
166,177,37871,1,4,0:0:0:0:
166,177,38029,1,4,0:0:0:0:
166,177,38187,1,4,0:0:0:0:
166,177,38503,1,4,0:0:0:0:
166,177,38977,1,8,0:0:0:0:
166,177,39450,1,0,0:0:0:0:
166,177,39608,1,0,0:0:0:0:
166,177,39766,1,8,0:0:0:0:
166,177,40398,1,4,0:0:0:0:
166,177,40634,1,0,0:0:0:0:
166,177,40871,1,0,0:0:0:0:
166,177,41029,1,8,0:0:0:0:
166,177,41345,1,0,0:0:0:0:
166,177,41661,1,8,0:0:0:0:
166,177,41898,1,8,0:0:0:0:
166,177,42134,1,8,0:0:0:0:
166,177,42292,1,0,0:0:0:0:
166,177,42608,1,8,0:0:0:0:
166,177,42924,1,0,0:0:0:0:
166,177,43082,1,0,0:0:0:0:
166,177,43240,1,0,0:0:0:0:
166,177,43555,1,8,0:0:0:0:
166,177,43871,1,0,0:0:0:0:
166,177,44029,1,0,0:0:0:0:
166,177,44503,1,8,0:0:0:0:
166,177,44661,1,8,0:0:0:0:
166,177,44819,1,0,0:0:0:0:
166,177,45450,1,4,0:0:0:0:
166,177,45687,1,8,0:0:0:0:
166,177,45924,1,8,0:0:0:0:
165,182,46082,1,0,0:0:0:0:
166,177,46398,1,0,0:0:0:0:
164,183,46713,1,8,0:0:0:0:
165,182,46950,1,0,0:0:0:0:
165,183,47187,1,0,0:0:0:0:
166,185,47345,1,8,0:0:0:0:
164,183,47661,1,8,0:0:0:0:
165,183,47977,1,0,0:0:0:0:
165,183,48134,1,0,0:0:0:0:
166,185,48292,1,0,0:0:0:0:
164,183,48608,1,8,0:0:0:0:
165,183,48924,1,8,0:0:0:0:
165,183,49082,1,8,0:0:0:0:
164,183,49555,1,0,0:0:0:0:
165,183,49713,1,0,0:0:0:0:
165,183,49871,1,8,0:0:0:0:
166,177,50503,1,4,0:0:0:0:
166,177,50740,1,0,0:0:0:0:
166,177,50977,1,0,0:0:0:0:
166,177,51134,1,8,0:0:0:0:
166,177,51450,1,0,0:0:0:0:
166,177,51766,1,8,0:0:0:0:
166,177,52003,1,8,0:0:0:0:
166,177,52240,1,8,0:0:0:0:
166,177,52398,1,0,0:0:0:0:
166,177,52713,1,8,0:0:0:0:
166,177,53029,1,0,0:0:0:0:
166,177,53187,1,0,0:0:0:0:
166,177,53345,1,0,0:0:0:0:
166,177,53661,1,8,0:0:0:0:
166,177,53977,1,0,0:0:0:0:
166,177,54134,1,0,0:0:0:0:
166,177,54608,1,8,0:0:0:0:
166,177,54766,1,8,0:0:0:0:
166,177,54924,1,0,0:0:0:0:
166,177,55555,1,4,0:0:0:0:
166,177,55792,1,8,0:0:0:0:
166,177,56029,1,8,0:0:0:0:
165,182,56187,1,0,0:0:0:0:
166,177,56503,1,0,0:0:0:0:
164,183,56819,1,8,0:0:0:0:
165,182,57055,1,0,0:0:0:0:
165,183,57292,1,0,0:0:0:0:
166,185,57450,1,8,0:0:0:0:
164,183,57766,1,8,0:0:0:0:
165,183,58082,1,4,0:0:0:0:
165,183,58240,1,4,0:0:0:0:
166,185,58398,1,4,0:0:0:0:
164,183,58713,1,4,0:0:0:0:
165,183,59029,1,8,0:0:0:0:
165,183,59187,1,8,0:0:0:0:
164,183,59661,1,0,0:0:0:0:
165,183,59819,1,0,0:0:0:0:
165,183,59977,1,8,0:0:0:0:
164,183,60608,1,4,0:0:0:0:
160,176,61398,1,0,0:0:0:0:
160,176,61555,1,8,0:0:0:0:
161,178,61871,1,8,0:0:0:0:
160,176,62187,1,0,0:0:0:0:
161,178,62661,1,8,0:0:0:0:
161,178,62819,1,8,0:0:0:0:
161,182,63134,1,0,0:0:0:0:
161,178,63450,1,8,0:0:0:0:
161,178,63608,1,0,0:0:0:0:
161,182,63924,1,0,0:0:0:0:
167,176,64082,1,8,0:0:0:0:
161,178,64398,1,8,0:0:0:0:
167,182,64713,1,0,0:0:0:0:
168,180,64871,1,8,0:0:0:0:
167,182,65187,1,0,0:0:0:0:
167,182,65345,1,0,0:0:0:0:
167,182,65661,1,0,0:0:0:0:
167,182,66450,1,0,0:0:0:0:
167,182,66608,1,8,0:0:0:0:
167,182,66924,1,8,0:0:0:0:
167,182,67240,1,0,0:0:0:0:
167,182,67713,1,8,0:0:0:0:
167,182,67871,1,0,0:0:0:0:
167,182,68187,1,0,0:0:0:0:
167,182,68503,1,8,0:0:0:0:
167,182,68661,1,0,0:0:0:0:
167,182,68977,1,0,0:0:0:0:
167,182,69134,1,8,0:0:0:0:
167,182,69450,1,8,0:0:0:0:
167,182,69766,1,8,0:0:0:0:
167,182,69924,1,8,0:0:0:0:
167,182,70082,1,0,0:0:0:0:
167,182,70240,1,0,0:0:0:0:
160,181,70398,1,8,0:0:0:0:
136,159,70713,1,0,0:0:0:0:
170,162,71503,1,0,0:0:0:0:
170,162,71661,1,8,0:0:0:0:
170,162,71977,1,0,0:0:0:0:
175,163,72292,1,8,0:0:0:0:
170,162,72608,1,8,0:0:0:0:
170,162,72766,1,0,0:0:0:0:
170,162,72924,1,8,0:0:0:0:
168,159,73240,1,0,0:0:0:0:
170,162,73555,1,8,0:0:0:0:
170,162,73713,1,0,0:0:0:0:
168,165,74029,1,8,0:0:0:0:
168,164,74187,1,8,0:0:0:0:
170,162,74503,1,0,0:0:0:0:
171,160,74819,1,8,0:0:0:0:
170,162,75450,1,8,0:0:0:0:
171,160,75766,1,0,0:0:0:0:
166,157,76082,1,8,0:0:0:0:
162,155,76555,1,0,0:0:0:0:
163,158,76713,1,8,0:0:0:0:
166,157,77029,1,0,0:0:0:0:
168,154,77345,1,0,0:0:0:0:
163,158,77661,1,8,0:0:0:0:
166,157,77819,1,8,0:0:0:0:
157,166,77977,1,0,0:0:0:0:
168,154,78292,1,0,0:0:0:0:
171,163,78608,1,8,0:0:0:0:
171,163,78766,1,8,0:0:0:0:
178,164,79082,1,0,0:0:0:0:
178,164,79240,1,0,0:0:0:0:
177,162,79555,1,8,0:0:0:0:
178,164,79871,1,8,0:0:0:0:
178,164,80187,1,8,0:0:0:0:
183,166,80819,1,4,0:0:0:0:
178,164,81134,1,4,0:0:0:0:
183,166,81450,1,8,0:0:0:0:
183,166,81687,1,8,0:0:0:0:
178,164,81924,1,8,0:0:0:0:
186,169,82082,1,0,0:0:0:0:
189,165,82398,1,0,0:0:0:0:
187,164,82713,1,8,0:0:0:0:
186,169,82950,1,0,0:0:0:0:
189,165,83187,1,0,0:0:0:0:
189,165,83345,1,8,0:0:0:0:
194,164,83819,1,0,0:0:0:0:
181,162,84134,1,0,0:0:0:0:
178,163,84292,1,8,0:0:0:0:
180,163,84450,1,8,0:0:0:0:
182,168,84608,1,0,0:0:0:0:
171,164,84924,1,0,0:0:0:0:
178,163,85240,1,8,0:0:0:0:
178,164,85871,1,4,0:0:0:0:
178,163,86187,1,4,0:0:0:0:
178,164,86503,1,8,0:0:0:0:
178,164,86740,1,0,0:0:0:0:
175,167,86977,1,0,0:0:0:0:
172,167,87134,1,8,0:0:0:0:
172,169,87450,1,8,0:0:0:0:
165,171,87766,1,0,0:0:0:0:
166,173,88003,1,0,0:0:0:0:
166,173,88240,1,0,0:0:0:0:
164,172,88398,1,8,0:0:0:0:
166,173,88871,1,0,0:0:0:0:
166,173,89187,1,8,0:0:0:0:
164,172,89345,1,0,0:0:0:0:
165,171,89503,1,0,0:0:0:0:
165,171,89661,1,8,0:0:0:0:
166,173,89977,1,8,0:0:0:0:
164,172,90292,1,8,0:0:0:0:
183,166,90924,1,4,0:0:0:0:
178,164,91240,1,4,0:0:0:0:
183,166,91555,1,8,0:0:0:0:
183,166,91792,1,8,0:0:0:0:
178,164,92029,1,8,0:0:0:0:
186,169,92187,1,0,0:0:0:0:
189,165,92503,1,0,0:0:0:0:
187,164,92819,1,8,0:0:0:0:
186,169,93055,1,0,0:0:0:0:
189,165,93292,1,0,0:0:0:0:
189,165,93450,1,8,0:0:0:0:
194,164,93924,1,0,0:0:0:0:
181,162,94240,1,0,0:0:0:0:
178,163,94398,1,8,0:0:0:0:
180,163,94555,1,8,0:0:0:0:
182,168,94713,1,0,0:0:0:0:
171,164,95029,1,0,0:0:0:0:
178,163,95345,1,8,0:0:0:0:
178,164,95977,1,4,0:0:0:0:
178,163,96292,1,4,0:0:0:0:
178,164,96608,1,8,0:0:0:0:
178,164,96845,1,0,0:0:0:0:
175,167,97082,1,0,0:0:0:0:
172,167,97240,1,8,0:0:0:0:
172,169,97555,1,8,0:0:0:0:
165,171,97871,1,0,0:0:0:0:
166,173,98108,1,0,0:0:0:0:
166,173,98345,1,0,0:0:0:0:
164,172,98503,1,8,0:0:0:0:
166,173,98977,1,0,0:0:0:0:
166,173,99292,1,8,0:0:0:0:
164,172,99450,1,0,0:0:0:0:
165,171,99608,1,0,0:0:0:0:
165,171,99766,1,8,0:0:0:0:
141,149,101029,1,4,0:0:0:0:
141,149,101266,1,8,0:0:0:0:
141,149,101661,1,8,0:0:0:0:
136,144,101898,1,0,0:0:0:0:
141,149,102292,1,0,0:0:0:0:
133,148,102529,1,8,0:0:0:0:
141,149,102924,1,0,0:0:0:0:
141,149,103240,1,8,0:0:0:0:
140,150,103398,1,8,0:0:0:0:
133,146,103555,1,4,0:0:0:0:
126,144,103792,1,0,0:0:0:0:
123,149,104187,1,8,0:0:0:0:
126,147,104424,1,8,0:0:0:0:
123,149,104819,1,0,0:0:0:0:
123,149,105055,1,0,0:0:0:0:
123,149,105450,1,8,0:0:0:0:
123,149,106082,1,4,0:0:0:0:
123,149,106319,1,8,0:0:0:0:
123,149,106713,1,8,0:0:0:0:
123,149,106950,1,0,0:0:0:0:
123,149,107345,1,0,0:0:0:0:
123,149,107582,1,8,0:0:0:0:
123,149,107977,1,8,0:0:0:0:
123,149,108292,1,0,0:0:0:0:
123,149,108450,1,0,0:0:0:0:
123,149,108608,1,12,0:0:0:0:
123,149,108845,1,8,0:0:0:0:
123,149,109240,1,0,0:0:0:0:
123,149,109477,1,0,0:0:0:0:
123,149,109871,1,8,0:0:0:0:
123,149,110108,1,8,0:0:0:0:
123,149,110503,1,8,0:0:0:0:
141,149,111134,1,4,0:0:0:0:
141,149,111371,1,8,0:0:0:0:
141,149,111766,1,8,0:0:0:0:
136,144,112003,1,0,0:0:0:0:
141,149,112398,1,0,0:0:0:0:
133,148,112634,1,8,0:0:0:0:
141,149,113029,1,0,0:0:0:0:
141,149,113345,1,8,0:0:0:0:
140,150,113503,1,8,0:0:0:0:
133,146,113661,1,4,0:0:0:0:
126,144,113898,1,0,0:0:0:0:
123,149,114292,1,8,0:0:0:0:
126,147,114529,1,8,0:0:0:0:
123,149,114924,1,0,0:0:0:0:
123,149,115161,1,0,0:0:0:0:
123,149,115555,1,8,0:0:0:0:
123,149,116187,1,4,0:0:0:0:
123,149,116424,1,8,0:0:0:0:
123,149,116819,1,8,0:0:0:0:
123,149,117055,1,0,0:0:0:0:
123,149,117450,1,0,0:0:0:0:
123,149,117687,1,8,0:0:0:0:
123,149,118082,1,8,0:0:0:0:
123,149,118398,1,0,0:0:0:0:
123,149,118555,1,0,0:0:0:0:
123,149,118713,1,12,0:0:0:0:
123,149,118950,1,8,0:0:0:0:
123,149,119345,1,0,0:0:0:0:
124,143,119661,1,0,0:0:0:0:
123,149,119977,1,4,0:0:0:0:
158,148,121240,1,12,0:0:0:0:
