osu file format v14

[General]
AudioFilename: audio.mp3
AudioLeadIn: 0
PreviewTime: 40395
Countdown: 0
SampleSet: Normal
StackLeniency: 0.7
Mode: 1
LetterboxInBreaks: 0
WidescreenStoryboard: 0

[Editor]
Bookmarks: 10079,20184,40395,60605,80816,101026,121237
DistanceSpacing: 1.3
BeatDivisor: 4
GridSize: 32
TimelineZoom: 3.999998

[Metadata]
Title:just a moment
TitleUnicode:just a moment
Artist:DREAMWARE
ArtistUnicode:DREAMWARE
Creator:Dekovner
Version:Moment
Source:
Tags:lunacore dariacore moment hyperflip vierre cloud ulko ulqui nozdormu erowdi electronic english frou a new kind of love randelman4ik katagiri k_a_t_a_g_i_r_i albionshallah lildeath lil death Imogen Heap Guy Sigsworth
BeatmapID:4103192
BeatmapSetID:1976706

[Difficulty]
HPDrainRate:6
CircleSize:3.8
OverallDifficulty:7
ApproachRate:9.4
SliderMultiplier:1.5
SliderTickRate:1

[Events]
//Background and Video events
0,0,"103538739_p0_waifu2x_art_noise21.jpg",0,0
//Break Periods
//Storyboard Layer 0 (Background)
//Storyboard Layer 1 (Fail)
//Storyboard Layer 2 (Pass)
//Storyboard Layer 3 (Foreground)
//Storyboard Layer 4 (Overlay)
//Storyboard Sound Samples

[TimingPoints]
-23,315.789473684211,4,1,0,100,1,0
213,-100,4,1,0,60,0,0
287,-101.2152,4,1,0,60,0,0
603,-106.38642,4,1,0,60,0,0
1235,-118.4945,4,1,0,60,0,0
2024,-138.11923,4,1,0,60,0,0
2182,-142.85713,4,1,0,60,0,0
2814,-99.999985,4,1,0,60,0,0
3129,-111.08504,4,1,0,60,0,0
3761,-142.85712,4,1,0,60,0,0
5029,-199.999955200002,4,1,0,60,0,0
5340,-187.87177,4,1,0,60,0,0
5656,-177.1304,4,1,0,60,0,0
6287,-158.98016,4,1,0,60,0,0
7077,-140.90384,4,1,0,60,0,0
7235,-137.77089,4,1,0,60,0,0
7555,-132.450331125828,4,1,0,60,0,0
7866,-126.53482,4,1,0,60,0,0
8182,-121.569595,4,1,0,60,0,0
8814,-112.72307,4,1,0,60,0,0
9287,-106.901054,4,1,0,60,0,0
9445,-105.08801,4,1,0,60,0,0
9682,-102.48088,4,1,0,60,0,0
9919,-99.999985,4,1,0,60,0,0
10082,-83.3333333333333,4,1,0,100,0,0
19871,-62.5,4,1,0,100,0,0
20182,-77.05658,4,1,0,100,0,0
20187,-77.05658,4,1,0,100,0,1
20261,-79.229126,4,1,0,100,0,1
20340,-81.527725,4,1,0,100,0,1
20419,-83.9637,4,1,0,100,0,1
20498,-86.549706,4,1,0,100,0,1
20577,-89.30009,4,1,0,100,0,1
20656,-92.230995,4,1,0,100,0,1
20735,-95.36083,4,1,0,100,0,1
20814,-98.71054,4,1,0,100,0,1
20972,-106.1693,4,1,0,100,0,1
21050,-110.283165,4,1,0,100,0,1
21129,-114.78801,4,1,0,100,0,1
21208,-119.67656,4,1,0,100,0,1
21287,-125.00001,4,1,0,100,0,1
21445,-76.92308,4,1,0,100,0,1
21524,-79.09807,4,1,0,100,0,1
21603,-81.39963,4,1,0,100,0,1
21682,-83.83915,4,1,0,100,0,1
21761,-86.42941,4,1,0,100,0,1
21840,-89.18483,4,1,0,100,0,1
21919,-92.12173,4,1,0,100,0,1
21998,-95.25863,4,1,0,100,0,1
22077,-98.61669,4,1,0,100,0,1
22235,-106.096985,4,1,0,100,0,1
22314,-110.27945,4,1,0,100,0,1
22393,-114.8052,4,1,0,100,0,1
22550,-125.00001,4,1,0,100,0,1
22708,-99.527565,4,1,0,100,0,1
22787,-92.6143,4,1,0,100,0,1
22866,-86.59907,4,1,0,100,0,1
22945,-81.31755,4,1,0,100,0,1
23024,-76.92308,4,1,0,100,0,1
23187,-83.3333369444446,4,1,0,100,0,1
23498,-76.92308,4,1,0,100,0,1
23503,-76.9230800000001,4,1,0,100,0,1
23577,-81.081085,4,1,0,100,0,1
23656,-85.71429,4,1,0,100,0,1
23735,-90.90909,4,1,0,100,0,1
23814,-96.77419,4,1,0,100,0,1
23893,-103.44827,4,1,0,100,0,1
23972,-111.11111,4,1,0,100,0,1
23977,-111.111117530865,4,1,0,100,0,1
24129,-76.92308,4,1,0,100,0,1
24208,-81.081085,4,1,0,100,0,1
24287,-85.71429,4,1,0,100,0,1
24366,-90.90909,4,1,0,100,0,1
24445,-96.77419,4,1,0,100,0,1
24524,-103.44827,4,1,0,100,0,1
24603,-110.85396,4,1,0,100,0,1
24761,-103.29954,4,1,0,100,0,1
24840,-99.89571,4,1,0,100,0,1
24919,-96.70906,4,1,0,100,0,1
25077,-90.90909,4,1,0,100,0,1
25235,-76.923065,4,1,0,100,0,1
25314,-79.09806,4,1,0,100,0,1
25393,-81.39962,4,1,0,100,0,1
25472,-83.83914,4,1,0,100,0,1
25550,-86.395615,4,1,0,100,0,1
25629,-89.14884,4,1,0,100,0,1
25708,-92.08333,4,1,0,100,0,1
25787,-95.21757,4,1,0,100,0,1
25866,-98.57269,4,1,0,100,0,1
26024,-106.04606,4,1,0,100,0,1
26103,-110.22444,4,1,0,100,0,1
26182,-114.745575,4,1,0,100,0,1
26340,-125,4,1,0,100,0,1
26498,-76.92308,4,1,0,100,0,1
26577,-79.09807,4,1,0,100,0,1
26656,-81.39963,4,1,0,100,0,1
26735,-83.83915,4,1,0,100,0,1
26814,-86.42941,4,1,0,100,0,1
26893,-89.18483,4,1,0,100,0,1
26972,-92.12171,4,1,0,100,0,1
27050,-95.21758,4,1,0,100,0,1
27129,-98.5727,4,1,0,100,0,1
27287,-106.04607,4,1,0,100,0,1
27366,-110.22444,4,1,0,100,0,1
27445,-114.74558,4,1,0,100,0,1
27603,-124.18978,4,1,0,100,0,1
27761,-99.527565,4,1,0,100,0,1
27840,-92.6143,4,1,0,100,0,1
27919,-86.59907,4,1,0,100,0,1
27998,-81.31755,4,1,0,100,0,1
28077,-76.92308,4,1,0,100,0,1
28240,-83.3333369444446,4,1,0,100,0,1
28550,-76.92308,4,1,0,100,0,1
28629,-80,4,1,0,100,0,1
28708,-83.333336,4,1,0,100,0,1
28787,-86.95652,4,1,0,100,0,1
28866,-90.90909,4,1,0,100,0,1
29024,-76.923065,4,1,0,100,0,1
29182,-81.08107,4,1,0,100,0,1
29261,-83.33333,4,1,0,100,0,1
29340,-85.71428,4,1,0,100,0,1
29419,-88.23528,4,1,0,100,0,1
29498,-90.90909,4,1,0,100,0,1
29656,-83.333319340278,4,1,0,100,0,1
29814,-88.262726,4,1,0,100,0,1
29819,-88.48957,4,1,0,100,0,1
29898,-92.23508,4,1,0,100,0,1
29977,-96.31168,4,1,0,100,0,1
30055,-100.70635,4,1,0,100,0,1
30129,-105.263157894737,4,1,0,100,0,1
30287,-76.92308,4,1,0,100,0,1
30366,-79.09605,4,1,0,100,0,1
30445,-81.39535,4,1,0,100,0,1
30524,-83.83234,4,1,0,100,0,1
30603,-86.419754,4,1,0,100,0,1
30682,-89.171974,4,1,0,100,0,1
30761,-92.105255,4,1,0,100,0,1
30840,-95.2381,4,1,0,100,0,1
30919,-98.59155,4,1,0,100,0,1
31077,-106.06061,4,1,0,100,0,1
31156,-110.23623,4,1,0,100,0,1
31235,-114.754105,4,1,0,100,0,1
31393,-125.00001,4,1,0,100,0,1
31550,-76.92308,4,1,0,100,0,1
31629,-79.09605,4,1,0,100,0,1
31708,-81.39535,4,1,0,100,0,1
31787,-83.83234,4,1,0,100,0,1
31866,-86.41976,4,1,0,100,0,1
31945,-89.171974,4,1,0,100,0,1
32024,-92.10527,4,1,0,100,0,1
32103,-95.2381,4,1,0,100,0,1
32182,-98.59155,4,1,0,100,0,1
32340,-106.060616,4,1,0,100,0,1
32419,-110.23623,4,1,0,100,0,1
32498,-114.754105,4,1,0,100,0,1
32656,-125.00001,4,1,0,100,0,1
32814,-99.52608,4,1,0,100,0,1
32893,-92.5926,4,1,0,100,0,1
32972,-86.56225,4,1,0,100,0,1
33050,-81.332306,4,1,0,100,0,1
33129,-76.92308,4,1,0,100,0,1
33292,-83.3333369444446,4,1,0,100,0,1
33603,-76.92308,4,1,0,100,0,1
33682,-80,4,1,0,100,0,1
33761,-83.333336,4,1,0,100,0,1
33840,-86.95652,4,1,0,100,0,1
33919,-90.90909,4,1,0,100,0,1
34077,-76.923065,4,1,0,100,0,1
34156,-79.09806,4,1,0,100,0,1
34235,-81.39962,4,1,0,100,0,1
34314,-83.83914,4,1,0,100,0,1
34393,-86.429405,4,1,0,100,0,1
34472,-89.184814,4,1,0,100,0,1
34550,-92.08333,4,1,0,100,0,1
34629,-95.21757,4,1,0,100,0,1
34708,-98.57269,4,1,0,100,0,1
34866,-106.04606,4,1,0,100,0,1
34945,-110.22444,4,1,0,100,0,1
35024,-114.745575,4,1,0,100,0,1
35182,-125,4,1,0,100,0,1
35340,-76.92308,4,1,0,100,0,1
35419,-79.09807,4,1,0,100,0,1
35498,-81.39963,4,1,0,100,0,1
35577,-83.83915,4,1,0,100,0,1
35656,-86.42941,4,1,0,100,0,1
35735,-89.18483,4,1,0,100,0,1
35814,-92.12171,4,1,0,100,0,1
35893,-95.25861,4,1,0,100,0,1
35972,-98.61669,4,1,0,100,0,1
36129,-106.04607,4,1,0,100,0,1
36208,-110.22444,4,1,0,100,0,1
36287,-114.74558,4,1,0,100,0,1
36445,-125,4,1,0,100,0,1
36603,-76.92308,4,1,0,100,0,1
36682,-79.09807,4,1,0,100,0,1
36761,-81.39963,4,1,0,100,0,1
36840,-83.83915,4,1,0,100,0,1
36919,-86.42941,4,1,0,100,0,1
36998,-89.18483,4,1,0,100,0,1
37077,-92.12171,4,1,0,100,0,1
37156,-95.25861,4,1,0,100,0,1
37235,-98.61669,4,1,0,100,0,1
37393,-106.096985,4,1,0,100,0,1
37472,-110.27944,4,1,0,100,0,1
37550,-114.74558,4,1,0,100,0,1
37708,-124.18978,4,1,0,100,0,1
37866,-103.07725,4,1,0,100,0,1
37871,-103.07725,4,1,0,100,0,0
37945,-95.00198,4,1,0,100,0,0
38024,-88.10005,4,1,0,100,0,0
38103,-82.133064,4,1,0,100,0,0
38182,-76.92308,4,1,0,100,0,0
38498,-100.00001,4,1,0,100,0,0
38656,-95.886856,4,1,0,100,0,0
38814,-92.09869,4,1,0,100,0,0
38893,-90.31467,4,1,0,100,0,0
38972,-88.598465,4,1,0,100,0,0
39129,-85.37434,4,1,0,100,0,0
39287,-82.3582,4,1,0,100,0,0
39366,-80.92867,4,1,0,100,0,0
39445,-79.54791,4,1,0,100,0,0
39524,-78.213486,4,1,0,100,0,0
39603,-76.92308,4,1,0,100,0,0
39761,-76.92308,4,1,0,100,0,0
39840,-81.081085,4,1,0,100,0,0
39919,-85.71429,4,1,0,100,0,0
39998,-90.90909,4,1,0,100,0,0
40077,-96.77419,4,1,0,100,0,0
40156,-103.44827,4,1,0,100,0,0
40235,-111.11111,4,1,0,100,0,0
40393,-71.428566,4,1,0,100,0,0
40398,-71.428566,4,1,0,100,0,1
40472,-73.68632,4,1,0,100,0,1
40550,-76.06002,4,1,0,100,0,1
40629,-78.6253,4,1,0,100,0,1
40708,-81.36966,4,1,0,100,0,1
40787,-84.31252,4,1,0,100,0,1
40866,-87.47626,4,1,0,100,0,1
40945,-90.88666,4,1,0,100,0,1
41024,-94.57378,4,1,0,100,0,1
41103,-98.57269,4,1,0,100,0,1
41182,-102.924736,4,1,0,100,0,1
41261,-107.67881,4,1,0,100,0,1
41340,-112.89333,4,1,0,100,0,1
41419,-118.63861,4,1,0,100,0,1
41498,-125,4,1,0,100,0,1
41656,-76.92308,4,1,0,100,0,1
41814,-81.39963,4,1,0,100,0,1
41893,-83.83915,4,1,0,100,0,1
41972,-86.42941,4,1,0,100,0,1
42129,-92.083336,4,1,0,100,0,1
42287,-98.5727,4,1,0,100,0,1
42445,-106.04607,4,1,0,100,0,1
42524,-110.22444,4,1,0,100,0,1
42603,-114.74558,4,1,0,100,0,1
42682,-119.65349,4,1,0,100,0,1
42761,-125,4,1,0,100,0,1
42919,-125,4,1,0,100,0,1
42998,-119.39875,4,1,0,100,0,1
43077,-114.277954,4,1,0,100,0,1
43156,-109.57835,4,1,0,100,0,1
43235,-105.25,4,1,0,100,0,1
43314,-101.250595,4,1,0,100,0,1
43393,-97.54402,4,1,0,100,0,1
43472,-94.099236,4,1,0,100,0,1
43550,-90.92872,4,1,0,100,0,1
43629,-87.92815,4,1,0,100,0,1
43708,-85.11928,4,1,0,100,0,1
43787,-82.48432,4,1,0,100,0,1
43866,-80.0076,4,1,0,100,0,1
43945,-77.67528,4,1,0,100,0,1
44024,-75.475075,4,1,0,100,0,1
44182,-71.56672,4,1,0,100,0,1
44340,-76.22578,4,1,0,100,0,1
44498,-81.5337,4,1,0,100,0,1
44577,-84.47487,4,1,0,100,0,1
44656,-87.636185,4,1,0,100,0,1
44814,-94.72604,4,1,0,100,0,1
44972,-103.06406,4,1,0,100,0,1
45050,-107.746056,4,1,0,100,0,1
45129,-112.9426,4,1,0,100,0,1
45208,-118.66579,4,1,0,100,0,1
45287,-124.99999,4,1,0,100,0,1
45445,-71.42856,4,1,0,100,0,1
45524,-73.68631,4,1,0,100,0,1
45603,-76.09144,4,1,0,100,0,1
45682,-78.658875,4,1,0,100,0,1
45761,-81.40562,4,1,0,100,0,1
45840,-84.351135,4,1,0,100,0,1
45919,-87.51781,4,1,0,100,0,1
45998,-90.931526,4,1,0,100,0,1
46077,-94.62236,4,1,0,100,0,1
46156,-98.62548,4,1,0,100,0,1
46235,-102.98228,4,1,0,100,0,1
46314,-107.741806,4,1,0,100,0,1
46393,-112.96256,4,1,0,100,0,1
46472,-118.71507,4,1,0,100,0,1
46550,-124.99999,4,1,0,100,0,1
46708,-76.923065,4,1,0,100,0,1
46866,-81.39534,4,1,0,100,0,1
46945,-83.83233,4,1,0,100,0,1
47024,-86.41975,4,1,0,100,0,1
47182,-92.105255,4,1,0,100,0,1
47340,-98.59154,4,1,0,100,0,1
47498,-106.0606,4,1,0,100,0,1
47577,-110.236206,4,1,0,100,0,1
47656,-114.754074,4,1,0,100,0,1
47735,-119.658104,4,1,0,100,0,1
47814,-124.99999,4,1,0,100,0,1
47972,-124.99999,4,1,0,100,0,1
48050,-119.46651,4,1,0,100,0,1
48129,-114.34002,4,1,0,100,0,1
48208,-109.6354,4,1,0,100,0,1
48287,-105.302635,4,1,0,100,0,1
48366,-101.29931,4,1,0,100,0,1
48445,-97.589226,4,1,0,100,0,1
48524,-94.141304,4,1,0,100,0,1
48603,-90.92871,4,1,0,100,0,1
48682,-87.92814,4,1,0,100,0,1
48761,-85.11928,4,1,0,100,0,1
48840,-82.484314,4,1,0,100,0,1
48919,-80.00759,4,1,0,100,0,1
48998,-77.67527,4,1,0,100,0,1
49077,-75.47507,4,1,0,100,0,1
49235,-71.56672,4,1,0,100,0,1
49393,-76.22578,4,1,0,100,0,1
49550,-81.49779,4,1,0,100,0,1
49629,-84.43632,4,1,0,100,0,1
49708,-87.59468,4,1,0,100,0,1
49866,-94.67756,4,1,0,100,0,1
50024,-103.00665,4,1,0,100,0,1
50103,-107.74603,4,1,0,100,0,1
50182,-112.94259,4,1,0,100,0,1
50261,-118.665764,4,1,0,100,0,1
50340,-124.99996,4,1,0,100,0,1
50498,-71.428566,4,1,0,100,0,1
50577,-73.68632,4,1,0,100,0,1
50655,-76.06002,4,1,0,100,0,1
50734,-78.6253,4,1,0,100,0,1
50813,-81.36966,4,1,0,100,0,1
50892,-84.31252,4,1,0,100,0,1
50971,-87.47626,4,1,0,100,0,1
51050,-90.88666,4,1,0,100,0,1
51129,-94.57378,4,1,0,100,0,1
51208,-98.57269,4,1,0,100,0,1
51287,-102.924736,4,1,0,100,0,1
51366,-107.67881,4,1,0,100,0,1
51445,-112.89333,4,1,0,100,0,1
51524,-118.63861,4,1,0,100,0,1
51603,-125,4,1,0,100,0,1
51761,-76.92308,4,1,0,100,0,1
51919,-81.39963,4,1,0,100,0,1
51998,-83.83915,4,1,0,100,0,1
52077,-86.42941,4,1,0,100,0,1
52234,-92.083336,4,1,0,100,0,1
52392,-98.5727,4,1,0,100,0,1
52550,-106.04607,4,1,0,100,0,1
52629,-110.22444,4,1,0,100,0,1
52708,-114.74558,4,1,0,100,0,1
52787,-119.65349,4,1,0,100,0,1
52866,-125,4,1,0,100,0,1
53024,-125,4,1,0,100,0,1
53103,-119.39875,4,1,0,100,0,1
53182,-114.277954,4,1,0,100,0,1
53261,-109.57835,4,1,0,100,0,1
53340,-105.25,4,1,0,100,0,1
53419,-101.250595,4,1,0,100,0,1
53498,-97.54402,4,1,0,100,0,1
53577,-94.099236,4,1,0,100,0,1
53655,-90.92872,4,1,0,100,0,1
53734,-87.92815,4,1,0,100,0,1
53813,-85.11928,4,1,0,100,0,1
53892,-82.48432,4,1,0,100,0,1
53971,-80.0076,4,1,0,100,0,1
54050,-77.67528,4,1,0,100,0,1
54129,-75.475075,4,1,0,100,0,1
54287,-71.56672,4,1,0,100,0,1
54445,-76.22578,4,1,0,100,0,1
54603,-81.5337,4,1,0,100,0,1
54682,-84.47487,4,1,0,100,0,1
54761,-87.636185,4,1,0,100,0,1
54919,-94.72604,4,1,0,100,0,1
55077,-103.06406,4,1,0,100,0,1
55155,-107.746056,4,1,0,100,0,1
55234,-112.9426,4,1,0,100,0,1
55313,-118.66579,4,1,0,100,0,1
55392,-124.99999,4,1,0,100,0,1
55550,-71.42856,4,1,0,100,0,1
55629,-73.68631,4,1,0,100,0,1
55708,-76.09144,4,1,0,100,0,1
55787,-78.658875,4,1,0,100,0,1
55866,-81.40562,4,1,0,100,0,1
55945,-84.351135,4,1,0,100,0,1
56024,-87.51781,4,1,0,100,0,1
56103,-90.931526,4,1,0,100,0,1
56182,-94.62236,4,1,0,100,0,1
56261,-98.62548,4,1,0,100,0,1
56340,-102.98228,4,1,0,100,0,1
56419,-107.741806,4,1,0,100,0,1
56498,-112.96256,4,1,0,100,0,1
56577,-118.71507,4,1,0,100,0,1
56655,-124.99999,4,1,0,100,0,1
56813,-76.923065,4,1,0,100,0,1
56971,-81.39534,4,1,0,100,0,1
57050,-83.83233,4,1,0,100,0,1
57129,-86.41975,4,1,0,100,0,1
57287,-92.105255,4,1,0,100,0,1
57445,-98.59154,4,1,0,100,0,1
57603,-106.0606,4,1,0,100,0,1
57682,-110.236206,4,1,0,100,0,1
57761,-114.754074,4,1,0,100,0,1
57840,-119.658104,4,1,0,100,0,1
57919,-124.99999,4,1,0,100,0,1
58077,-71.50389,4,1,0,100,0,1
58082,-71.50389,4,1,0,100,0,0
58235,-73.969,4,1,0,100,0,0
58314,-75.26642,4,1,0,100,0,0
58393,-76.61015,4,1,0,100,0,0
58550,-79.42829,4,1,0,100,0,0
58708,-82.481735,4,1,0,100,0,0
58787,-84.09823,4,1,0,100,0,0
58866,-85.77934,4,1,0,100,0,0
59024,-89.35159,4,1,0,100,0,0
59103,-91.25167,4,1,0,100,0,0
59182,-93.234314,4,1,0,100,0,0
59340,-97.4698,4,1,0,100,0,0
59498,-102.10842,4,1,0,100,0,0
59656,-107.2106,4,1,0,100,0,0
59735,-109.95782,4,1,0,100,0,0
59814,-112.84952,4,1,0,100,0,0
59893,-115.89742,4,1,0,100,0,0
59972,-119.11453,4,1,0,100,0,0
60129,-126.06916,4,1,0,100,0,0
60208,-129.88504,4,1,0,100,0,0
60287,-133.93915,4,1,0,100,0,0
60445,-142.85712,4,1,0,100,0,0
60608,-111.11109728395,4,1,0,70,0,0
60845,-124.9999825,4,1,0,60,0,0
60919,-124.86592,4,1,0,60,0,0
61393,-124.067535,4,1,0,60,0,0
61550,-123.80534,4,1,0,60,0,0
61866,-123.28095,4,1,0,60,0,0
62182,-122.76099,4,1,0,60,0,0
62340,-122.502655,4,1,0,60,0,0
62419,-122.373886,4,1,0,60,0,0
62498,-122.24539,4,1,0,60,0,0
62814,-121.73411,4,1,0,60,0,0
62972,-121.48007,4,1,0,60,0,0
63129,-121.22868,4,1,0,60,0,0
63445,-120.72586,4,1,0,60,0,0
63761,-120.22718,4,1,0,60,0,0
63919,-119.97937,4,1,0,60,0,0
64077,-119.732605,4,1,0,60,0,0
64393,-119.24208,4,1,0,60,0,0
64708,-118.75709,4,1,0,60,0,0
64866,-118.51531,4,1,0,60,0,0
64945,-118.39478,4,1,0,60,0,0
65024,-118.27451,4,1,0,60,0,0
65261,-117.91514,4,1,0,60,0,0
65498,-117.55796,4,1,0,60,0,0
65656,-117.32102,4,1,0,60,0,0
65972,-116.85002,4,1,0,60,0,0
66287,-116.38427,4,1,0,60,0,0
66445,-116.15204,4,1,0,60,0,0
66603,-115.92073,4,1,0,60,0,0
66919,-115.46089,4,1,0,60,0,0
67235,-115.00467,4,1,0,60,0,0
67393,-114.77792,4,1,0,60,0,0
67472,-114.66488,4,1,0,60,0,0
67550,-114.55348,4,1,0,60,0,0
67708,-114.32849,4,1,0,60,0,0
67866,-114.1044,4,1,0,60,0,0
68182,-113.65882,4,1,0,60,0,0
68261,-113.54797,4,1,0,60,0,0
68340,-113.43733,4,1,0,60,0,0
68498,-113.216705,4,1,0,60,0,0
68656,-112.99695,4,1,0,60,0,0
68735,-112.887375,4,1,0,60,0,0
68814,-112.77803,4,1,0,60,0,0
68972,-112.55995,4,1,0,60,0,0
69129,-112.3441,4,1,0,60,0,0
69208,-112.2358,4,1,0,60,0,0
69287,-112.1277,4,1,0,60,0,0
69445,-111.91213,4,1,0,60,0,0
69761,-111.48348,4,1,0,60,0,0
69919,-111.27039,4,1,0,60,0,0
69998,-111.164154,4,1,0,60,0,0
70077,-111.0581,4,1,0,60,0,0
70235,-110.84663,4,1,0,60,0,0
70393,-110.635956,4,1,0,60,0,0
70472,-110.53092,4,1,0,60,0,0
70550,-110.42741,4,1,0,60,0,0
70708,-110.21833,4,1,0,60,0,0
71024,-109.80253,4,1,0,60,0,0
71182,-109.5958,4,1,0,60,0,0
71340,-109.38986,4,1,0,60,0,0
71656,-108.98028,4,1,0,60,0,0
71735,-108.878365,4,1,0,60,0,0
71893,-108.675095,4,1,0,60,0,0
71972,-108.573746,4,1,0,60,0,0
72287,-108.17151,4,1,0,60,0,0
72445,-107.97088,4,1,0,60,0,0
72524,-107.870834,4,1,0,60,0,0
72603,-107.77098,4,1,0,60,0,0
72761,-107.57183,4,1,0,60,0,0
72919,-107.37341,4,1,0,60,0,0
73077,-107.17572,4,1,0,60,0,0
73156,-107.07715,4,1,0,60,0,0
73235,-106.97876,4,1,0,60,0,0
73550,-106.58824,4,1,0,60,0,0
73708,-106.39343,4,1,0,60,0,0
73866,-106.19933,4,1,0,60,0,0
74182,-105.813255,4,1,0,60,0,0
74340,-105.621254,4,1,0,60,0,0
74419,-105.52552,4,1,0,60,0,0
74498,-105.42997,4,1,0,60,0,0
74814,-105.049446,4,1,0,60,0,0
74972,-104.860214,4,1,0,60,0,0
75050,-104.76705,4,1,0,60,0,0
75129,-104.67285,4,1,0,60,0,0
75287,-104.48498,4,1,0,60,0,0
75445,-104.297775,4,1,0,60,0,0
75524,-104.20443,4,1,0,60,0,0
75603,-104.11124,4,1,0,60,0,0
75761,-103.92537,4,1,0,60,0,0
76077,-103.55562,4,1,0,60,0,0
76235,-103.37173,4,1,0,60,0,0
76393,-103.188484,4,1,0,60,0,0
76708,-102.825096,4,1,0,60,0,0
76787,-102.73436,4,1,0,60,0,0
76945,-102.553375,4,1,0,60,0,0
77024,-102.46312,4,1,0,60,0,0
77340,-102.103676,4,1,0,60,0,0
77498,-101.924904,4,1,0,60,0,0
77656,-101.74676,4,1,0,60,0,0
77735,-101.657906,4,1,0,60,0,0
77814,-101.56922,4,1,0,60,0,0
77972,-101.3923,4,1,0,60,0,0
78129,-101.21713,4,1,0,60,0,0
78208,-101.1292,4,1,0,60,0,0
78287,-101.04144,4,1,0,60,0,0
78445,-100.866356,4,1,0,60,0,0
78603,-100.69189,4,1,0,60,0,0
78682,-100.60488,4,1,0,60,0,0
78761,-100.51802,4,1,0,60,0,0
78919,-100.34474,4,1,0,60,0,0
78998,-100.25834,4,1,0,60,0,0
79077,-100.17207,4,1,0,60,0,0
79235,-99.999985,4,1,0,60,0,0
79555,-90.9090785123967,4,1,0,80,0,0
79634,-95.2380952380952,4,1,0,80,0,0
79713,-100,4,1,0,80,0,0
79871,-90.9090909090909,4,1,0,80,0,0
79950,-95.2380952380952,4,1,0,80,0,0
80029,-100,4,1,0,80,0,0
80187,-90.9090909090909,4,1,0,80,0,0
80266,-95.2380952380952,4,1,0,80,0,0
80345,-100,4,1,0,80,0,0
80503,-62.5,4,1,0,80,0,0
80814,-77.19631,4,1,0,80,0,0
80819,-77.19631,4,1,0,100,0,1
80866,-80.15736,4,1,0,100,0,1
80919,-83.418625,4,1,0,100,0,1
80972,-86.95651,4,1,0,100,0,1
80977,-86.9565217391304,4,1,0,100,0,1
81129,-76.92308,4,1,0,100,0,1
81134,-76.9230769230769,4,1,0,100,0,1
81182,-80.12569,4,1,0,100,0,1
81235,-83.60656,4,1,0,100,0,1
81287,-86.9565217391304,4,1,0,100,0,1
81445,-76.92308,4,1,0,100,0,1
81603,-81.08108,4,1,0,100,0,1
81682,-83.33333,4,1,0,100,0,1
81761,-85.71429,4,1,0,100,0,1
81919,-90.90909,4,1,0,100,0,1
82077,-76.923065,4,1,0,100,0,1
82156,-79.09806,4,1,0,100,0,1
82235,-81.39962,4,1,0,100,0,1
82393,-86.429405,4,1,0,100,0,1
82472,-89.184814,4,1,0,100,0,1
82550,-92.08333,4,1,0,100,0,1
82629,-95.21757,4,1,0,100,0,1
82708,-98.57269,4,1,0,100,0,1
82866,-106.04606,4,1,0,100,0,1
82945,-110.22444,4,1,0,100,0,1
83024,-114.745575,4,1,0,100,0,1
83182,-125,4,1,0,100,0,1
83340,-76.92308,4,1,0,100,0,1
83393,-79.66387,4,1,0,100,0,1
83445,-82.54964,4,1,0,100,0,1
83498,-85.71429,4,1,0,100,0,1
83577,-90.90909,4,1,0,100,0,1
83656,-96.77419,4,1,0,100,0,1
83735,-103.44827,4,1,0,100,0,1
83814,-111.11111,4,1,0,100,0,1
83972,-76.923065,4,1,0,100,0,1
84050,-81.034775,4,1,0,100,0,1
84129,-85.67288,4,1,0,100,0,1
84208,-90.874146,4,1,0,100,0,1
84287,-96.74779,4,1,0,100,0,1
84366,-103.43318,4,1,0,100,0,1
84445,-111.1111,4,1,0,100,0,1
84608,-76.923071597633,4,1,0,100,0,1
84687,-80,4,1,0,100,0,1
84766,-83.3333333333333,4,1,0,100,0,1
84924,-76.9230769230769,4,1,0,100,0,1
85003,-80,4,1,0,100,0,1
85082,-83.3333333333333,4,1,0,100,0,1
85240,-76.9230769230769,4,1,0,100,0,1
85319,-80,4,1,0,100,0,1
85398,-83.3333333333333,4,1,0,100,0,1
85555,-76.9230769230769,4,1,0,100,0,1
85634,-80,4,1,0,100,0,1
85713,-83.3333333333333,4,1,0,100,0,1
85866,-77.20499,4,1,0,100,0,1
85919,-80.32537,4,1,0,100,0,1
85972,-83.70861,4,1,0,100,0,1
86024,-86.9565217391304,4,1,0,100,0,1
86182,-77.20499,4,1,0,100,0,1
86235,-80.32537,4,1,0,100,0,1
86287,-83.642136,4,1,0,100,0,1
86340,-86.9565217391304,4,1,0,100,0,1
86498,-76.92308,4,1,0,100,0,1
86503,-76.9230769230769,4,1,0,100,0,1
86656,-81.08108,4,1,0,100,0,1
86735,-83.33333,4,1,0,100,0,1
86814,-85.71429,4,1,0,100,0,1
86972,-90.90909,4,1,0,100,0,1
87129,-76.923065,4,1,0,100,0,1
87208,-77.77776,4,1,0,100,0,1
87287,-78.65168,4,1,0,100,0,1
87445,-80.45976,4,1,0,100,0,1
87524,-81.39534,4,1,0,100,0,1
87603,-82.35293,4,1,0,100,0,1
87682,-83.33333,4,1,0,100,0,1
87761,-84.33734,4,1,0,100,0,1
87919,-86.41975,4,1,0,100,0,1
87998,-87.49999,4,1,0,100,0,1
88077,-88.60759,4,1,0,100,0,1
88235,-90.90909,4,1,0,100,0,1
88393,-76.923065,4,1,0,100,0,1
88398,-76.9230762721894,4,1,0,100,0,1
88445,-79.61621,4,1,0,100,0,1
88498,-82.5624,4,1,0,100,0,1
88550,-85.67288,4,1,0,100,0,1
88629,-90.874146,4,1,0,100,0,1
88708,-96.74779,4,1,0,100,0,1
88787,-103.43318,4,1,0,100,0,1
88866,-111.1111,4,1,0,100,0,1
88871,-111.111109753086,4,1,0,100,0,1
89024,-76.923065,4,1,0,100,0,1
89103,-81.08107,4,1,0,100,0,1
89182,-85.71428,4,1,0,100,0,1
89261,-90.90909,4,1,0,100,0,1
89340,-96.774185,4,1,0,100,0,1
89419,-103.448265,4,1,0,100,0,1
89498,-111.1111,4,1,0,100,0,1
89661,-76.923071597633,4,1,0,100,0,1
89740,-80,4,1,0,100,0,1
89819,-83.3333333333333,4,1,0,100,0,1
89977,-76.9230769230769,4,1,0,100,0,1
90055,-80,4,1,0,100,0,1
90134,-83.3333333333333,4,1,0,100,0,1
90292,-76.9230769230769,4,1,0,100,0,1
90371,-80,4,1,0,100,0,1
90450,-83.3333333333333,4,1,0,100,0,1
90608,-76.9230769230769,4,1,0,100,0,1
90687,-80,4,1,0,100,0,1
90766,-83.3333333333333,4,1,0,100,0,1
90919,-76.92308,4,1,0,100,0,1
90924,-76.9230769230769,4,1,0,100,0,1
90971,-80.06279,4,1,0,100,0,1
91024,-83.53808,4,1,0,100,0,1
91077,-86.9565217391304,4,1,0,100,0,1
91234,-77.20499,4,1,0,100,0,1
91287,-80.32537,4,1,0,100,0,1
91340,-83.70861,4,1,0,100,0,1
91392,-86.9565217391304,4,1,0,100,0,1
91550,-76.92308,4,1,0,100,0,1
91708,-81.08108,4,1,0,100,0,1
91787,-83.33333,4,1,0,100,0,1
91866,-85.71429,4,1,0,100,0,1
92024,-90.90909,4,1,0,100,0,1
92182,-76.923065,4,1,0,100,0,1
92261,-79.09806,4,1,0,100,0,1
92340,-81.39962,4,1,0,100,0,1
92498,-86.429405,4,1,0,100,0,1
92577,-89.184814,4,1,0,100,0,1
92655,-92.08333,4,1,0,100,0,1
92734,-95.21757,4,1,0,100,0,1
92813,-98.57269,4,1,0,100,0,1
92971,-106.04606,4,1,0,100,0,1
93050,-110.22444,4,1,0,100,0,1
93129,-114.745575,4,1,0,100,0,1
93287,-125,4,1,0,100,0,1
93445,-76.92308,4,1,0,100,0,1
93498,-79.66387,4,1,0,100,0,1
93550,-82.54964,4,1,0,100,0,1
93603,-85.71429,4,1,0,100,0,1
93682,-90.90909,4,1,0,100,0,1
93761,-96.77419,4,1,0,100,0,1
93840,-103.44827,4,1,0,100,0,1
93919,-111.11111,4,1,0,100,0,1
94077,-76.923065,4,1,0,100,0,1
94155,-81.034775,4,1,0,100,0,1
94234,-85.67288,4,1,0,100,0,1
94313,-90.874146,4,1,0,100,0,1
94392,-96.74779,4,1,0,100,0,1
94471,-103.43318,4,1,0,100,0,1
94550,-111.1111,4,1,0,100,0,1
94713,-76.923071597633,4,1,0,100,0,1
94792,-80,4,1,0,100,0,1
94871,-83.3333333333333,4,1,0,100,0,1
95029,-76.9230769230769,4,1,0,100,0,1
95108,-80,4,1,0,100,0,1
95187,-83.3333333333333,4,1,0,100,0,1
95345,-76.9230769230769,4,1,0,100,0,1
95424,-80,4,1,0,100,0,1
95503,-83.3333333333333,4,1,0,100,0,1
95660,-76.9230769230769,4,1,0,100,0,1
95739,-80,4,1,0,100,0,1
95818,-83.3333333333333,4,1,0,100,0,1
95971,-77.20499,4,1,0,100,0,1
96024,-80.32537,4,1,0,100,0,1
96077,-83.70861,4,1,0,100,0,1
96129,-86.9565217391304,4,1,0,100,0,1
96287,-77.20499,4,1,0,100,0,1
96340,-80.32537,4,1,0,100,0,1
96392,-83.642136,4,1,0,100,0,1
96445,-86.9565217391304,4,1,0,100,0,1
96603,-76.92308,4,1,0,100,0,1
96608,-76.9230769230769,4,1,0,100,0,1
96761,-81.08108,4,1,0,100,0,1
96840,-83.33333,4,1,0,100,0,1
96919,-85.71429,4,1,0,100,0,1
97077,-90.90909,4,1,0,100,0,1
97234,-76.923065,4,1,0,100,0,1
97313,-77.77776,4,1,0,100,0,1
97392,-78.65168,4,1,0,100,0,1
97550,-80.45976,4,1,0,100,0,1
97629,-81.39534,4,1,0,100,0,1
97708,-82.35293,4,1,0,100,0,1
97787,-83.33333,4,1,0,100,0,1
97866,-84.33734,4,1,0,100,0,1
98024,-86.41975,4,1,0,100,0,1
98103,-87.49999,4,1,0,100,0,1
98182,-88.60759,4,1,0,100,0,1
98340,-90.90909,4,1,0,100,0,1
98498,-76.923065,4,1,0,100,0,1
98503,-76.9230762721894,4,1,0,100,0,1
98550,-79.61621,4,1,0,100,0,1
98603,-82.5624,4,1,0,100,0,1
98655,-85.67288,4,1,0,100,0,1
98734,-90.874146,4,1,0,100,0,1
98813,-96.74779,4,1,0,100,0,1
98892,-103.43318,4,1,0,100,0,1
98971,-111.1111,4,1,0,100,0,1
98976,-111.111109753086,4,1,0,100,0,1
99129,-76.923065,4,1,0,100,0,1
99208,-81.08107,4,1,0,100,0,1
99287,-85.71428,4,1,0,100,0,1
99366,-90.90909,4,1,0,100,0,1
99445,-96.774185,4,1,0,100,0,1
99524,-103.448265,4,1,0,100,0,1
99603,-111.1111,4,1,0,100,0,1
99766,-76.923071597633,4,1,0,100,0,0
99845,-80,4,1,0,100,0,0
99924,-83.3333333333333,4,1,0,100,0,0
100082,-76.9230769230769,4,1,0,80,0,0
100160,-80,4,1,0,80,0,0
100239,-83.3333333333333,4,1,0,80,0,0
100397,-76.9230769230769,4,1,0,80,0,0
100476,-80,4,1,0,80,0,0
100555,-83.3333333333333,4,1,0,80,0,0
100713,-76.9230769230769,4,1,0,80,0,0
100792,-80,4,1,0,80,0,0
100871,-83.3333333333333,4,1,0,80,0,0
101024,-125,4,1,0,80,0,0
101029,-125,4,1,0,100,0,1
101103,-120.600784,4,1,0,100,0,1
101261,-112.6702,4,1,0,100,0,1
101340,-109.08359,4,1,0,100,0,1
101498,-102.55439,4,1,0,100,0,1
101656,-96.762665,4,1,0,100,0,1
101814,-91.59014,4,1,0,100,0,1
101893,-89.20586,4,1,0,100,0,1
101972,-86.94255,4,1,0,100,0,1
102050,-84.81783,4,1,0,100,0,1
102129,-82.76916,4,1,0,100,0,1
102287,-78.95504,4,1,0,100,0,1
102366,-77.17683,4,1,0,100,0,1
102524,-73.85035,4,1,0,100,0,1
102603,-72.29237,4,1,0,100,0,1
102761,-69.36564,4,1,0,100,0,1
102919,-66.666664,4,1,0,100,0,1
102924,-66.6666666666667,4,1,0,100,0,1
103235,-125,4,1,0,100,0,1
103314,-121.86153,4,1,0,100,0,1
103393,-118.876785,4,1,0,100,0,1
103472,-116.03476,4,1,0,100,0,1
103550,-113.358955,4,1,0,100,0,1
103629,-110.77177,4,1,0,100,0,1
103787,-105.93622,4,1,0,100,0,1
103866,-103.67338,4,1,0,100,0,1
104024,-99.42582,4,1,0,100,0,1
104182,-95.51261,4,1,0,100,0,1
104340,-91.89578,4,1,0,100,0,1
104419,-90.18818,4,1,0,100,0,1
104498,-88.54287,4,1,0,100,0,1
104656,-85.42601,4,1,0,100,0,1
104814,-82.52114,4,1,0,100,0,1
104893,-81.14154,4,1,0,100,0,1
105050,-78.53235,4,1,0,100,0,1
105129,-77.28188,4,1,0,100,0,1
105287,-74.89675,4,1,0,100,0,1
105445,-72.65443,4,1,0,100,0,1
105603,-70.54247,4,1,0,100,0,1
105682,-69.531876,4,1,0,100,0,1
105761,-68.54983,4,1,0,100,0,1
105919,-66.666664,4,1,0,100,0,1
106077,-90.90909,4,1,0,100,0,1
106156,-89.55153,4,1,0,100,0,1
106314,-86.95452,4,1,0,100,0,1
106393,-85.71169,4,1,0,100,0,1
106550,-83.34432,4,1,0,100,0,1
106708,-81.09033,4,1,0,100,0,1
106866,-78.95505,4,1,0,100,0,1
106945,-77.929016,4,1,0,100,0,1
107024,-76.92931,4,1,0,100,0,1
107182,-75.004944,4,1,0,100,0,1
107340,-73.1745,4,1,0,100,0,1
107419,-72.29237,4,1,0,100,0,1
107577,-70.59043,4,1,0,100,0,1
107656,-69.76915,4,1,0,100,0,1
107814,-68.18263,4,1,0,100,0,1
107972,-66.666664,4,1,0,100,0,1
108287,-124.99999,4,1,0,100,0,1
108292,-124.999990625001,4,1,0,100,0,1
108366,-122.29624,4,1,0,100,0,1
108445,-119.70696,4,1,0,100,0,1
108524,-117.225075,4,1,0,100,0,1
108603,-114.84401,4,1,0,100,0,1
108682,-112.55773,4,1,0,100,0,1
108840,-108.247826,4,1,0,100,0,1
108919,-106.21432,4,1,0,100,0,1
109077,-102.3682,4,1,0,100,0,1
109235,-98.79091,4,1,0,100,0,1
109393,-95.455185,4,1,0,100,0,1
109472,-93.870384,4,1,0,100,0,1
109550,-92.35646,4,1,0,100,0,1
109708,-89.43468,4,1,0,100,0,1
109866,-86.69209,4,1,0,100,0,1
109945,-85.382935,4,1,0,100,0,1
110103,-82.87975,4,1,0,100,0,1
110182,-81.6824,4,1,0,100,0,1
110340,-79.38857,4,1,0,100,0,1
110498,-77.22006,4,1,0,100,0,1
110656,-75.16687,4,1,0,100,0,1
110735,-74.18068,4,1,0,100,0,1
110814,-73.22003,4,1,0,100,0,1
110972,-71.42856,4,1,0,100,0,1
111129,-125,4,1,0,100,0,1
111208,-120.600784,4,1,0,100,0,1
111366,-112.6702,4,1,0,100,0,1
111445,-109.08359,4,1,0,100,0,1
111603,-102.55439,4,1,0,100,0,1
111761,-96.762665,4,1,0,100,0,1
111919,-91.59014,4,1,0,100,0,1
111998,-89.20586,4,1,0,100,0,1
112077,-86.94255,4,1,0,100,0,1
112155,-84.81783,4,1,0,100,0,1
112234,-82.76916,4,1,0,100,0,1
112392,-78.95504,4,1,0,100,0,1
112471,-77.17683,4,1,0,100,0,1
112629,-73.85035,4,1,0,100,0,1
112708,-72.29237,4,1,0,100,0,1
112866,-69.36564,4,1,0,100,0,1
113024,-66.666664,4,1,0,100,0,1
113029,-66.6666666666667,4,1,0,100,0,1
113340,-125,4,1,0,100,0,1
113419,-121.86153,4,1,0,100,0,1
113498,-118.876785,4,1,0,100,0,1
113577,-116.03476,4,1,0,100,0,1
113655,-113.358955,4,1,0,100,0,1
113734,-110.77177,4,1,0,100,0,1
113892,-105.93622,4,1,0,100,0,1
113971,-103.67338,4,1,0,100,0,1
114129,-99.42582,4,1,0,100,0,1
114287,-95.51261,4,1,0,100,0,1
114445,-91.89578,4,1,0,100,0,1
114524,-90.18818,4,1,0,100,0,1
114603,-88.54287,4,1,0,100,0,1
114761,-85.42601,4,1,0,100,0,1
114919,-82.52114,4,1,0,100,0,1
114998,-81.14154,4,1,0,100,0,1
115155,-78.53235,4,1,0,100,0,1
115234,-77.28188,4,1,0,100,0,1
115392,-74.89675,4,1,0,100,0,1
115550,-72.65443,4,1,0,100,0,1
115708,-70.54247,4,1,0,100,0,1
115787,-69.531876,4,1,0,100,0,1
115866,-68.54983,4,1,0,100,0,1
116024,-66.666664,4,1,0,100,0,1
116182,-90.90909,4,1,0,100,0,1
116261,-89.55153,4,1,0,100,0,1
116419,-86.95452,4,1,0,100,0,1
116498,-85.71169,4,1,0,100,0,1
116655,-83.34432,4,1,0,100,0,1
116813,-81.09033,4,1,0,100,0,1
116971,-78.95505,4,1,0,100,0,1
117050,-77.929016,4,1,0,100,0,1
117129,-76.92931,4,1,0,100,0,1
117287,-75.004944,4,1,0,100,0,1
117445,-73.1745,4,1,0,100,0,1
117524,-72.29237,4,1,0,100,0,1
117682,-70.59043,4,1,0,100,0,1
117761,-69.76915,4,1,0,100,0,1
117919,-68.18263,4,1,0,100,0,1
118077,-66.666664,4,1,0,100,0,1
118392,-124.60433,4,1,0,100,0,1
118471,-122.337135,4,1,0,100,0,1
118550,-120.15097,4,1,0,100,0,1
118629,-118.041565,4,1,0,100,0,1
118708,-116.00494,4,1,0,100,0,1
118787,-114.03741,4,1,0,100,0,1
118945,-110.29599,4,1,0,100,0,1
119024,-108.51587,4,1,0,100,0,1
119182,-105.122604,4,1,0,100,0,1
119340,-101.93512,4,1,0,100,0,1
119498,-98.93525,4,1,0,100,0,1
119577,-97.500565,4,1,0,100,0,1
119655,-96.12429,4,1,0,100,0,1
119813,-93.452194,4,1,0,100,0,1
119977,-90.90909,4,1,0,80,0,0
120287,-76.92308,4,1,0,80,0,0
120292,-76.9230769230769,4,1,0,80,0,0
120445,-81.96721,4,1,0,80,0,0
120498,-83.81074,4,1,0,80,0,0
120550,-85.70189,4,1,0,80,0,0
120603,-87.7193,4,1,0,80,0,0
120761,-94.339615,4,1,0,80,0,0
120919,-102.04082,4,1,0,80,0,0
121077,-111.11111,4,1,0,80,0,0
121082,-108.695652173913,4,1,0,80,0,0
121240,-50,4,1,0,80,0,0

[HitObjects]
232,191,292,5,8,0:0:0:0:
244,194,608,1,0,0:0:0:0:
243,194,1240,1,8,0:0:0:0:
243,194,2029,1,0,0:0:0:0:
243,194,2187,1,8,0:0:0:0:
243,194,2819,1,8,0:0:0:0:
243,194,3134,1,0,0:0:0:0:
256,192,3766,1,8,0:0:0:0:
256,192,5345,1,8,0:0:0:0:
256,192,5661,1,0,0:0:0:0:
256,192,6292,1,0,0:0:0:0:
256,192,7082,1,8,0:0:0:0:
256,192,7240,1,8,0:0:0:0:
256,192,7871,1,0,0:0:0:0:
256,192,8187,1,8,0:0:0:0:
256,192,8819,1,0,0:0:0:0:
256,192,9292,1,8,0:0:0:0:
256,192,9450,1,0,0:0:0:0:
256,192,9687,1,8,0:0:0:0:
256,192,9924,1,0,0:0:0:0:
256,192,10082,1,8,0:0:0:0:
256,192,10161,1,8,0:0:0:0:
256,192,10240,1,0,0:0:0:0:
256,192,10319,1,8,0:0:0:0:
256,192,10398,1,0,0:0:0:0:
256,192,10555,1,8,0:0:0:0:
256,192,10634,1,8,0:0:0:0:
256,192,10713,1,0,0:0:0:0:
256,192,10871,1,0,0:0:0:0:
256,192,11029,1,8,0:0:0:0:
256,192,11108,1,0,0:0:0:0:
256,224,11187,1,8,0:0:0:0:
256,192,11266,1,8,0:0:0:0:
256,192,11345,1,0,0:0:0:0:
256,192,11503,1,0,0:0:0:0:
256,192,11582,1,8,0:0:0:0:
256,192,11740,1,8,0:0:0:0:
256,192,11819,1,0,0:0:0:0:
256,192,11898,1,0,0:0:0:0:
256,192,11977,1,8,0:0:0:0:
256,192,12134,1,8,0:0:0:0:
256,192,12213,1,0,0:0:0:0:
256,192,12292,1,8,0:0:0:0:
256,192,12450,1,8,0:0:0:0:
256,192,12608,1,0,0:0:0:0:
256,192,12687,1,0,0:0:0:0:
256,192,12766,1,8,0:0:0:0:
256,192,12845,1,0,0:0:0:0:
256,192,12924,1,8,0:0:0:0:
256,192,13082,1,8,0:0:0:0:
256,192,13161,1,0,0:0:0:0:
256,192,13319,1,0,0:0:0:0:
256,192,13398,1,8,0:0:0:0:
256,192,13477,1,8,0:0:0:0:
256,192,13555,1,0,0:0:0:0:
256,192,13713,1,8,0:0:0:0:
256,192,13792,1,0,0:0:0:0:
256,192,13871,1,8,0:0:0:0:
256,192,13950,1,8,0:0:0:0:
256,192,14029,1,0,0:0:0:0:
256,192,14187,1,8,0:0:0:0:
256,192,14266,1,8,0:0:0:0:
256,192,14345,1,0,0:0:0:0:
256,192,14398,1,0,0:0:0:0:
256,192,14450,1,0,0:0:0:0:
256,192,14503,1,8,0:0:0:0:
256,192,14582,1,8,0:0:0:0:
256,192,14661,1,0,0:0:0:0:
256,192,14819,1,8,0:0:0:0:
256,192,14898,1,0,0:0:0:0:
256,192,14977,1,8,0:0:0:0:
256,192,15029,1,8,0:0:0:0:
256,192,15082,1,8,0:0:0:0:
256,192,15134,1,0,0:0:0:0:
256,192,15213,1,8,0:0:0:0:
256,192,15371,1,8,0:0:0:0:
256,192,15450,1,0,0:0:0:0:
256,192,15608,1,0,0:0:0:0:
256,192,15687,1,8,0:0:0:0:
256,192,15845,1,8,0:0:0:0:
256,192,15924,1,0,0:0:0:0:
256,192,16003,1,0,0:0:0:0:
256,192,16082,1,8,0:0:0:0:
256,192,16161,1,0,0:0:0:0:
256,192,16240,1,8,0:0:0:0:
256,192,16398,1,0,0:0:0:0:
256,192,16555,1,8,0:0:0:0:
256,192,16634,1,0,0:0:0:0:
256,192,16713,1,8,0:0:0:0:
256,192,16871,1,8,0:0:0:0:
256,192,16950,1,8,0:0:0:0:
256,192,17029,1,0,0:0:0:0:
256,192,17187,1,8,0:0:0:0:
256,192,17345,1,0,0:0:0:0:
256,192,17424,1,0,0:0:0:0:
256,192,17503,1,8,0:0:0:0:
256,192,17661,1,0,0:0:0:0:
256,192,17740,1,8,0:0:0:0:
256,192,17819,1,0,0:0:0:0:
256,192,17898,1,8,0:0:0:0:
256,192,17977,1,0,0:0:0:0:
256,192,18055,1,0,0:0:0:0:
256,192,18134,1,8,0:0:0:0:
256,192,18213,1,8,0:0:0:0:
256,224,18292,1,0,0:0:0:0:
256,192,18450,1,8,0:0:0:0:
256,192,18529,1,8,0:0:0:0:
256,192,18608,1,0,0:0:0:0:
256,192,18687,1,0,0:0:0:0:
256,192,18766,1,8,0:0:0:0:
256,192,18845,1,8,0:0:0:0:
256,192,18924,1,0,0:0:0:0:
256,192,19082,1,8,0:0:0:0:
256,192,19240,1,0,0:0:0:0:
256,192,19319,1,0,0:0:0:0:
256,192,19398,1,8,0:0:0:0:
256,192,19477,1,8,0:0:0:0:
256,192,19555,1,0,0:0:0:0:
256,192,19634,1,8,0:0:0:0:
256,192,19713,1,0,0:0:0:0:
256,192,19871,1,8,0:0:0:0:
256,192,19950,1,8,0:0:0:0:
256,192,20029,1,0,0:0:0:0:
256,192,20187,1,0,0:0:0:0:
256,192,20266,1,8,0:0:0:0:
256,192,20345,1,8,0:0:0:0:
256,192,20424,1,0,0:0:0:0:
256,192,20503,1,8,0:0:0:0:
256,192,20582,1,0,0:0:0:0:
256,192,20661,1,0,0:0:0:0:
256,192,20740,1,0,0:0:0:0:
256,192,20819,1,8,0:0:0:0:
256,192,20977,1,8,0:0:0:0:
256,192,21055,1,8,0:0:0:0:
256,192,21134,1,0,0:0:0:0:
256,192,21213,1,8,0:0:0:0:
256,192,21292,1,0,0:0:0:0:
256,192,21450,1,8,0:0:0:0:
256,192,21529,1,0,0:0:0:0:
256,192,21608,1,0,0:0:0:0:
256,192,21687,1,8,0:0:0:0:
256,192,21766,1,0,0:0:0:0:
256,192,21845,1,0,0:0:0:0:
256,192,21924,1,8,0:0:0:0:
256,192,22003,1,0,0:0:0:0:
256,192,22082,1,8,0:0:0:0:
256,192,22240,1,0,0:0:0:0:
256,192,22319,1,0,0:0:0:0:
256,192,22398,1,8,0:0:0:0:
256,192,22555,1,0,0:0:0:0:
256,192,22713,1,0,0:0:0:0:
256,192,22792,1,8,0:0:0:0:
256,192,22871,1,0,0:0:0:0:
256,192,22950,1,8,0:0:0:0:
256,192,23029,1,0,0:0:0:0:
256,192,23187,1,8,0:0:0:0:
256,192,23266,1,0,0:0:0:0:
256,192,23345,1,8,0:0:0:0:
256,192,23503,1,8,0:0:0:0:
256,192,23582,1,8,0:0:0:0:
256,192,23661,1,0,0:0:0:0:
256,192,23740,1,0,0:0:0:0:
256,192,23819,1,8,0:0:0:0:
256,192,23898,1,8,0:0:0:0:
256,192,23977,1,0,0:0:0:0:
256,192,24134,1,8,0:0:0:0:
256,192,24213,1,8,0:0:0:0:
256,192,24292,1,0,0:0:0:0:
256,192,24371,1,0,0:0:0:0:
256,192,24450,1,8,0:0:0:0:
256,192,24529,1,0,0:0:0:0:
256,192,24608,1,8,0:0:0:0:
256,192,24766,1,8,0:0:0:0:
256,192,24845,1,8,0:0:0:0:
256,192,24924,1,0,0:0:0:0:
256,192,25082,1,8,0:0:0:0:
256,192,25240,1,0,0:0:0:0:
256,192,25319,1,8,0:0:0:0:
256,192,25398,1,8,0:0:0:0:
256,192,25477,1,0,0:0:0:0:
256,192,25555,1,8,0:0:0:0:
256,192,25634,1,0,0:0:0:0:
256,192,25713,1,0,0:0:0:0:
256,192,25792,1,0,0:0:0:0:
256,192,25871,1,8,0:0:0:0:
256,192,26029,1,8,0:0:0:0:
256,192,26108,1,8,0:0:0:0:
256,192,26187,1,0,0:0:0:0:
256,192,26345,1,8,0:0:0:0:
256,192,26503,1,0,0:0:0:0:
256,192,26582,1,8,0:0:0:0:
256,192,26661,1,8,0:0:0:0:
256,192,26740,1,0,0:0:0:0:
256,192,26819,1,0,0:0:0:0:
256,192,26898,1,8,0:0:0:0:
256,192,26977,1,0,0:0:0:0:
256,192,27055,1,0,0:0:0:0:
256,192,27134,1,8,0:0:0:0:
256,192,27292,1,0,0:0:0:0:
256,192,27371,1,8,0:0:0:0:
256,192,27450,1,0,0:0:0:0:
256,192,27608,1,8,0:0:0:0:
256,192,27766,1,0,0:0:0:0:
256,192,27845,1,8,0:0:0:0:
256,192,27924,1,0,0:0:0:0:
256,192,28003,1,8,0:0:0:0:
256,192,28082,1,0,0:0:0:0:
256,192,28240,1,8,0:0:0:0:
256,192,28319,1,0,0:0:0:0:
256,192,28398,1,8,0:0:0:0:
256,192,28555,1,0,0:0:0:0:
256,192,28634,1,0,0:0:0:0:
256,192,28713,1,8,0:0:0:0:
256,192,28792,1,0,0:0:0:0:
256,192,28871,1,8,0:0:0:0:
256,192,29029,1,0,0:0:0:0:
256,192,29187,1,8,0:0:0:0:
256,192,29266,1,8,0:0:0:0:
256,192,29345,1,0,0:0:0:0:
256,192,29424,1,0,0:0:0:0:
256,192,29503,1,0,0:0:0:0:
256,192,29661,1,8,0:0:0:0:
256,192,29819,1,0,0:0:0:0:
224,192,29898,1,8,0:0:0:0:
256,192,29977,1,0,0:0:0:0:
256,192,30055,1,0,0:0:0:0:
256,192,30134,1,8,0:0:0:0:
256,192,30292,1,0,0:0:0:0:
224,192,30371,1,0,0:0:0:0:
224,192,30450,1,8,0:0:0:0:
224,192,30529,1,0,0:0:0:0:
256,192,30608,1,8,0:0:0:0:
224,192,30687,1,8,0:0:0:0:
224,192,30766,1,0,0:0:0:0:
224,192,30845,1,0,0:0:0:0:
224,192,30924,1,8,0:0:0:0:
224,192,31082,1,8,0:0:0:0:
224,192,31161,1,0,0:0:0:0:
224,192,31240,1,8,0:0:0:0:
224,192,31398,1,8,0:0:0:0:
224,192,31555,1,0,0:0:0:0:
224,192,31634,1,0,0:0:0:0:
224,192,31713,1,8,0:0:0:0:
224,192,31792,1,0,0:0:0:0:
224,192,31871,1,0,0:0:0:0:
224,192,31950,1,0,0:0:0:0:
224,192,32029,1,8,0:0:0:0:
224,192,32108,1,0,0:0:0:0:
224,192,32187,1,8,0:0:0:0:
256,192,32345,1,8,0:0:0:0:
256,192,32424,1,0,0:0:0:0:
256,192,32503,1,8,0:0:0:0:
256,192,32661,1,8,0:0:0:0:
256,192,32819,1,0,0:0:0:0:
256,192,32898,1,0,0:0:0:0:
256,192,32977,1,8,0:0:0:0:
256,192,33055,1,8,0:0:0:0:
256,192,33134,1,0,0:0:0:0:
256,192,33292,1,0,0:0:0:0:
256,192,33371,1,0,0:0:0:0:
256,192,33450,1,8,0:0:0:0:
256,192,33608,1,8,0:0:0:0:
256,192,33687,1,8,0:0:0:0:
256,192,33766,1,0,0:0:0:0:
256,192,33845,1,8,0:0:0:0:
256,192,33924,1,0,0:0:0:0:
224,192,34082,1,0,0:0:0:0:
256,192,34161,1,0,0:0:0:0:
256,192,34240,1,8,0:0:0:0:
224,192,34319,1,8,0:0:0:0:
256,192,34398,1,0,0:0:0:0:
256,192,34477,1,8,0:0:0:0:
224,192,34555,1,0,0:0:0:0:
224,192,34634,1,0,0:0:0:0:
224,192,34713,1,8,0:0:0:0:
256,192,34871,1,8,0:0:0:0:
256,192,34950,1,0,0:0:0:0:
256,192,35029,1,8,0:0:0:0:
256,192,35187,1,8,0:0:0:0:
256,192,35345,1,0,0:0:0:0:
256,192,35424,1,0,0:0:0:0:
256,192,35503,1,8,0:0:0:0:
256,192,35582,1,0,0:0:0:0:
256,192,35661,1,8,0:0:0:0:
256,192,35740,1,8,0:0:0:0:
256,192,35819,1,0,0:0:0:0:
256,192,35898,1,0,0:0:0:0:
256,192,35977,1,8,0:0:0:0:
256,192,36134,1,8,0:0:0:0:
256,192,36213,1,0,0:0:0:0:
256,192,36292,1,8,0:0:0:0:
256,192,36450,1,8,0:0:0:0:
256,192,36608,1,0,0:0:0:0:
256,192,36687,1,0,0:0:0:0:
256,192,36766,1,8,0:0:0:0:
256,192,36845,1,0,0:0:0:0:
256,192,36924,1,0,0:0:0:0:
256,192,37003,1,0,0:0:0:0:
256,192,37082,1,8,0:0:0:0:
256,192,37161,1,0,0:0:0:0:
256,192,37240,1,8,0:0:0:0:
256,192,37398,1,0,0:0:0:0:
256,192,37477,1,0,0:0:0:0:
256,192,37555,1,8,0:0:0:0:
256,192,37713,1,0,0:0:0:0:
256,192,37871,1,0,0:0:0:0:
256,192,37950,1,8,0:0:0:0:
256,192,38029,1,0,0:0:0:0:
256,192,38108,1,8,0:0:0:0:
256,192,38187,1,0,0:0:0:0:
256,192,38503,1,0,0:0:0:0:
256,192,38661,1,8,0:0:0:0:
256,192,38819,1,8,0:0:0:0:
256,192,38898,1,8,0:0:0:0:
256,192,38977,1,0,0:0:0:0:
256,192,39134,1,8,0:0:0:0:
256,192,39292,1,0,0:0:0:0:
256,192,39371,1,8,0:0:0:0:
256,192,39450,1,0,0:0:0:0:
256,192,39529,1,0,0:0:0:0:
256,192,39608,1,8,0:0:0:0:
256,192,39766,1,8,0:0:0:0:
256,192,39845,1,8,0:0:0:0:
256,192,39924,1,0,0:0:0:0:
256,192,40003,1,8,0:0:0:0:
256,192,40082,1,0,0:0:0:0:
256,192,40161,1,0,0:0:0:0:
256,192,40240,1,8,0:0:0:0:
256,192,40398,1,8,0:0:0:0:
256,192,40477,1,8,0:0:0:0:
256,192,40555,1,0,0:0:0:0:
256,192,40634,1,8,0:0:0:0:
256,192,40713,1,0,0:0:0:0:
256,192,40792,1,0,0:0:0:0:
256,192,40871,1,8,0:0:0:0:
256,192,40950,1,0,0:0:0:0:
256,192,41029,1,8,0:0:0:0:
256,192,41108,1,8,0:0:0:0:
256,192,41187,1,0,0:0:0:0:
256,192,41266,1,0,0:0:0:0:
256,192,41345,1,8,0:0:0:0:
256,192,41424,1,0,0:0:0:0:
256,192,41503,1,8,0:0:0:0:
256,192,41661,1,0,0:0:0:0:
256,160,41819,1,8,0:0:0:0:
256,192,41898,1,0,0:0:0:0:
256,192,41977,1,8,0:0:0:0:
256,192,42134,1,0,0:0:0:0:
256,160,42292,1,8,0:0:0:0:
256,160,42450,1,8,0:0:0:0:
256,160,42529,1,0,0:0:0:0:
256,160,42608,1,8,0:0:0:0:
256,160,42687,1,8,0:0:0:0:
256,160,42766,1,0,0:0:0:0:
256,192,42924,1,0,0:0:0:0:
256,192,43003,1,8,0:0:0:0:
256,192,43082,1,0,0:0:0:0:
256,192,43161,1,0,0:0:0:0:
256,192,43240,1,8,0:0:0:0:
256,192,43319,1,8,0:0:0:0:
256,192,43398,1,0,0:0:0:0:
256,192,43477,1,8,0:0:0:0:
256,192,43555,1,0,0:0:0:0:
256,192,43634,1,0,0:0:0:0:
256,192,43713,1,8,0:0:0:0:
256,192,43792,1,8,0:0:0:0:
256,192,43871,1,0,0:0:0:0:
256,192,43950,1,8,0:0:0:0:
256,192,44029,1,0,0:0:0:0:
256,192,44187,1,8,0:0:0:0:
256,192,44345,1,0,0:0:0:0:
256,192,44503,1,0,0:0:0:0:
256,192,44582,1,0,0:0:0:0:
256,192,44661,1,0,0:0:0:0:
256,192,44819,1,8,0:0:0:0:
256,192,44977,1,8,0:0:0:0:
256,192,45055,1,0,0:0:0:0:
256,192,45134,1,8,0:0:0:0:
256,192,45213,1,8,0:0:0:0:
256,192,45292,1,0,0:0:0:0:
256,192,45450,1,0,0:0:0:0:
256,192,45529,1,0,0:0:0:0:
256,192,45608,1,8,0:0:0:0:
256,192,45687,1,0,0:0:0:0:
256,192,45766,1,8,0:0:0:0:
256,192,45845,1,8,0:0:0:0:
256,192,45924,1,0,0:0:0:0:
256,192,46003,1,8,0:0:0:0:
256,192,46082,1,0,0:0:0:0:
256,192,46161,1,0,0:0:0:0:
256,192,46240,1,8,0:0:0:0:
256,192,46319,1,0,0:0:0:0:
256,192,46398,1,8,0:0:0:0:
256,192,46477,1,8,0:0:0:0:
256,192,46555,1,0,0:0:0:0:
256,192,46713,1,0,0:0:0:0:
256,192,46871,1,8,0:0:0:0:
256,192,46950,1,8,0:0:0:0:
256,192,47029,1,0,0:0:0:0:
256,192,47187,1,0,0:0:0:0:
256,192,47345,1,8,0:0:0:0:
256,192,47503,1,0,0:0:0:0:
256,192,47582,1,8,0:0:0:0:
256,192,47661,1,0,0:0:0:0:
256,192,47740,1,0,0:0:0:0:
256,192,47819,1,8,0:0:0:0:
256,192,47977,1,0,0:0:0:0:
256,192,48055,1,0,0:0:0:0:
256,192,48134,1,8,0:0:0:0:
256,192,48213,1,0,0:0:0:0:
256,192,48292,1,8,0:0:0:0:
256,192,48371,1,8,0:0:0:0:
256,192,48450,1,0,0:0:0:0:
256,192,48529,1,8,0:0:0:0:
256,192,48608,1,0,0:0:0:0:
256,192,48687,1,8,0:0:0:0:
256,192,48766,1,8,0:0:0:0:
288,192,48845,1,0,0:0:0:0:
256,192,48924,1,0,0:0:0:0:
256,192,49003,1,8,0:0:0:0:
256,192,49082,1,0,0:0:0:0:
256,192,49240,1,8,0:0:0:0:
256,192,49398,1,8,0:0:0:0:
256,192,49555,1,0,0:0:0:0:
256,192,49634,1,8,0:0:0:0:
256,192,49713,1,0,0:0:0:0:
256,192,49871,1,8,0:0:0:0:
256,192,50029,1,0,0:0:0:0:
256,192,50108,1,8,0:0:0:0:
256,192,50187,1,0,0:0:0:0:
256,192,50266,1,0,0:0:0:0:
256,192,50345,1,8,0:0:0:0:
256,192,50503,1,8,0:0:0:0:
256,192,50582,1,8,0:0:0:0:
256,192,50660,1,0,0:0:0:0:
256,192,50739,1,8,0:0:0:0:
256,192,50818,1,0,0:0:0:0:
256,192,50897,1,0,0:0:0:0:
256,192,50976,1,8,0:0:0:0:
256,192,51055,1,0,0:0:0:0:
256,192,51134,1,8,0:0:0:0:
256,192,51213,1,8,0:0:0:0:
256,192,51292,1,0,0:0:0:0:
256,192,51371,1,0,0:0:0:0:
256,192,51450,1,8,0:0:0:0:
256,192,51529,1,0,0:0:0:0:
256,192,51608,1,8,0:0:0:0:
256,192,51766,1,0,0:0:0:0:
256,160,51924,1,8,0:0:0:0:
256,192,52003,1,0,0:0:0:0:
256,192,52082,1,8,0:0:0:0:
256,192,52239,1,0,0:0:0:0:
256,160,52397,1,8,0:0:0:0:
256,160,52555,1,8,0:0:0:0:
256,160,52634,1,0,0:0:0:0:
256,160,52713,1,8,0:0:0:0:
256,160,52792,1,8,0:0:0:0:
256,160,52871,1,0,0:0:0:0:
256,192,53029,1,0,0:0:0:0:
256,192,53108,1,8,0:0:0:0:
256,192,53187,1,0,0:0:0:0:
256,192,53266,1,0,0:0:0:0:
256,192,53345,1,8,0:0:0:0:
256,192,53424,1,8,0:0:0:0:
256,192,53503,1,0,0:0:0:0:
256,192,53582,1,8,0:0:0:0:
256,192,53660,1,0,0:0:0:0:
256,192,53739,1,0,0:0:0:0:
256,192,53818,1,8,0:0:0:0:
256,192,53897,1,8,0:0:0:0:
256,192,53976,1,0,0:0:0:0:
256,192,54055,1,8,0:0:0:0:
256,192,54134,1,0,0:0:0:0:
256,192,54292,1,8,0:0:0:0:
256,192,54450,1,0,0:0:0:0:
256,192,54608,1,0,0:0:0:0:
256,192,54687,1,0,0:0:0:0:
256,192,54766,1,0,0:0:0:0:
256,192,54924,1,8,0:0:0:0:
256,192,55082,1,8,0:0:0:0:
256,192,55160,1,0,0:0:0:0:
256,192,55239,1,8,0:0:0:0:
256,192,55318,1,8,0:0:0:0:
256,192,55397,1,0,0:0:0:0:
256,192,55555,1,0,0:0:0:0:
256,192,55634,1,0,0:0:0:0:
256,192,55713,1,8,0:0:0:0:
256,192,55792,1,0,0:0:0:0:
256,192,55871,1,8,0:0:0:0:
256,192,55950,1,8,0:0:0:0:
256,192,56029,1,0,0:0:0:0:
256,192,56108,1,8,0:0:0:0:
256,192,56187,1,0,0:0:0:0:
256,192,56266,1,0,0:0:0:0:
256,192,56345,1,8,0:0:0:0:
256,192,56424,1,0,0:0:0:0:
256,192,56503,1,8,0:0:0:0:
256,192,56582,1,8,0:0:0:0:
256,192,56660,1,0,0:0:0:0:
256,192,56818,1,0,0:0:0:0:
256,192,56976,1,8,0:0:0:0:
256,192,57055,1,8,0:0:0:0:
256,192,57134,1,0,0:0:0:0:
256,192,57292,1,0,0:0:0:0:
256,192,57450,1,8,0:0:0:0:
256,192,57608,1,0,0:0:0:0:
256,192,57687,1,8,0:0:0:0:
256,192,57766,1,0,0:0:0:0:
256,192,57845,1,0,0:0:0:0:
256,192,57924,1,8,0:0:0:0:
256,192,58082,1,0,0:0:0:0:
256,192,58240,1,8,0:0:0:0:
224,192,58319,1,0,0:0:0:0:
256,192,58398,1,8,0:0:0:0:
256,192,58555,1,0,0:0:0:0:
256,192,58713,1,8,0:0:0:0:
256,192,58792,1,8,0:0:0:0:
256,192,58871,1,0,0:0:0:0:
256,192,59029,1,8,0:0:0:0:
256,192,59108,1,8,0:0:0:0:
256,192,59187,1,8,0:0:0:0:
256,192,59345,1,8,0:0:0:0:
256,192,59503,1,0,0:0:0:0:
256,192,59661,1,8,0:0:0:0:
256,192,59740,1,0,0:0:0:0:
256,192,59819,1,0,0:0:0:0:
256,192,59898,1,0,0:0:0:0:
256,192,59977,1,8,0:0:0:0:
256,192,60134,1,0,0:0:0:0:
256,192,60213,1,0,0:0:0:0:
256,192,60292,1,8,0:0:0:0:
256,192,60450,1,8,0:0:0:0:
256,192,60608,1,4,0:0:0:0:
256,192,60924,1,8,0:0:0:0:
256,192,61398,1,8,0:0:0:0:
256,192,61555,1,0,0:0:0:0:
256,192,61871,1,8,0:0:0:0:
256,192,62187,1,0,0:0:0:0:
256,192,62345,1,0,0:0:0:0:
256,192,62424,1,0,0:0:0:0:
256,192,62503,1,8,0:0:0:0:
256,192,62819,1,8,0:0:0:0:
256,192,62977,1,8,0:0:0:0:
256,192,63134,1,0,0:0:0:0:
256,192,63450,1,8,0:0:0:0:
256,192,63608,1,0,0:0:0:0:
256,192,63924,1,0,0:0:0:0:
256,192,64082,1,8,0:0:0:0:
256,192,64398,1,0,0:0:0:0:
256,192,64713,1,8,0:0:0:0:
256,192,64871,1,8,0:0:0:0:
256,192,64950,1,0,0:0:0:0:
256,192,65029,1,8,0:0:0:0:
256,192,65266,1,8,0:0:0:0:
256,192,65503,1,0,0:0:0:0:
256,192,65661,1,8,0:0:0:0:
256,192,65977,1,8,0:0:0:0:
256,192,66134,1,0,0:0:0:0:
256,192,66450,1,8,0:0:0:0:
256,192,66608,1,0,0:0:0:0:
256,192,66924,1,8,0:0:0:0:
256,192,67240,1,0,0:0:0:0:
256,192,67398,1,0,0:0:0:0:
256,192,67477,1,8,0:0:0:0:
256,192,67555,1,0,0:0:0:0:
225,184,67792,1,8,0:0:0:0:
256,192,68029,1,0,0:0:0:0:
256,192,68187,1,0,0:0:0:0:
256,192,68266,1,0,0:0:0:0:
256,192,68345,1,8,0:0:0:0:
256,192,68503,1,8,0:0:0:0:
256,192,68661,1,8,0:0:0:0:
256,192,68740,1,0,0:0:0:0:
256,192,68819,1,0,0:0:0:0:
250,223,68898,1,0,0:0:0:0:
256,192,68977,1,8,0:0:0:0:
256,192,69134,1,0,0:0:0:0:
256,192,69292,1,8,0:0:0:0:
256,192,69371,1,8,0:0:0:0:
256,192,69450,1,0,0:0:0:0:
256,192,69766,1,0,0:0:0:0:
256,192,69924,1,8,0:0:0:0:
256,192,70003,1,8,0:0:0:0:
256,192,70082,1,0,0:0:0:0:
256,192,70240,1,8,0:0:0:0:
256,192,70398,1,0,0:0:0:0:
256,192,70555,1,0,0:0:0:0:
278,209,70634,1,0,0:0:0:0:
256,192,70713,1,8,0:0:0:0:
256,192,71029,1,8,0:0:0:0:
256,192,71187,1,8,0:0:0:0:
256,192,71345,1,0,0:0:0:0:
256,192,71661,1,0,0:0:0:0:
256,192,71819,1,8,0:0:0:0:
256,192,71898,1,0,0:0:0:0:
256,192,71977,1,8,0:0:0:0:
256,192,72292,1,8,0:0:0:0:
256,192,72450,1,8,0:0:0:0:
256,192,72529,1,8,0:0:0:0:
256,192,72608,1,0,0:0:0:0:
239,204,72687,1,0,0:0:0:0:
256,192,72766,1,8,0:0:0:0:
256,192,72924,1,0,0:0:0:0:
256,192,73082,1,8,0:0:0:0:
256,192,73161,1,8,0:0:0:0:
256,192,73240,1,0,0:0:0:0:
256,192,73555,1,0,0:0:0:0:
256,192,73713,1,8,0:0:0:0:
256,192,73871,1,0,0:0:0:0:
256,192,74187,1,8,0:0:0:0:
256,192,74345,1,8,0:0:0:0:
256,192,74424,1,8,0:0:0:0:
256,192,74503,1,0,0:0:0:0:
256,192,74819,1,0,0:0:0:0:
256,192,74977,1,0,0:0:0:0:
256,192,75055,1,0,0:0:0:0:
256,192,75134,1,8,0:0:0:0:
240,206,75213,1,0,0:0:0:0:
256,192,75292,1,8,0:0:0:0:
256,192,75450,1,0,0:0:0:0:
256,192,75608,1,0,0:0:0:0:
256,192,75687,1,0,0:0:0:0:
256,192,75766,1,8,0:0:0:0:
256,192,76082,1,0,0:0:0:0:
256,192,76240,1,8,0:0:0:0:
256,192,76398,1,0,0:0:0:0:
256,192,76713,1,8,0:0:0:0:
256,192,76871,1,0,0:0:0:0:
256,192,76950,1,0,0:0:0:0:
256,192,77029,1,8,0:0:0:0:
256,192,77345,1,0,0:0:0:0:
256,192,77503,1,0,0:0:0:0:
269,207,77582,1,0,0:0:0:0:
256,192,77661,1,8,0:0:0:0:
256,192,77740,1,0,0:0:0:0:
256,192,77819,1,8,0:0:0:0:
256,192,77977,1,8,0:0:0:0:
256,192,78134,1,8,0:0:0:0:
256,192,78213,1,8,0:0:0:0:
256,192,78292,1,0,0:0:0:0:
256,192,78450,1,8,0:0:0:0:
250,237,78529,1,0,0:0:0:0:
256,192,78608,1,0,0:0:0:0:
256,192,78687,1,8,0:0:0:0:
256,192,78766,1,0,0:0:0:0:
256,192,78924,1,8,0:0:0:0:
256,192,79082,1,8,0:0:0:0:
256,192,79161,1,8,0:0:0:0:
256,192,79240,1,0,0:0:0:0:
256,192,79555,1,0,0:0:0:0:
256,192,79634,1,0,0:0:0:0:
256,192,79713,1,8,0:0:0:0:
256,192,79871,1,0,0:0:0:0:
256,192,79950,1,0,0:0:0:0:
256,192,80029,1,0,0:0:0:0:
256,192,80187,1,8,0:0:0:0:
256,192,80266,1,8,0:0:0:0:
256,192,80345,1,0,0:0:0:0:
256,192,80503,1,8,0:0:0:0:
249,190,80582,1,8,0:0:0:0:
249,190,80661,1,8,0:0:0:0:
256,192,80819,1,0,0:0:0:0:
256,192,80871,1,0,0:0:0:0:
256,192,80924,1,0,0:0:0:0:
256,192,80977,1,8,0:0:0:0:
256,192,81134,1,8,0:0:0:0:
256,192,81187,1,8,0:0:0:0:
256,192,81240,1,8,0:0:0:0:
256,192,81292,1,0,0:0:0:0:
256,192,81450,1,8,0:0:0:0:
256,192,81608,1,0,0:0:0:0:
256,192,81687,1,8,0:0:0:0:
256,192,81766,1,0,0:0:0:0:
256,192,81924,1,8,0:0:0:0:
256,192,82082,1,0,0:0:0:0:
256,192,82161,1,8,0:0:0:0:
256,192,82240,1,0,0:0:0:0:
256,192,82398,1,8,0:0:0:0:
256,192,82477,1,8,0:0:0:0:
256,192,82555,1,0,0:0:0:0:
256,224,82634,1,0,0:0:0:0:
224,192,82713,1,8,0:0:0:0:
224,192,82871,1,0,0:0:0:0:
256,192,82950,1,8,0:0:0:0:
256,192,83029,1,0,0:0:0:0:
256,192,83187,1,8,0:0:0:0:
224,192,83345,1,0,0:0:0:0:
224,192,83398,1,0,0:0:0:0:
256,192,83450,1,0,0:0:0:0:
256,192,83503,1,8,0:0:0:0:
224,192,83582,1,8,0:0:0:0:
224,192,83661,1,0,0:0:0:0:
224,192,83740,1,0,0:0:0:0:
224,192,83819,1,8,0:0:0:0:
224,192,83977,1,0,0:0:0:0:
224,192,84055,1,8,0:0:0:0:
224,192,84134,1,8,0:0:0:0:
224,192,84213,1,0,0:0:0:0:
224,192,84292,1,0,0:0:0:0:
224,192,84371,1,0,0:0:0:0:
224,192,84450,1,8,0:0:0:0:
224,192,84608,1,8,0:0:0:0:
224,192,84687,1,8,0:0:0:0:
224,192,84766,1,0,0:0:0:0:
224,192,84924,1,8,0:0:0:0:
224,192,85003,1,8,0:0:0:0:
224,192,85082,1,8,0:0:0:0:
224,192,85240,1,0,0:0:0:0:
224,192,85319,1,0,0:0:0:0:
224,192,85398,1,8,0:0:0:0:
224,192,85555,1,0,0:0:0:0:
224,192,85634,1,0,0:0:0:0:
224,192,85713,1,0,0:0:0:0:
224,192,85871,1,8,0:0:0:0:
224,192,85924,1,8,0:0:0:0:
224,192,85977,1,8,0:0:0:0:
224,192,86029,1,0,0:0:0:0:
224,192,86187,1,8,0:0:0:0:
224,192,86240,1,8,0:0:0:0:
224,192,86292,1,8,0:0:0:0:
224,192,86345,1,0,0:0:0:0:
256,192,86503,1,8,0:0:0:0:
224,192,86661,1,0,0:0:0:0:
224,192,86740,1,8,0:0:0:0:
256,192,86819,1,0,0:0:0:0:
256,192,86977,1,8,0:0:0:0:
256,192,87134,1,0,0:0:0:0:
256,192,87213,1,0,0:0:0:0:
256,192,87292,1,8,0:0:0:0:
256,192,87450,1,8,0:0:0:0:
256,192,87529,1,0,0:0:0:0:
256,192,87608,1,0,0:0:0:0:
256,192,87687,1,0,0:0:0:0:
256,192,87766,1,8,0:0:0:0:
256,192,87924,1,0,0:0:0:0:
256,192,88003,1,8,0:0:0:0:
256,192,88082,1,0,0:0:0:0:
256,192,88240,1,8,0:0:0:0:
256,192,88398,1,0,0:0:0:0:
256,192,88450,1,0,0:0:0:0:
256,192,88503,1,0,0:0:0:0:
256,192,88555,1,8,0:0:0:0:
256,192,88634,1,8,0:0:0:0:
256,192,88713,1,0,0:0:0:0:
256,192,88792,1,0,0:0:0:0:
256,192,88871,1,8,0:0:0:0:
256,192,89029,1,8,0:0:0:0:
256,192,89108,1,8,0:0:0:0:
256,192,89187,1,0,0:0:0:0:
256,192,89266,1,8,0:0:0:0:
256,192,89345,1,0,0:0:0:0:
256,192,89424,1,0,0:0:0:0:
256,192,89503,1,8,0:0:0:0:
256,192,89661,1,8,0:0:0:0:
256,192,89740,1,8,0:0:0:0:
256,192,89819,1,0,0:0:0:0:
256,192,89977,1,0,0:0:0:0:
256,192,90055,1,0,0:0:0:0:
256,192,90134,1,8,0:0:0:0:
256,192,90292,1,0,0:0:0:0:
256,192,90371,1,0,0:0:0:0:
256,192,90450,1,0,0:0:0:0:
256,192,90608,1,8,0:0:0:0:
256,192,90687,1,8,0:0:0:0:
256,192,90766,1,8,0:0:0:0:
256,192,90924,1,0,0:0:0:0:
256,192,90976,1,0,0:0:0:0:
256,192,91029,1,0,0:0:0:0:
256,192,91082,1,8,0:0:0:0:
256,192,91239,1,8,0:0:0:0:
256,192,91292,1,8,0:0:0:0:
256,192,91345,1,8,0:0:0:0:
256,192,91397,1,0,0:0:0:0:
256,192,91555,1,8,0:0:0:0:
256,192,91713,1,0,0:0:0:0:
256,192,91792,1,8,0:0:0:0:
256,192,91871,1,0,0:0:0:0:
256,192,92029,1,8,0:0:0:0:
256,192,92187,1,0,0:0:0:0:
256,192,92266,1,8,0:0:0:0:
256,192,92345,1,0,0:0:0:0:
256,192,92503,1,8,0:0:0:0:
256,192,92582,1,8,0:0:0:0:
256,192,92660,1,0,0:0:0:0:
256,224,92739,1,0,0:0:0:0:
224,192,92818,1,8,0:0:0:0:
224,192,92976,1,0,0:0:0:0:
256,192,93055,1,8,0:0:0:0:
256,192,93134,1,0,0:0:0:0:
256,192,93292,1,8,0:0:0:0:
224,192,93450,1,0,0:0:0:0:
224,192,93503,1,0,0:0:0:0:
256,192,93555,1,0,0:0:0:0:
256,192,93608,1,8,0:0:0:0:
224,192,93687,1,8,0:0:0:0:
224,192,93766,1,0,0:0:0:0:
224,192,93845,1,0,0:0:0:0:
224,192,93924,1,8,0:0:0:0:
224,192,94082,1,0,0:0:0:0:
224,192,94160,1,8,0:0:0:0:
224,192,94239,1,8,0:0:0:0:
224,192,94318,1,0,0:0:0:0:
224,192,94397,1,0,0:0:0:0:
256,192,94477,1,8,0:0:0:0:
224,192,94555,1,0,0:0:0:0:
224,192,94713,1,8,0:0:0:0:
224,192,94792,1,8,0:0:0:0:
224,192,94871,1,0,0:0:0:0:
224,192,95029,1,8,0:0:0:0:
224,192,95108,1,8,0:0:0:0:
224,192,95187,1,8,0:0:0:0:
224,192,95345,1,0,0:0:0:0:
224,192,95424,1,0,0:0:0:0:
224,192,95503,1,8,0:0:0:0:
224,192,95660,1,0,0:0:0:0:
224,192,95739,1,0,0:0:0:0:
224,192,95818,1,0,0:0:0:0:
224,192,95976,1,8,0:0:0:0:
224,192,96029,1,8,0:0:0:0:
224,192,96082,1,8,0:0:0:0:
224,192,96134,1,0,0:0:0:0:
224,192,96292,1,8,0:0:0:0:
224,192,96345,1,8,0:0:0:0:
224,192,96397,1,8,0:0:0:0:
224,192,96450,1,0,0:0:0:0:
256,192,96608,1,8,0:0:0:0:
224,192,96766,1,0,0:0:0:0:
224,192,96845,1,8,0:0:0:0:
256,192,96924,1,0,0:0:0:0:
256,192,97082,1,8,0:0:0:0:
256,192,97239,1,0,0:0:0:0:
256,192,97318,1,0,0:0:0:0:
256,192,97397,1,8,0:0:0:0:
256,192,97555,1,8,0:0:0:0:
256,192,97634,1,0,0:0:0:0:
256,192,97713,1,0,0:0:0:0:
256,192,97792,1,0,0:0:0:0:
256,192,97871,1,8,0:0:0:0:
256,192,98029,1,0,0:0:0:0:
256,192,98108,1,8,0:0:0:0:
256,192,98187,1,0,0:0:0:0:
256,192,98345,1,8,0:0:0:0:
256,192,98503,1,0,0:0:0:0:
256,192,98555,1,0,0:0:0:0:
256,192,98608,1,0,0:0:0:0:
256,192,98660,1,8,0:0:0:0:
256,192,98739,1,8,0:0:0:0:
256,192,98818,1,0,0:0:0:0:
256,192,98897,1,0,0:0:0:0:
256,192,98976,1,8,0:0:0:0:
256,192,99134,1,8,0:0:0:0:
256,192,99213,1,8,0:0:0:0:
256,192,99292,1,0,0:0:0:0:
256,192,99371,1,8,0:0:0:0:
256,192,99450,1,0,0:0:0:0:
256,192,99529,1,0,0:0:0:0:
256,192,99608,1,8,0:0:0:0:
256,192,99766,1,0,0:0:0:0:
256,192,99845,1,0,0:0:0:0:
256,192,99924,1,8,0:0:0:0:
256,192,100082,1,8,0:0:0:0:
256,192,100240,1,0,0:0:0:0:
256,192,100398,1,8,0:0:0:0:
256,192,100555,1,0,0:0:0:0:
256,192,100713,1,8,0:0:0:0:
256,192,100871,1,8,0:0:0:0:
256,192,101029,1,0,0:0:0:0:
256,192,101108,1,0,0:0:0:0:
256,192,101266,1,8,0:0:0:0:
256,192,101345,1,0,0:0:0:0:
256,192,101503,1,0,0:0:0:0:
256,192,101661,1,8,0:0:0:0:
256,192,101819,1,0,0:0:0:0:
256,192,101898,1,8,0:0:0:0:
256,192,101977,1,0,0:0:0:0:
256,192,102055,1,0,0:0:0:0:
256,192,102134,1,8,0:0:0:0:
256,192,102292,1,8,0:0:0:0:
256,192,102371,1,0,0:0:0:0:
256,192,102529,1,0,0:0:0:0:
256,192,102608,1,8,0:0:0:0:
256,192,102766,1,0,0:0:0:0:
256,192,102924,1,8,0:0:0:0:
256,192,103240,1,0,0:0:0:0:
256,192,103319,1,8,0:0:0:0:
256,192,103398,1,0,0:0:0:0:
256,192,103477,1,0,0:0:0:0:
256,192,103555,1,8,0:0:0:0:
256,192,103634,1,0,0:0:0:0:
256,192,103792,1,0,0:0:0:0:
256,192,103871,1,8,0:0:0:0:
256,192,104029,1,0,0:0:0:0:
256,192,104187,1,8,0:0:0:0:
256,192,104345,1,8,0:0:0:0:
256,192,104424,1,8,0:0:0:0:
256,192,104503,1,0,0:0:0:0:
256,192,104661,1,8,0:0:0:0:
256,192,104819,1,0,0:0:0:0:
256,192,104898,1,0,0:0:0:0:
256,192,105055,1,0,0:0:0:0:
256,192,105134,1,8,0:0:0:0:
256,192,105292,1,0,0:0:0:0:
256,192,105450,1,8,0:0:0:0:
256,192,105608,1,8,0:0:0:0:
256,192,105687,1,0,0:0:0:0:
256,192,105766,1,8,0:0:0:0:
256,192,105924,1,8,0:0:0:0:
256,192,106082,1,0,0:0:0:0:
224,192,106161,1,8,0:0:0:0:
256,192,106319,1,0,0:0:0:0:
256,192,106398,1,0,0:0:0:0:
256,192,106555,1,0,0:0:0:0:
256,192,106713,1,8,0:0:0:0:
256,192,106871,1,8,0:0:0:0:
256,192,106950,1,8,0:0:0:0:
256,192,107029,1,0,0:0:0:0:
256,192,107187,1,8,0:0:0:0:
256,192,107345,1,0,0:0:0:0:
256,192,107424,1,8,0:0:0:0:
256,192,107582,1,8,0:0:0:0:
256,192,107661,1,8,0:0:0:0:
256,192,107819,1,0,0:0:0:0:
256,192,107977,1,8,0:0:0:0:
256,192,108292,1,8,0:0:0:0:
256,192,108371,1,8,0:0:0:0:
256,192,108450,1,8,0:0:0:0:
256,192,108529,1,0,0:0:0:0:
256,192,108608,1,8,0:0:0:0:
256,192,108687,1,0,0:0:0:0:
256,192,108845,1,0,0:0:0:0:
256,192,108924,1,8,0:0:0:0:
256,192,109082,1,0,0:0:0:0:
256,192,109240,1,8,0:0:0:0:
256,192,109398,1,8,0:0:0:0:
256,192,109477,1,8,0:0:0:0:
256,192,109555,1,0,0:0:0:0:
256,192,109713,1,8,0:0:0:0:
256,192,109871,1,0,0:0:0:0:
256,192,109950,1,0,0:0:0:0:
256,192,110108,1,8,0:0:0:0:
256,192,110187,1,8,0:0:0:0:
256,192,110345,1,0,0:0:0:0:
256,192,110503,1,8,0:0:0:0:
256,192,110661,1,8,0:0:0:0:
256,192,110740,1,0,0:0:0:0:
256,192,110819,1,8,0:0:0:0:
256,192,110977,1,8,0:0:0:0:
256,192,111134,1,0,0:0:0:0:
256,192,111213,1,0,0:0:0:0:
256,192,111371,1,8,0:0:0:0:
256,192,111450,1,0,0:0:0:0:
256,192,111608,1,0,0:0:0:0:
256,192,111766,1,8,0:0:0:0:
256,192,111924,1,0,0:0:0:0:
256,192,112003,1,8,0:0:0:0:
256,192,112082,1,0,0:0:0:0:
256,192,112160,1,0,0:0:0:0:
256,192,112239,1,8,0:0:0:0:
256,192,112397,1,8,0:0:0:0:
256,192,112476,1,0,0:0:0:0:
256,192,112634,1,0,0:0:0:0:
256,192,112713,1,8,0:0:0:0:
256,192,112871,1,0,0:0:0:0:
256,192,113029,1,8,0:0:0:0:
256,192,113345,1,0,0:0:0:0:
256,192,113424,1,8,0:0:0:0:
256,192,113503,1,0,0:0:0:0:
256,192,113582,1,0,0:0:0:0:
256,192,113660,1,8,0:0:0:0:
256,192,113739,1,0,0:0:0:0:
256,192,113897,1,0,0:0:0:0:
256,192,113976,1,8,0:0:0:0:
256,192,114134,1,0,0:0:0:0:
256,192,114292,1,8,0:0:0:0:
256,192,114450,1,8,0:0:0:0:
256,192,114529,1,8,0:0:0:0:
256,192,114608,1,0,0:0:0:0:
256,192,114766,1,8,0:0:0:0:
256,192,114924,1,0,0:0:0:0:
256,192,115003,1,0,0:0:0:0:
256,192,115160,1,0,0:0:0:0:
256,192,115239,1,8,0:0:0:0:
256,192,115397,1,0,0:0:0:0:
256,192,115555,1,8,0:0:0:0:
256,192,115713,1,8,0:0:0:0:
256,192,115792,1,0,0:0:0:0:
256,192,115871,1,8,0:0:0:0:
256,192,116029,1,8,0:0:0:0:
256,192,116187,1,0,0:0:0:0:
224,192,116266,1,8,0:0:0:0:
256,192,116424,1,0,0:0:0:0:
256,192,116503,1,0,0:0:0:0:
256,192,116660,1,0,0:0:0:0:
256,192,116818,1,8,0:0:0:0:
256,192,116976,1,8,0:0:0:0:
256,192,117055,1,8,0:0:0:0:
256,192,117134,1,0,0:0:0:0:
256,192,117292,1,8,0:0:0:0:
256,192,117450,1,0,0:0:0:0:
256,192,117529,1,8,0:0:0:0:
256,192,117687,1,8,0:0:0:0:
256,192,117766,1,8,0:0:0:0:
256,192,117924,1,0,0:0:0:0:
256,192,118082,1,8,0:0:0:0:
256,192,118397,1,8,0:0:0:0:
256,192,118476,1,8,0:0:0:0:
256,192,118555,1,8,0:0:0:0:
256,192,118634,1,0,0:0:0:0:
256,192,118713,1,8,0:0:0:0:
256,192,118792,1,0,0:0:0:0:
256,192,118950,1,0,0:0:0:0:
256,192,119029,1,8,0:0:0:0:
256,192,119187,1,0,0:0:0:0:
256,192,119345,1,8,0:0:0:0:
256,192,119503,1,8,0:0:0:0:
256,192,119582,1,8,0:0:0:0:
256,192,119660,1,0,0:0:0:0:
256,192,119818,1,8,0:0:0:0:
256,192,119977,1,0,0:0:0:0:
256,192,120292,1,8,0:0:0:0:
256,224,120450,1,0,0:0:0:0:
256,192,120503,1,0,0:0:0:0:
256,192,120555,1,0,0:0:0:0:
256,192,120608,1,8,0:0:0:0:
256,192,120766,1,0,0:0:0:0:
224,192,120924,1,8,0:0:0:0:
256,192,121082,1,8,0:0:0:0:
256,192,121240,1,4,0:0:0:0:
