osu file format v14

[General]
AudioFilename: audio.mp3
AudioLeadIn: 0
PreviewTime: 40395
Countdown: 0
SampleSet: Normal
StackLeniency: 0.7
Mode: 1
LetterboxInBreaks: 0
WidescreenStoryboard: 1

[Editor]
Bookmarks: 10079,20184,40395,60605,80816,101026,121237
DistanceSpacing: 1.3
BeatDivisor: 4
GridSize: 32
TimelineZoom: 1.8

[Metadata]
Title:just a moment
TitleUnicode:just a moment
Artist:DREAMWARE
ArtistUnicode:DREAMWARE
Creator:Dekovner
Version:Erowdi's Kantan
Source:
Tags:lunacore dariacore moment hyperflip vierre cloud ulko ulqui nozdormu erowdi electronic english frou a new kind of love randelman4ik katagiri k_a_t_a_g_i_r_i albionshallah lildeath lil death Imogen Heap Guy Sigsworth
BeatmapID:4109868
BeatmapSetID:1976706

[Difficulty]
HPDrainRate:8
CircleSize:3.8
OverallDifficulty:3
ApproachRate:9.4
SliderMultiplier:1.28
SliderTickRate:1

[Events]
//Background and Video events
0,0,"103538739_p0_waifu2x_art_noise21.jpg",0,0
//Break Periods
2,60808,77752
//Storyboard Layer 0 (Background)
//Storyboard Layer 1 (Fail)
//Storyboard Layer 2 (Pass)
//Storyboard Layer 3 (Foreground)
//Storyboard Layer 4 (Overlay)
//Storyboard Sound Samples

[TimingPoints]
-23,315.789473684211,4,1,0,100,1,0
3608,-100,4,1,0,60,0,0
9924,-100,4,1,0,80,0,0
20187,-100,4,1,0,100,0,1
38503,-100,4,1,0,100,0,0
40398,-100,4,1,0,100,0,1
58713,-100,4,1,0,100,0,0
60608,-100,4,1,0,100,0,0
60766,-100,4,1,0,50,0,0
77977,-100,4,1,0,60,0,0
80819,-100,4,1,0,100,0,1
99766,-100,4,1,0,100,0,0
101029,-100,4,1,0,100,0,1
119977,-100,4,1,0,100,0,0
120134,-100,4,1,0,75,0,0
121220,-100,4,1,0,100,0,0

[HitObjects]
256,192,3766,12,0,9450,0:0:0:0:
256,192,10082,5,12,0:0:0:0:
256,192,10398,1,0,0:0:0:0:
256,192,11029,1,8,0:0:0:0:
256,192,11345,1,8,0:0:0:0:
256,192,11661,1,0,0:0:0:0:
256,192,12292,1,8,0:0:0:0:
256,192,12608,1,0,0:0:0:0:
256,192,13082,1,8,0:0:0:0:
256,192,13555,1,8,0:0:0:0:
256,192,13871,1,0,0:0:0:0:
256,192,14819,1,8,0:0:0:0:
256,192,15134,1,8,0:0:0:0:
256,192,15608,1,0,0:0:0:0:
256,192,16082,1,8,0:0:0:0:
256,192,16398,1,0,0:0:0:0:
256,192,16871,1,0,0:0:0:0:
256,192,17345,1,0,0:0:0:0:
256,192,17661,12,0,19871,0:0:0:0:
256,192,20187,5,12,0:0:0:0:
256,192,20503,1,8,0:0:0:0:
256,192,20819,1,8,0:0:0:0:
256,192,21450,1,0,0:0:0:0:
256,192,21766,1,0,0:0:0:0:
256,192,22082,1,8,0:0:0:0:
256,192,22713,1,8,0:0:0:0:
256,192,23345,1,8,0:0:0:0:
256,192,23661,1,0,0:0:0:0:
256,192,23977,1,8,0:0:0:0:
256,192,25240,5,4,0:0:0:0:
256,192,25872,1,8,0:0:0:0:
256,192,26503,1,0,0:0:0:0:
256,192,26819,1,0,0:0:0:0:
256,192,27135,1,8,0:0:0:0:
256,192,27766,1,8,0:0:0:0:
256,192,28398,1,8,0:0:0:0:
256,192,28714,1,0,0:0:0:0:
256,192,29030,1,8,0:0:0:0:
256,192,30292,5,4,0:0:0:0:
256,192,30608,1,8,0:0:0:0:
256,192,30924,1,8,0:0:0:0:
256,192,31555,1,0,0:0:0:0:
256,192,31871,1,0,0:0:0:0:
256,192,32187,1,8,0:0:0:0:
256,192,32818,1,8,0:0:0:0:
256,192,33450,1,8,0:0:0:0:
256,192,33766,1,8,0:0:0:0:
256,192,34082,1,0,0:0:0:0:
256,192,35345,1,12,0:0:0:0:
256,192,35661,1,8,0:0:0:0:
256,192,35977,1,8,0:0:0:0:
256,192,36608,1,8,0:0:0:0:
256,192,36924,1,0,0:0:0:0:
256,192,37240,1,8,0:0:0:0:
256,192,37871,1,4,0:0:0:0:
256,192,38503,1,8,0:0:0:0:
256,192,40398,1,4,0:0:0:0:
256,192,41029,1,8,0:0:0:0:
256,192,41661,1,8,0:0:0:0:
256,192,41977,1,8,0:0:0:0:
256,192,42292,1,0,0:0:0:0:
256,192,42924,1,8,0:0:0:0:
256,192,43240,1,8,0:0:0:0:
256,192,43555,1,0,0:0:0:0:
256,192,43871,1,8,0:0:0:0:
256,192,44187,1,0,0:0:0:0:
256,192,45450,1,12,0:0:0:0:
256,192,46081,1,8,0:0:0:0:
256,192,46713,1,0,0:0:0:0:
256,192,47029,1,0,0:0:0:0:
256,192,47344,1,8,0:0:0:0:
256,192,47976,1,0,0:0:0:0:
256,192,48292,1,8,0:0:0:0:
256,192,48607,1,8,0:0:0:0:
256,192,48923,1,8,0:0:0:0:
256,192,49239,1,0,0:0:0:0:
256,192,50503,1,4,0:0:0:0:
256,192,51134,1,8,0:0:0:0:
256,192,51766,1,8,0:0:0:0:
256,192,52082,1,0,0:0:0:0:
256,192,52397,1,8,0:0:0:0:
256,192,53029,1,8,0:0:0:0:
256,192,53345,1,0,0:0:0:0:
256,192,53660,1,8,0:0:0:0:
256,192,53976,1,0,0:0:0:0:
256,192,54292,1,0,0:0:0:0:
256,192,55555,1,12,0:0:0:0:
256,192,56186,1,8,0:0:0:0:
256,192,56818,1,0,0:0:0:0:
256,192,57134,1,0,0:0:0:0:
256,192,57449,1,8,0:0:0:0:
256,192,58081,1,8,0:0:0:0:
256,192,58398,1,0,0:0:0:0:
256,192,58713,1,0,0:0:0:0:
256,192,59977,1,8,0:0:0:0:
256,192,60608,1,4,0:0:0:0:
256,192,78292,12,0,80503,0:0:0:0:
224,192,80819,5,12,0:0:0:0:
224,192,81134,1,12,0:0:0:0:
224,192,81450,1,8,0:0:0:0:
224,192,82082,1,0,0:0:0:0:
224,192,82398,1,0,0:0:0:0:
224,192,82713,1,8,0:0:0:0:
224,192,83345,1,8,0:0:0:0:
224,192,83819,1,8,0:0:0:0:
224,192,84292,1,0,0:0:0:0:
224,192,84608,1,8,0:0:0:0:
224,192,85871,5,4,0:0:0:0:
224,192,86186,1,4,0:0:0:0:
224,192,86502,1,8,0:0:0:0:
224,192,87134,1,0,0:0:0:0:
224,192,87450,1,0,0:0:0:0:
224,192,87765,1,8,0:0:0:0:
224,192,88397,1,8,0:0:0:0:
224,192,88871,1,8,0:0:0:0:
224,192,89344,1,0,0:0:0:0:
224,192,89660,1,8,0:0:0:0:
224,192,90924,5,4,0:0:0:0:
224,192,91239,1,4,0:0:0:0:
224,192,91555,1,8,0:0:0:0:
224,192,92187,1,8,0:0:0:0:
224,192,92503,1,0,0:0:0:0:
224,192,92818,1,8,0:0:0:0:
224,192,93450,1,0,0:0:0:0:
224,192,93924,1,8,0:0:0:0:
224,192,94397,1,8,0:0:0:0:
224,192,94713,1,0,0:0:0:0:
224,192,95977,5,12,0:0:0:0:
224,192,96292,1,12,0:0:0:0:
224,192,96608,1,8,0:0:0:0:
224,192,97240,1,8,0:0:0:0:
224,192,97556,1,0,0:0:0:0:
224,192,97871,1,8,0:0:0:0:
224,192,98503,1,0,0:0:0:0:
224,192,98977,1,8,0:0:0:0:
256,192,99450,1,0,0:0:0:0:
256,192,99766,1,8,0:0:0:0:
64,288,101029,5,4,0:0:0:0:
256,192,101661,1,8,0:0:0:0:
256,192,102292,1,0,0:0:0:0:
256,192,103240,1,0,0:0:0:0:
256,192,103555,1,12,0:0:0:0:
256,192,104187,1,8,0:0:0:0:
256,192,104819,1,0,0:0:0:0:
256,192,105766,1,0,0:0:0:0:
256,192,106082,1,4,0:0:0:0:
256,192,106713,1,8,0:0:0:0:
256,192,107345,1,0,0:0:0:0:
256,192,108292,1,8,0:0:0:0:
256,192,108608,1,4,0:0:0:0:
256,192,109240,1,8,0:0:0:0:
256,192,109871,1,0,0:0:0:0:
256,192,110819,1,0,0:0:0:0:
256,192,111134,1,12,0:0:0:0:
256,192,111766,1,8,0:0:0:0:
256,192,112398,1,0,0:0:0:0:
256,192,113345,1,8,0:0:0:0:
256,192,113661,1,12,0:0:0:0:
256,192,114292,1,8,0:0:0:0:
256,192,114924,1,0,0:0:0:0:
256,192,115871,1,0,0:0:0:0:
256,192,116187,1,12,0:0:0:0:
256,192,116819,1,8,0:0:0:0:
256,192,117450,1,0,0:0:0:0:
256,192,118398,1,8,0:0:0:0:
256,192,118713,5,4,0:0:0:0:
256,192,119345,1,8,0:0:0:0:
256,192,119661,1,8,0:0:0:0:
256,192,119977,5,4,0:0:0:0:
256,192,121240,1,12,0:0:0:0:
