osu file format v14

[General]
AudioFilename: audio.mp3
AudioLeadIn: 0
PreviewTime: 49562
Countdown: 0
SampleSet: Soft
StackLeniency: 0.3
Mode: 0
LetterboxInBreaks: 0
WidescreenStoryboard: 1

[Editor]
DistanceSpacing: 1
BeatDivisor: 4
GridSize: 4
TimelineZoom: 3.099999

[Metadata]
Title:YOU AND I
TitleUnicode:YOU AND I
Artist:Dreamcatcher
ArtistUnicode:드림캐쳐
Creator:Yamakudzi
Version:Easy
Source:
Tags:krock korean kpop k-pop 지유 수아 시연 한동 유현 다미 가현 ji-u su-a siyeon handong yoohyun dami Gahyeon Agatsu Cris- Haruto Haruto_Aizawa TheMefisto Akitoshi Corinn tatemae Anishina_Kodoku Loreley Hazu-
BeatmapID:1937835
BeatmapSetID:901170

[Difficulty]
HPDrainRate:3
CircleSize:2.7
OverallDifficulty:4
ApproachRate:3.7
SliderMultiplier:0.95
SliderTickRate:1

[Events]
//Background and Video events
0,0,"aFxoowCqHU.png",0,0
//Break Periods
2,30387,38938
//Storyboard Layer 0 (Background)
//Storyboard Layer 1 (Fail)
//Storyboard Layer 2 (Pass)
//Storyboard Layer 3 (Foreground)
//Storyboard Layer 4 (Overlay)
//Storyboard Sound Samples

[TimingPoints]
706,309.278350515464,4,2,1,40,1,0
706,-100,4,2,1,40,0,0
5654,-100,4,2,1,45,0,0
6891,-100,4,2,1,55,0,0
7200,-100,4,2,1,60,0,0
7510,-100,4,2,1,65,0,0
7819,-100,4,2,1,70,0,0
8128,-100,4,2,1,75,0,0
8437,-100,4,2,1,80,0,0
8747,-100,4,2,1,85,0,0
9056,-100,4,2,1,90,0,0
9365,-100,4,2,1,95,0,0
9675,-100,4,2,1,100,0,0
9984,-100,4,2,1,5,0,0
10602,-100,4,2,1,60,0,0
20499,-100,4,2,1,65,0,0
30396,-100,4,2,1,45,0,0
40293,-100,4,2,1,70,0,0
45242,-100,4,2,1,75,0,0
49571,-100,4,2,1,80,0,0
50190,-100,4,2,1,80,0,1
59468,-100,4,2,1,80,0,0
60087,-100,4,2,1,80,0,1
67200,-100,4,2,1,80,0,0
67510,-100,4,2,1,80,0,1
67664,-100,4,2,1,80,0,0
67974,-100,4,2,1,80,0,1
68128,-100,4,2,1,80,0,0
68437,-100,4,2,1,80,0,1
68592,-100,4,2,1,80,0,0
68747,-100,4,2,1,80,0,1
68901,-100,4,2,1,80,0,0
69984,-100,4,2,1,80,0,0
77407,-100,4,2,1,80,0,0
78616,309.278350515464,4,2,1,80,1,0

[Colours]
Combo1 : 213,227,227
Combo2 : 174,187,172
Combo3 : 15,213,255
Combo4 : 176,180,120

[HitObjects]
479,123,10602,5,6,1:3:0:0:
417,195,10912,2,0,B|359:184|359:184|303:218|303:218|233:208,1,190,2|10,0:0|1:0,0:0:0:0:
164,148,11840,2,0,B|193:186|193:186|190:297,1,142.5,2|2,0:0|0:0,0:0:0:0:
75,196,12767,1,0,1:2:0:0:
21,117,13077,6,0,P|53:49|167:28,1,190,2|0,0:0|0:0,0:0:0:0:
231,84,14004,1,10,1:0:0:0:
307,140,14314,2,0,P|365:151|403:139,1,95,2|2,0:0|1:2,0:0:0:0:
469,204,14932,2,0,L|463:308,1,95,2|2,0:0|1:2,0:0:0:0:
388,356,15551,6,0,B|347:372|268:354|319:331|255:305|193:336,1,190,2|0,1:2|1:2,0:0:0:0:
122,371,16479,1,8,1:0:0:0:
53,305,16788,2,0,B|68:244|68:244|42:186|42:186|53:118,1,190,2|2,0:0|0:0,0:0:0:0:
132,71,17716,1,2,1:2:0:0:
156,162,18025,6,0,P|207:167|298:65,1,190,2|2,1:2|1:2,0:0:0:0:
375,20,18953,1,10,1:0:0:0:
440,88,19262,2,0,B|455:129|439:177|439:177|454:186|454:186|437:238|452:284,1,190,2|2,0:0|3:0,0:0:0:0:
394,345,20190,1,2,1:2:0:0:
318,286,20499,6,0,B|270:262|270:262|134:294,1,190,6|10,3:2|1:0,0:0:0:0:
55,245,21427,1,2,1:2:0:0:
94,158,21736,2,0,P|98:115|94:49,2,95,2|2|10,0:0|1:2|1:0,0:0:0:0:
175,206,22664,1,2,1:2:0:0:
251,149,22974,6,0,B|310:169|365:144|332:124|377:102|448:126,1,190,2|10,1:2|1:0,0:0:0:0:
499,186,23901,1,2,1:2:0:0:
408,214,24211,2,0,B|393:267|393:267|411:320,2,95,2|2|10,0:0|1:2|1:0,0:0:0:0:
429,121,25138,1,2,1:2:0:0:
346,73,25448,6,0,B|294:62|260:98|260:98|224:64|166:75,1,190,2|10,1:2|1:0,0:0:0:0:
75,71,26376,1,2,1:2:0:0:
42,160,26685,2,0,P|54:202|58:259,1,95,2|2,0:0|1:2,0:0:0:0:
19,339,27303,2,0,B|54:351|54:351|120:338,1,95,10|2,1:0|1:2,0:0:0:0:
170,265,27922,6,0,P|218:238|326:307,1,190,2|10,1:2|1:0,0:0:0:0:
397,359,28850,1,2,1:2:0:0:
473,303,29159,2,0,P|483:263|472:205,2,95,2|2|14,0:0|1:2|1:0,0:0:0:0:
341,62,40293,6,0,L|490:39,2,142.5,4|0|2,0:3|1:2|1:2,0:0:0:0:
275,131,41530,2,0,L|181:117,1,95,2|0,1:2|0:0,0:0:0:0:
94,156,42149,2,0,P|77:200|85:256,1,95,10|2,1:2|1:2,0:0:0:0:
27,324,42767,6,0,B|78:342|78:342|179:318,2,142.5,6|0|2,0:3|1:2|1:2,0:0:0:0:
81,246,44004,2,0,L|181:222,1,95,2|0,1:2|0:0,0:0:0:0:
244,160,44623,2,0,L|336:182,1,95,10|2,1:2|0:0,0:0:0:0:
420,137,45242,5,2,1:2:0:0:
479,210,45551,2,0,P|487:270|479:322,2,95,2|2|2,1:2|1:2|1:2,0:0:0:0:
420,137,46479,1,2,1:2:0:0:
336,182,46788,2,0,P|328:122|336:70,2,95,2|2|2,1:2|1:2|1:2,0:0:0:0:
275,255,47716,6,0,B|197:213|150:250|205:270|101:319|34:286|27:207|22:159|75:117|116:115,1,380,2|2,1:2|3:2,0:0:0:0:
412,334,50190,6,0,P|482:316|505:255,2,142.5,6|2|10,0:0|0:0|0:0,0:0:0:0:
412,238,51427,2,0,B|400:192|400:192|412:132,1,95,2|8,1:2|0:0,0:0:0:0:
349,70,52046,1,0,0:0:0:0:
254,81,52355,1,10,0:0:0:0:
180,22,52664,2,0,B|158:79|158:79|180:179,2,142.5,2|2|10,1:2|1:2|0:0,0:0:0:0:
253,82,53901,2,0,L|279:187,1,95,2|10,1:2|0:0,0:0:0:0:
358,220,54520,2,0,L|332:325,1,95,2|10,1:2|0:0,0:0:0:0:
256,365,55138,6,0,P|214:354|258:284,2,142.5,2|2|10,1:2|0:0|0:0,0:0:0:0:
335,312,56376,2,0,P|365:307|431:297,1,95,2|8,1:2|0:0,0:0:0:0:
479,217,56994,1,0,0:0:0:0:
476,121,57304,1,10,0:0:0:0:
387,85,57613,2,0,L|233:69,2,142.5,2|2|10,1:2|1:2|0:0,0:0:0:0:
352,173,58850,2,0,L|248:162,1,95,2|10,1:2|0:0,0:0:0:0:
171,203,59468,2,0,P|153:251|148:311,1,95,2|10,1:2|0:0,0:0:0:0:
64,337,60087,6,0,P|53:266|30:199,2,142.5,6|2|10,0:0|0:0|0:0,0:0:0:0:
148,380,61324,2,0,L|249:364,1,95,2|8,1:2|0:0,0:0:0:0:
315,304,61943,1,0,0:0:0:0:
408,318,62252,1,0,0:0:0:0:
487,266,62561,2,0,B|504:200|504:200|484:113,2,142.5,2|2|10,1:2|1:2|0:0,0:0:0:0:
408,318,63798,2,0,L|315:304,1,95,2|10,1:2|0:0,0:0:0:0:
250,233,64417,2,0,P|259:193|245:129,1,95,2|10,0:0|0:0,0:0:0:0:
178,77,65035,6,0,P|138:68|73:82,1,95,2|8,1:2|0:0,0:0:0:0:
15,142,65654,2,0,P|6:188|15:234,1,95,2|8,1:2|0:0,0:0:0:0:
86,295,66273,2,0,P|132:303|178:294,1,95,2|8,1:2|0:0,0:0:0:0:
250,233,66891,1,2,0:0:0:0:
323,293,67200,1,14,0:0:0:0:
397,233,67510,6,0,P|404:175|423:83,2,142.5,14|14|14,0:0|0:0|0:0,0:0:0:0:
323,293,68747,1,14,0:0:0:0:
251,230,69056,2,0,B|199:201|143:223|168:256|110:264|65:244,1,190,10|8,0:3|0:0,0:0:0:0:
10,173,69984,6,0,P|3:100|108:48,1,190,6|2,0:0|0:0,0:0:0:0:
161,111,70912,1,8,0:0:0:0:
241,60,71221,2,0,L|340:45,1,95,2|10,1:2|0:0,0:0:0:0:
425,74,71840,2,0,P|453:130|456:179,1,95,2|8,0:0|0:0,0:0:0:0:
402,239,72458,6,0,B|354:272|292:250|325:226|261:207|208:235,1,190,2|2,1:2|0:0,0:0:0:0:
153,295,73386,1,10,0:0:0:0:
79,235,73695,2,0,P|71:192|81:139,1,95,2|10,1:2|0:0,0:0:0:0:
157,87,74314,2,0,P|213:100|263:82,1,95,0|14,1:2|0:0,0:0:0:0:
324,34,74932,6,0,B|348:89|348:89|320:168|320:168|339:231,1,190,6|2,0:0|0:0,0:0:0:0:
398,281,75860,1,8,0:0:0:0:
324,341,76169,2,0,L|217:334,1,95,2|10,1:2|0:0,0:0:0:0:
143,375,76788,2,0,P|131:331|151:272,1,95,2|10,0:0|0:0,0:0:0:0:
229,245,77407,6,0,P|230:130|125:202,1,285,6|0,0:0|0:0,0:0:0:0:
142,284,78616,6,0,L|290:256,2,142.5,14|14|14,0:0|0:0|3:2,0:0:0:0:
