osu file format v14

[General]
AudioFilename: audio.mp3
AudioLeadIn: 0
PreviewTime: 26981
Countdown: 1
SampleSet: Normal
StackLeniency: 0.2
Mode: 1
LetterboxInBreaks: 0
WidescreenStoryboard: 1

[Editor]
DistanceSpacing: 1
BeatDivisor: 3
GridSize: 32
TimelineZoom: 1.8

[Metadata]
Title:Happy Happy Christmas
TitleUnicode:Happy Happy Christmas
Artist:DRAX
ArtistUnicode:DRAX
Creator:Axer
Version:it is a muzukashii
Source:
Tags:chiptune thomas mogensen 1998 h meme digerati keygen dos fasttracker ii maniacs of noise mon
BeatmapID:1710250
BeatmapSetID:815479

[Difficulty]
HPDrainRate:7
CircleSize:2
OverallDifficulty:5
ApproachRate:10
SliderMultiplier:1.4
SliderTickRate:1

[Events]
//Background and Video events
0,0,"BG.png",0,0
//Break Periods
//Storyboard Layer 0 (Background)
//Storyboard Layer 1 (Fail)
//Storyboard Layer 2 (Pass)
//Storyboard Layer 3 (Foreground)
//Storyboard Sound Samples

[TimingPoints]
101,480,4,1,0,30,1,0
26981,-95.2380952380952,4,1,0,45,0,1
42341,-100,4,1,0,30,0,0

[HitObjects]
256,192,101,5,0,0:0:0:0:
256,192,421,1,0,0:0:0:0:
256,192,581,1,8,0:0:0:0:
256,192,901,1,0,0:0:0:0:
256,192,1061,1,8,0:0:0:0:
256,192,1541,1,0,0:0:0:0:
256,192,2021,1,8,0:0:0:0:
256,192,2501,1,0,0:0:0:0:
256,192,2981,1,8,0:0:0:0:
256,192,3461,1,0,0:0:0:0:
256,192,3941,1,0,0:0:0:0:
256,192,4261,1,0,0:0:0:0:
256,192,4421,1,8,0:0:0:0:
256,192,4741,1,0,0:0:0:0:
256,192,4901,1,0,0:0:0:0:
256,192,5221,1,0,0:0:0:0:
256,192,5381,1,8,0:0:0:0:
256,192,5861,1,0,0:0:0:0:
256,192,6181,1,0,0:0:0:0:
256,192,6341,1,8,0:0:0:0:
256,192,6661,1,0,0:0:0:0:
256,192,6821,1,0,0:0:0:0:
256,192,7781,1,0,0:0:0:0:
256,192,8101,1,0,0:0:0:0:
256,192,8261,1,8,0:0:0:0:
256,192,8581,1,0,0:0:0:0:
256,192,8741,1,8,0:0:0:0:
256,192,9221,1,0,0:0:0:0:
256,192,9701,1,8,0:0:0:0:
256,192,10181,1,0,0:0:0:0:
256,192,10661,1,8,0:0:0:0:
256,192,11141,1,0,0:0:0:0:
256,192,11621,1,0,0:0:0:0:
256,192,11941,1,0,0:0:0:0:
256,192,12101,1,8,0:0:0:0:
256,192,12421,1,0,0:0:0:0:
256,192,12581,1,0,0:0:0:0:
256,192,12901,1,0,0:0:0:0:
256,192,13061,1,8,0:0:0:0:
256,192,13541,1,0,0:0:0:0:
256,192,13861,1,0,0:0:0:0:
256,192,14021,1,8,0:0:0:0:
256,192,14341,1,0,0:0:0:0:
256,192,14501,1,0,0:0:0:0:
256,192,15461,1,8,0:0:0:0:
256,192,15781,1,0,0:0:0:0:
256,192,15941,1,8,0:0:0:0:
256,192,16261,1,0,0:0:0:0:
256,192,16421,1,8,0:0:0:0:
256,192,16901,1,0,0:0:0:0:
256,192,17381,1,0,0:0:0:0:
256,192,17541,1,0,0:0:0:0:
256,192,17701,1,0,0:0:0:0:
256,192,17861,1,8,0:0:0:0:
256,192,18181,1,0,0:0:0:0:
256,192,18341,1,8,0:0:0:0:
256,192,19141,1,0,0:0:0:0:
256,192,19301,1,8,0:0:0:0:
256,192,19621,1,0,0:0:0:0:
256,192,19781,1,0,0:0:0:0:
256,192,20101,1,0,0:0:0:0:
256,192,20261,1,8,0:0:0:0:
256,192,20741,1,0,0:0:0:0:
256,192,21221,1,8,0:0:0:0:
256,192,21701,1,0,0:0:0:0:
256,192,22181,1,8,0:0:0:0:
256,192,23141,1,8,0:0:0:0:
256,192,23461,1,0,0:0:0:0:
256,192,23621,1,0,0:0:0:0:
256,192,23941,1,0,0:0:0:0:
256,192,24101,1,8,0:0:0:0:
256,192,24421,1,0,0:0:0:0:
256,192,24581,1,0,0:0:0:0:
256,192,24901,1,0,0:0:0:0:
256,192,25061,1,8,0:0:0:0:
256,192,25381,1,0,0:0:0:0:
256,192,25541,1,8,0:0:0:0:
256,192,25861,1,0,0:0:0:0:
256,192,26021,1,8,0:0:0:0:
256,192,26341,1,8,0:0:0:0:
256,192,26501,1,8,0:0:0:0:
256,192,26981,1,8,0:0:0:0:
256,192,27301,1,0,0:0:0:0:
256,192,27461,1,8,0:0:0:0:
256,192,27781,1,0,0:0:0:0:
256,192,27941,1,8,0:0:0:0:
256,192,28421,1,0,0:0:0:0:
256,192,28901,1,8,0:0:0:0:
256,192,29381,1,0,0:0:0:0:
256,192,29861,1,8,0:0:0:0:
256,192,30821,1,8,0:0:0:0:
256,192,31141,1,0,0:0:0:0:
256,192,31301,1,8,0:0:0:0:
256,192,31621,1,0,0:0:0:0:
256,192,31781,1,8,0:0:0:0:
256,192,32101,1,0,0:0:0:0:
256,192,32261,1,0,0:0:0:0:
256,192,32741,1,8,0:0:0:0:
256,192,33061,1,0,0:0:0:0:
256,192,33221,1,8,0:0:0:0:
256,192,33541,1,8,0:0:0:0:
256,192,33701,1,8,0:0:0:0:
256,192,34661,1,8,0:0:0:0:
256,192,34981,1,0,0:0:0:0:
256,192,35141,1,8,0:0:0:0:
256,192,35461,1,0,0:0:0:0:
256,192,35621,1,8,0:0:0:0:
256,192,36101,1,0,0:0:0:0:
256,192,36581,1,8,0:0:0:0:
256,192,37061,1,0,0:0:0:0:
256,192,37541,1,8,0:0:0:0:
256,192,38501,1,8,0:0:0:0:
256,192,38821,1,0,0:0:0:0:
256,192,38981,1,8,0:0:0:0:
256,192,39301,1,0,0:0:0:0:
256,192,39461,1,8,0:0:0:0:
256,192,39781,1,0,0:0:0:0:
256,192,39941,1,0,0:0:0:0:
256,192,40421,1,8,0:0:0:0:
256,192,40741,1,0,0:0:0:0:
256,192,40901,1,8,0:0:0:0:
256,192,41221,1,8,0:0:0:0:
256,192,41381,1,8,0:0:0:0:
256,192,42341,1,8,0:0:0:0:
256,192,42661,1,0,0:0:0:0:
256,192,42821,1,0,0:0:0:0:
256,192,43141,1,0,0:0:0:0:
256,192,43301,1,8,0:0:0:0:
256,192,43781,1,0,0:0:0:0:
256,192,44261,1,0,0:0:0:0:
256,192,44421,1,0,0:0:0:0:
256,192,44581,1,0,0:0:0:0:
256,192,44741,1,8,0:0:0:0:
256,192,45061,1,0,0:0:0:0:
256,192,45221,1,8,0:0:0:0:
256,192,46021,1,0,0:0:0:0:
256,192,46181,1,8,0:0:0:0:
256,192,46501,1,0,0:0:0:0:
256,192,46661,1,0,0:0:0:0:
256,192,46981,1,0,0:0:0:0:
256,192,47141,1,8,0:0:0:0:
256,192,47621,1,0,0:0:0:0:
256,192,48101,1,8,0:0:0:0:
256,192,48581,1,0,0:0:0:0:
256,192,49061,1,8,0:0:0:0:
256,192,50021,1,8,0:0:0:0:
256,192,50341,1,0,0:0:0:0:
256,192,50501,1,0,0:0:0:0:
256,192,50821,1,0,0:0:0:0:
256,192,50981,1,8,0:0:0:0:
256,192,51301,1,0,0:0:0:0:
256,192,51461,1,0,0:0:0:0:
256,192,51781,1,0,0:0:0:0:
256,192,51941,1,8,0:0:0:0:
256,192,52261,1,0,0:0:0:0:
256,192,52421,1,8,0:0:0:0:
256,192,52741,1,0,0:0:0:0:
256,192,52901,1,8,0:0:0:0:
256,192,53221,1,8,0:0:0:0:
256,192,53381,1,8,0:0:0:0:
