osu file format v14

[General]
AudioFilename: audio.mp3
AudioLeadIn: 0
PreviewTime: 7229
Countdown: 0
SampleSet: Normal
StackLeniency: 0.2
Mode: 0
LetterboxInBreaks: 0
WidescreenStoryboard: 1

[Editor]
DistanceSpacing: 0.5
BeatDivisor: 4
GridSize: 32
TimelineZoom: 1

[Metadata]
Title:Cranberry Animated Ft. LeBron James
TitleUnicode:Cranberry Animated Ft. LeBron James
Artist:DRAM
ArtistUnicode:DRAM
Creator:X4D
Version:wanna Sprite Cranberry?
Source:
Tags:sprite christmas holidays commercial advertisement ad D.R.A.M. hiphop
BeatmapID:1862736
BeatmapSetID:891103

[Difficulty]
HPDrainRate:4.5
CircleSize:3.5
OverallDifficulty:6.5
ApproachRate:8.5
SliderMultiplier:1.4
SliderTickRate:1

[Events]
//Background and Video events
0,0,"x4d_is_weeb.png",0,0
//Break Periods
//Storyboard Layer 0 (Background)
//Storyboard Layer 1 (Fail)
//Storyboard Layer 2 (Pass)
//Storyboard Layer 3 (Foreground)
//Storyboard Sound Samples

[TimingPoints]
237,437.956204379562,4,1,0,100,1,0
4616,-83.3333333333333,4,1,0,100,0,0
5492,425.531914893617,4,1,0,100,1,0
5492,-76.9230769230769,4,1,0,100,0,0
6343,461.538461538462,4,1,0,100,1,0
6804,425.531914893617,4,1,0,100,1,0
7229,425.531914893617,4,1,0,100,1,0
7867,333.333333333333,4,1,0,100,1,0
8450,333.333333333333,4,1,0,100,1,0
8783,287.081339712919,4,1,0,100,1,0
9070,435.57168784029,4,1,0,100,1,0
9070,-66.6666666666667,4,1,0,100,0,0

[HitObjects]
57,106,237,6,0,P|95:96|171:86,1,93.3333333333333
172,102,1112,2,0,L|289:120,2,93.3333333333333
279,38,1988,6,0,P|314:52|342:125,1,93.3333333333333
338,130,2864,2,0,L|323:242,1,93.3333333333333
367,333,3448,1,0,0:0:0:0:
352,327,3740,6,0,P|295:320|240:328,1,93.3333333333333
236,342,4616,2,0,L|250:215,1,111.999996582031
255,151,5054,6,0,P|249:198|270:155,1,111.999996582031
238,136,5492,6,0,P|183:123|100:136,2,121.333327779134
353,169,6343,1,0,0:0:0:0:
353,169,6804,6,0,L|473:150,1,105
473,126,7229,5,0,0:0:0:0:
381,71,7548,6,0,L|375:103,1,17.5
250,122,7867,5,0,0:0:0:0:
239,272,8200,5,0,0:0:0:0:
307,356,8450,6,0,L|165:343,1,140
103,158,9070,6,0,P|165:182|184:222,1,105.000004005432
59,338,9505,1,0,0:0:0:0:
107,233,9723,1,0,0:0:0:0:
151,345,9941,6,0,P|206:324|317:344,1,157.500006008148
302,336,10376,2,0,L|425:321,1,105.000004005432
474,289,10703,1,0,0:0:0:0:
474,289,10812,6,0,P|444:258|383:251,1,105.000004005432
302,336,11247,1,0,0:0:0:0:
354,329,11355,1,0,0:0:0:0:
406,323,11464,1,0,0:0:0:0:
246,144,11683,6,0,B|224:175|224:175|228:255,1,105.000004005432
314,90,12119,1,0,0:0:0:0:
293,74,12227,1,0,0:0:0:0:
268,65,12336,1,0,0:0:0:0:
133,149,12554,5,0,0:0:0:0:
133,149,12772,1,0,0:0:0:0:
215,328,12990,2,0,L|193:204,1,105.000004005432
56,93,13425,6,0,B|35:146|35:146|59:214,1,105.000004005432
145,220,13861,2,0,L|200:225,2,52.5000020027161
62,337,14296,6,0,P|136:320|183:329,1,105.000004005432
193,338,14623,1,0,0:0:0:0:
222,350,14732,2,0,B|295:356|295:356|339:339,1,105.000004005432
281,172,15168,6,0,B|260:225|260:225|284:293,1,105.000004005432
365,225,15603,1,0,0:0:0:0:
210,82,15821,1,0,0:0:0:0:
207,100,15930,1,0,0:0:0:0:
204,118,16039,6,0,P|144:109|78:120,1,105.000004005432
59,98,16365,1,0,0:0:0:0:
59,98,16474,2,0,L|79:242,1,105.000004005432
54,302,16910,5,0,0:0:0:0:
54,302,17128,2,0,L|132:283,1,52.5000020027161
184,250,17345,2,0,L|321:283,1,105.000004005432
383,268,17672,5,0,0:0:0:0:
383,268,17781,2,0,P|331:254|270:294,1,105.000004005432
412,344,18217,2,0,L|474:349,2,52.5000020027161
286,274,18652,5,0,0:0:0:0:
404,148,18870,2,0,L|418:204,1,52.5000020027161
300,116,19088,1,0,0:0:0:0:
293,141,19196,1,0,0:0:0:0:
287,166,19305,1,0,0:0:0:0:
360,54,19523,6,0,P|278:35|213:138,1,210.000008010865
291,242,20177,1,0,0:0:0:0:
508,133,20394,6,0,L|397:148,1,105.000004005432
183,152,20830,1,0,0:0:0:0:
235,159,20938,1,0,0:0:0:0:
287,166,21047,1,0,0:0:0:0:
143,75,21266,6,0,P|97:138|116:204,1,105.000004005432
126,205,21592,1,0,0:0:0:0:
154,249,21701,2,0,L|145:312,2,52.5000020027161
287,166,22137,1,0,0:0:0:0:
287,166,22790,5,0,0:0:0:0:
297,244,22898,1,0,0:0:0:0:
307,322,23008,2,0,L|420:308,1,105.000004005432
360,121,23443,1,0,0:0:0:0:
297,244,23661,1,0,0:0:0:0:
413,186,23879,6,0,P|443:113|375:35,1,157.500006008148
406,49,24315,2,0,L|276:38,1,105.000004005432
278,51,24641,1,0,0:0:0:0:
255,64,24750,6,0,L|124:75,1,105.000004005432
37,137,25186,1,0,0:0:0:0:
88,142,25294,1,0,0:0:0:0:
136,164,25403,1,0,0:0:0:0:
238,278,25621,6,0,B|182:272|182:272|128:291,1,105.000004005432
51,335,26057,1,0,0:0:0:0:
248,363,26275,1,0,0:0:0:0:
273,355,26383,1,0,0:0:0:0:
296,343,26492,6,0,L|415:351,1,105.000004005432
245,173,26928,2,0,L|237:292,1,105.000004005432
397,134,27364,5,0,0:0:0:0:
297,96,27581,1,0,0:0:0:0:
415,223,27799,6,0,P|453:209|487:165,2,52.5000020027161
245,173,28235,1,0,0:0:0:0:
310,322,28452,6,2,L|299:267,1,52.5000020027161
159,181,28670,2,0,L|136:293,1,105.000004005432
297,96,29106,5,0,0:0:0:0:
