osu file format v14

[General]
AudioFilename: audio.mp3
AudioLeadIn: 0
PreviewTime: 7229
Countdown:0
SampleSet: None
StackLeniency: 0.2
Mode: 0
LetterboxInBreaks:0
WidescreenStoryboard:1

[Editor]
DistanceSpacing: 1.3
BeatDivisor: 4
GridSize: 32
TimelineZoom: 1

[Metadata]
Title:Cranberry Animated Ft. LeBron James
TitleUnicode:Cranberry Animated Ft. LeBron James
Artist:DRAM
ArtistUnicode:DRAM
Creator:X4D
Version:Hard
Source:
Tags:sprite christmas holidays commercial advertisement ad D.R.A.M. hiphop
BeatmapID:1863836
BeatmapSetID:891103

[Difficulty]
HPDrainRate:4.5
CircleSize:3.3
OverallDifficulty:5
ApproachRate:7.8
SliderMultiplier:1.2
SliderTickRate:1

[Events]
//Background and Video events
0,0,"x4d_is_weeb.png",0,0
//Break Periods
//Storyboard Layer 0 (Background)
//Storyboard Layer 1 (Fail)
//Storyboard Layer 2 (Pass)
//Storyboard Layer 3 (Foreground)
//Storyboard Sound Samples

[TimingPoints]
237,437.956204379562,4,1,0,100,1,0
5492,425.531914893617,4,1,0,100,1,0
6343,461.538461538462,4,1,0,100,1,0
6804,425.531914893617,4,1,0,100,1,0
7229,425.531914893617,4,1,0,100,1,0
7867,333.333333333333,4,1,0,100,1,0
8450,333.333333333333,4,1,0,100,1,0
8783,287.081339712919,4,1,0,100,1,0
9070,435.57168784029,4,1,0,100,1,0

[HitObjects]
111,43,237,6,0,P|183:57|204:68,1,80
188,59,1112,2,0,L|294:48,2,80
166,136,1988,6,0,P|238:150|259:161,1,80
243,152,2864,2,0,L|349:141,2,80
221,229,3740,6,0,P|293:243|314:254,1,80
298,245,4616,2,0,L|404:234,2,80
276,322,5492,6,0,P|348:336|369:347,1,80
485,271,6343,1,0,0:0:0:0:
392,179,6804,2,0,L|411:274,1,80
400,296,7229,5,0,0:0:0:0:
319,256,7548,5,0,0:0:0:0:
234,333,7867,5,0,0:0:0:0:
155,242,8200,5,0,0:0:0:0:
155,242,9070,6,0,L|139:106,1,120
174,52,9723,1,0,0:0:0:0:
241,91,9941,2,0,P|280:111|344:103,1,90
359,91,10376,2,0,L|438:83,1,60
481,131,10812,6,0,P|426:141|415:205,1,120
462,256,11465,1,0,0:0:0:0:
390,287,11683,2,0,L|308:278,1,60
258,249,12119,2,0,L|228:252,2,30
293,179,12554,5,0,0:0:0:0:
293,179,12772,1,0,0:0:0:0:
230,132,12990,2,0,L|153:142,1,60
97,168,13425,2,0,P|126:172|153:186,1,60
179,260,13861,2,0,L|179:300,2,30
249,226,14296,6,0,P|294:210|348:211,2,90
193,170,15168,2,0,P|155:162|118:170,1,60
78,218,15603,1,0,0:0:0:0:
152,240,15821,1,0,0:0:0:0:
96,293,16039,6,0,P|159:317|196:303,1,90
215,299,16474,2,0,L|294:302,1,60
346,333,16910,1,0,0:0:0:0:
407,285,17128,1,0,0:0:0:0:
407,285,17236,1,0,0:0:0:0:
407,285,17345,2,0,L|397:213,1,60
341,171,17781,5,0,0:0:0:0:
341,171,17999,1,0,0:0:0:0:
388,108,18217,2,0,L|390:70,2,30
341,171,18652,1,0,0:0:0:0:
275,128,18870,1,0,0:0:0:0:
210,172,19088,2,0,L|248:174,2,30
146,125,19523,6,0,P|132:174|170:239,1,120
237,251,20177,1,0,0:0:0:0:
183,306,20394,2,0,L|109:313,1,60
56,269,20830,1,0,0:0:0:0:
41,266,20938,1,0,0:0:0:0:
26,264,21047,1,0,0:0:0:0:
32,186,21266,6,0,B|81:194|81:194|141:176,2,90
16,109,22137,1,0,0:0:0:0:
241,47,22790,5,0,0:0:0:0:
241,47,22899,1,0,0:0:0:0:
241,47,23008,2,0,L|254:180,1,120
310,218,23661,1,0,0:0:0:0:
375,175,23879,2,0,P|415:160|470:169,1,90
492,188,24315,2,0,L|486:257,1,60
433,304,24750,6,0,B|348:290|348:290|308:302,1,120
248,339,25403,1,0,0:0:0:0:
181,297,25621,2,0,P|144:288|65:293,1,90
57,306,26057,1,0,0:0:0:0:
9,244,26275,1,0,0:0:0:0:
9,244,26383,1,0,0:0:0:0:
9,244,26492,6,0,L|5:156,1,60
48,117,26928,1,0,0:0:0:0:
48,117,27146,1,0,0:0:0:0:
108,166,27364,2,0,P|149:172|187:164,1,60
222,114,27799,6,0,L|217:80,2,30
281,164,28235,1,0,0:0:0:0:
340,214,28452,1,0,0:0:0:0:
340,214,28561,1,0,0:0:0:0:
340,214,28670,2,0,L|331:273,1,60
317,350,29106,1,0,0:0:0:0:
