osu file format v14

[General]
AudioFilename: audio.mp3
AudioLeadIn: 0
PreviewTime: 494
Countdown: 0
SampleSet: Soft
StackLeniency: 0.4
Mode: 0
LetterboxInBreaks: 0
WidescreenStoryboard: 1

[Editor]
Bookmarks: 2637,10180,11551,21837,22522,33494,36237,44465
DistanceSpacing: 1.6
BeatDivisor: 4
GridSize: 16
TimelineZoom: 1.7

[Metadata]
Title:Twilight Symphony
TitleUnicode:Twilight Symphony
Artist:DRAGON EYES
ArtistUnicode:DRAGON EYES
Creator:Mildly Accurate
Version:PaRaDogi's Extra
Source:
Tags:narrative paradogi -ascended- -_ascended_- - ascended - lokidoki dooe -doodle power metal instrumental forsaken gods フォーセイクン・ゴッズ dragon guardian thousand eyes kouta アーサー arthur spaced streams
BeatmapID:3055652
BeatmapSetID:1468542

[Difficulty]
HPDrainRate:5.2
CircleSize:4
OverallDifficulty:9
ApproachRate:9.4
SliderMultiplier:1.8
SliderTickRate:1

[Events]
//Background and Video events
0,0,"female.jpg",0,0
//Break Periods
//Storyboard Layer 0 (Background)
//Storyboard Layer 1 (Fail)
//Storyboard Layer 2 (Pass)
//Storyboard Layer 3 (Foreground)
//Storyboard Layer 4 (Overlay)
//Storyboard Sound Samples

[TimingPoints]
580,342.857142857143,4,2,1,70,1,0
580,-133.333333333333,4,2,1,70,0,0
10180,-100,4,2,1,70,0,0
22522,-100,4,2,1,70,0,0
27665,-100,4,2,1,50,0,0
27751,-100,4,2,1,70,0,0
33494,-90.9090909090909,4,2,1,60,0,0
33580,-90.9090909090909,4,2,1,70,0,0
37608,-83.3333333333333,4,2,1,70,0,0
38980,-90.9090909090909,4,2,1,70,0,0
44465,363.636363636364,4,2,1,70,1,0
44465,-133.333333333333,4,2,1,70,0,0
50283,400,4,2,1,70,1,0
50283,-133.333333333333,4,2,1,70,0,0
51883,461.538461538462,4,2,1,70,1,0
51883,-133.333333333333,4,2,1,70,0,0
53729,1379.31034482758,4,2,1,70,1,0

[Colours]
Combo1 : 141,219,207
Combo2 : 11,151,185
Combo3 : 111,216,229
Combo4 : 196,229,237

[HitObjects]
101,31,580,6,0,P|66:49|54:84,1,67.5000025749208,4|0,1:2|0:0,0:0:0:0:
184,105,922,2,0,P|145:96|113:115,1,67.5000025749208
199,217,1265,2,0,P|175:185|138:179,1,67.5000025749208
127,253,1608,1,0,0:0:0:0:
185,363,1780,6,0,B|246:347|246:347|255:351|255:351|323:336,1,135.000005149842
438,225,2294,1,0,0:0:0:0:
416,317,2465,1,0,0:0:0:0:
254,165,2637,1,4,1:2:0:0:
275,254,2808,1,0,0:0:0:0:
342,103,2980,2,0,L|237:84,1,101.250003862381
195,26,3322,6,0,B|166:53|166:53|166:90,1,67.5000025749208,4|0,1:2|0:0,0:0:0:0:
83,70,3665,2,0,B|78:109|78:109|101:137,1,67.5000025749208
27,175,4008,2,0,B|48:208|48:208|84:214,1,67.5000025749208
18,281,4351,1,0,0:0:0:0:
149,358,4522,6,0,B|183:340|183:340|162:238,1,135.000005149842
249,111,5037,2,0,L|329:102,1,67.5000025749208
412,228,5380,2,0,L|332:219,2,67.5000025749208,4|0|0,1:2|0:0|0:0,0:0:0:0:
316,103,5894,1,0,0:0:0:0:
236,272,6065,6,0,L|253:193,1,67.5000025749208,4|0,1:2|0:0,0:0:0:0:
149,153,6408,2,0,L|166:232,1,67.5000025749208
63,282,6751,2,0,L|80:203,1,67.5000025749208
10,73,7094,1,0,0:0:0:0:
10,73,7265,6,0,B|34:86|62:69|62:69|91:74|91:74|104:51|156:46,1,135.000005149842
289,12,7780,2,0,P|305:50|288:81,1,67.5000025749208
201,213,8122,1,4,1:2:0:0:
186,119,8294,1,0,0:0:0:0:
317,218,8465,2,0,L|299:321,1,101.250003862381
248,376,8808,6,0,P|208:359|200:328,1,67.5000025749208,4|0,1:2|0:0,0:0:0:0:
167,225,9151,2,0,P|198:233|215:262,1,67.5000025749208
107,380,9494,1,0,0:0:0:0:
107,380,9665,2,0,B|65:343|65:343|82:251,1,135.000005149842
25,44,10180,6,0,L|37:102,1,45,0|4,1:0|0:3,0:0:0:0:
143,167,10351,1,8,0:3:0:0:
143,167,10437,1,8,0:3:0:0:
143,167,10522,2,0,L|130:223,1,45,0|8,1:0|0:3,0:0:0:0:
235,66,10694,1,8,0:3:0:0:
235,66,10780,1,8,0:3:0:0:
235,66,10865,2,0,L|248:122,1,45,10|4,0:0|0:3,0:0:0:0:
356,175,11037,1,0,1:0:0:0:
356,175,11123,1,0,1:0:0:0:
356,175,11208,2,0,L|345:273,1,90,12|0,0:0|0:0,0:0:0:0:
207,362,11551,5,4,1:0:0:0:
163,357,11636,1,0,1:0:0:0:
131,326,11722,1,0,1:0:0:0:
124,282,11808,1,0,1:0:0:0:
145,244,11893,1,10,1:0:0:0:
185,226,11980,1,0,1:0:0:0:
225,208,12066,1,0,1:0:0:0:
246,170,12151,1,0,1:0:0:0:
239,126,12237,1,10,1:0:0:0:
207,95,12323,1,0,1:0:0:0:
164,91,12408,1,0,1:0:0:0:
129,115,12494,1,0,1:0:0:0:
121,157,12580,2,0,L|135:209,3,45,10|0|0|0,1:0|1:0|1:0|1:0,0:0:0:0:
255,309,12922,5,10,1:0:0:0:
255,309,13008,1,0,1:0:0:0:
255,309,13094,2,0,L|326:318,1,45,0|0,1:0|1:0,0:0:0:0:
390,216,13265,1,10,1:0:0:0:
390,216,13351,1,0,1:0:0:0:
390,216,13437,2,0,L|319:225,1,45,0|0,1:0|1:0,0:0:0:0:
208,147,13608,1,10,1:0:0:0:
208,147,13694,1,0,1:0:0:0:
208,147,13780,2,0,L|279:156,1,45,0|0,1:0|1:0,0:0:0:0:
370,60,13951,1,10,1:0:0:0:
325,52,14036,1,0,1:0:0:0:
281,45,14122,1,0,1:0:0:0:
236,37,14208,1,0,1:0:0:0:
193,33,14294,5,10,1:0:0:0:
150,47,14379,1,0,1:0:0:0:
123,82,14465,1,0,1:0:0:0:
121,126,14551,1,0,1:0:0:0:
143,164,14636,1,10,1:0:0:0:
183,183,14723,1,0,1:0:0:0:
223,202,14809,1,0,1:0:0:0:
245,240,14894,1,0,1:0:0:0:
243,284,14980,1,10,1:0:0:0:
216,319,15066,1,0,1:0:0:0:
173,333,15151,1,0,1:0:0:0:
127,332,15237,1,0,1:0:0:0:
95,306,15322,2,0,L|88:260,3,45,10|0|0|0,1:0|1:0|1:0|1:0,0:0:0:0:
7,168,15665,5,10,1:0:0:0:
33,131,15750,1,0,1:0:0:0:
72,111,15836,1,0,1:0:0:0:
117,111,15922,1,0,1:0:0:0:
156,132,16007,1,10,1:0:0:0:
182,168,16093,1,0,1:0:0:0:
208,204,16180,1,0,1:0:0:0:
247,224,16266,1,0,1:0:0:0:
292,224,16352,1,10,1:0:0:0:
331,203,16437,1,0,1:0:0:0:
357,167,16523,1,0,1:0:0:0:
356,120,16608,1,0,1:0:0:0:
332,77,16694,2,0,L|277:69,3,45,10|0|0|0,1:0|1:0|1:0|1:0,1:0:0:0:
135,13,17037,5,4,1:2:0:0:
135,13,17122,1,0,1:0:0:0:
135,13,17208,2,0,L|147:71,1,45,0|0,1:0|1:0,0:0:0:0:
246,141,17380,1,10,1:0:0:0:
246,141,17465,1,0,1:0:0:0:
246,141,17551,2,0,L|234:199,1,45,0|0,1:0|1:0,0:0:0:0:
133,234,17722,1,10,1:0:0:0:
133,234,17807,1,0,1:0:0:0:
133,234,17893,2,0,L|145:292,1,45,0|0,1:0|1:0,0:0:0:0:
250,328,18065,1,10,1:0:0:0:
250,328,18150,1,0,1:0:0:0:
250,328,18236,2,0,L|238:386,1,45,0|0,1:0|1:0,0:0:0:0:
96,355,18408,5,10,1:0:0:0:
68,320,18493,1,0,1:0:0:0:
64,276,18579,1,0,1:0:0:0:
85,237,18665,1,0,1:0:0:0:
124,216,18750,1,10,1:0:0:0:
168,221,18836,1,0,1:0:0:0:
212,226,18922,1,0,1:0:0:0:
251,205,19007,1,0,1:0:0:0:
272,166,19093,1,10,1:0:0:0:
268,122,19179,1,0,1:0:0:0:
241,88,19264,1,0,1:0:0:0:
202,78,19351,1,0,1:0:0:0:
161,84,19437,2,0,L|172:140,3,45,10|0|0|0,1:0|1:0|1:0|1:0,0:0:0:0:
65,214,19780,5,10,1:0:0:0:
106,197,19865,1,0,1:0:0:0:
149,205,19951,1,0,1:0:0:0:
181,236,20037,1,0,1:0:0:0:
190,280,20122,1,10,1:0:0:0:
199,324,20207,1,0,1:0:0:0:
231,355,20293,1,0,1:0:0:0:
274,363,20379,1,0,1:0:0:0:
316,347,20464,1,10,1:0:0:0:
346,313,20551,1,0,1:0:0:0:
350,265,20637,1,0,1:0:0:0:
339,261,20722,1,0,1:0:0:0:
328,255,20808,6,0,L|279:262,3,45,10|0|0|0,1:0|1:0|1:0|1:0,0:0:0:0:
182,166,21151,2,0,L|231:173,3,45,10|0|0|0,1:0|1:0|1:0|1:0,0:0:0:0:
345,75,21494,2,0,L|296:82,3,45,10|0|0|0,1:0|1:0|1:0|1:0,0:0:0:0:
182,11,21837,5,8,0:3:0:0:
130,42,21922,1,8,0:3:0:0:
133,102,22008,1,4,0:3:0:0:
185,135,22094,1,4,0:3:0:0:
243,144,22180,1,8,0:0:0:0:
279,193,22265,1,8,0:0:0:0:
273,251,22351,1,8,0:0:0:0:
227,288,22437,1,8,0:0:0:0:
168,288,22522,5,4,1:0:0:0:
366,174,22694,2,0,L|377:284,1,90,10|0,0:0|0:0,0:0:0:0:
425,324,22951,1,0,1:0:0:0:
439,334,23037,2,0,P|485:353|534:320,1,90,10|0,0:0|1:2,0:0:0:0:
497,105,23380,2,0,P|455:90|415:109,1,90,10|0,0:0|0:0,0:0:0:0:
336,99,23637,1,0,1:0:0:0:
325,104,23722,1,10,0:0:0:0:
200,211,23894,6,0,B|206:174|179:153|179:153|193:99|193:99|163:78|165:33,1,180,0|0,1:0|0:0,0:0:0:0:
97,11,24322,1,0,1:0:0:0:
83,13,24408,1,10,0:0:0:0:
60,202,24580,1,0,1:0:0:0:
235,108,24751,1,10,0:0:0:0:
240,97,24837,1,0,1:0:0:0:
156,244,25008,1,0,1:0:0:0:
151,233,25094,1,10,0:0:0:0:
273,350,25265,6,0,B|322:368|359:338|352:318|380:278|459:307,1,180,4|0,1:2|0:0,0:0:0:0:
501,266,25694,1,0,1:0:0:0:
503,254,25780,1,10,0:0:0:0:
379,80,25951,2,0,B|337:44|337:44|330:183,1,180,0|0,1:0|0:0,0:0:0:0:
306,240,26380,1,0,1:0:0:0:
315,245,26465,2,0,B|336:254|336:254|370:236,1,45,10|0,0:0|0:0,0:0:0:0:
233,88,26637,6,0,B|188:97|188:97|167:136,1,90,0|10,1:0|0:0,0:0:0:0:
76,305,26980,1,0,0:0:0:0:
8,122,27151,1,10,0:0:0:0:
14,111,27237,1,0,0:0:0:0:
20,98,27322,2,0,B|61:75|61:75|104:95,1,90,0|10,1:0|0:0,0:0:0:0:
143,158,27580,1,0,1:0:0:0:
279,11,27751,1,0,1:0:0:0:
293,6,27837,1,12,0:0:0:0:
464,168,28008,6,0,L|350:153,1,90,4|10,1:0|0:0,0:0:0:0:
250,317,28351,2,0,B|383:298|383:298|422:245,1,180,0|0,0:0|1:0,0:0:0:0:
267,95,28865,2,0,B|239:135|239:135|256:179,1,90,10|0,0:0|0:0,0:0:0:0:
216,240,29122,1,0,1:0:0:0:
205,238,29208,1,10,0:0:0:0:
48,368,29380,6,0,B|28:288|28:288|31:277|31:277|10:192,1,180,0|0,1:0|0:0,0:0:0:0:
37,122,29808,1,0,1:0:0:0:
49,118,29894,1,10,0:0:0:0:
243,163,30065,1,0,1:0:0:0:
137,0,30237,1,10,0:0:0:0:
141,12,30322,1,0,1:0:0:0:
119,206,30494,1,0,1:0:0:0:
123,195,30580,1,10,0:0:0:0:
250,46,30751,6,0,B|283:62|315:30|315:30|362:44|362:44|381:14|438:20,1,180,4|0,1:2|0:0,0:0:0:0:
479,57,31180,1,0,1:0:0:0:
484,78,31265,1,10,0:0:0:0:
447,183,31437,2,0,B|316:160|316:160|270:199,1,180,0|0,1:0|0:0,0:0:0:0:
215,234,31865,1,0,1:0:0:0:
218,246,31951,1,10,0:0:0:0:
50,160,32122,5,4,1:2:0:0:
197,319,32294,5,8,0:3:0:0:
191,331,32380,1,8,0:3:0:0:
185,342,32465,5,0,1:0:0:0:
222,365,32550,1,8,0:3:0:0:
266,361,32636,1,8,0:3:0:0:
300,333,32722,1,4,0:3:0:0:
328,301,32808,1,0,1:0:0:0:
362,273,32894,1,4,0:3:0:0:
406,269,32980,1,4,0:3:0:0:
444,293,33065,1,4,0:3:0:0:
461,339,33151,5,8,0:0:0:0:
472,275,33237,1,8,0:0:0:0:
483,208,33322,1,8,0:0:0:0:
493,141,33408,1,8,0:0:0:0:
503,75,33494,5,4,1:0:0:0:
465,105,33579,1,0,1:0:0:0:
416,107,33665,1,0,1:0:0:0:
376,79,33751,1,0,1:0:0:0:
339,43,33836,1,10,1:0:0:0:
300,11,33922,1,0,1:0:0:0:
251,10,34008,1,0,1:0:0:0:
211,37,34094,1,0,1:0:0:0:
197,82,34179,1,2,1:0:0:0:
210,133,34265,1,0,1:0:0:0:
257,155,34351,1,0,1:0:0:0:
309,152,34437,1,0,1:0:0:0:
339,111,34522,2,0,L|331:54,3,49.5000015106202,10|0|0|0,1:0|1:0|1:0|1:0,0:0:0:0:
183,247,34865,5,2,1:0:0:0:
135,236,34950,1,0,1:0:0:0:
106,197,35036,1,0,1:0:0:0:
111,148,35122,1,0,1:0:0:0:
116,101,35208,1,10,1:0:0:0:
87,62,35294,1,0,1:0:0:0:
39,51,35379,1,0,1:0:0:0:
1,78,35465,1,0,1:0:0:0:
0,128,35551,2,0,L|51:117,3,49.5000015106202,2|0|0|0,1:0|1:0|1:0|1:0,0:0:0:0:
165,21,35894,2,0,L|216:32,3,49.5000015106202,10|0|0|0,1:0|1:0|1:0|1:0,1:0:0:0:
336,23,36237,5,2,1:0:0:0:
376,50,36322,1,0,1:0:0:0:
393,95,36408,1,0,1:0:0:0:
382,143,36494,1,0,1:0:0:0:
346,175,36580,1,10,1:0:0:0:
310,207,36665,1,0,1:0:0:0:
299,255,36751,1,0,1:0:0:0:
316,300,36837,1,0,1:0:0:0:
357,328,36922,1,2,1:0:0:0:
406,330,37008,1,0,1:0:0:0:
451,309,37094,1,0,1:0:0:0:
474,262,37180,1,0,1:0:0:0:
471,211,37265,2,0,L|418:204,3,49.5000015106202,10|0|0|0,1:0|1:0|1:0|1:0,0:0:0:0:
317,106,37608,5,2,1:0:0:0:
264,113,37693,1,0,1:0:0:0:
229,153,37779,1,0,1:0:0:0:
229,206,37865,1,0,1:0:0:0:
199,249,37951,1,10,1:0:0:0:
170,253,38037,1,0,1:0:0:0:
155,243,38122,1,0,1:0:0:0:
152,229,38208,1,0,1:0:0:0:
156,215,38294,5,2,1:0:0:0:
190,188,38380,1,0,1:0:0:0:
237,198,38465,1,0,1:0:0:0:
267,249,38551,1,0,1:0:0:0:
320,277,38637,1,10,1:0:0:0:
375,255,38722,1,0,1:0:0:0:
399,200,38808,1,0,1:0:0:0:
377,147,38894,1,0,1:0:0:0:
323,137,38980,5,4,1:2:0:0:
277,152,39065,1,0,1:0:0:0:
254,195,39151,1,0,1:0:0:0:
267,241,39237,1,0,1:0:0:0:
280,287,39322,1,10,1:0:0:0:
257,330,39408,1,0,1:0:0:0:
211,345,39493,1,0,1:0:0:0:
165,328,39580,1,0,1:0:0:0:
151,284,39665,2,0,L|208:274,3,49.5000015106202,2|0|0|0,1:0|1:0|1:0|1:0,0:0:0:0:
362,159,40008,2,0,L|305:149,3,49.5000015106202,10|0|0|0,1:0|1:0|1:0|1:0,0:0:0:0:
190,18,40351,5,2,1:0:0:0:
146,39,40436,1,0,1:0:0:0:
125,83,40522,1,0,1:0:0:0:
138,130,40608,1,0,1:0:0:0:
177,158,40693,1,10,1:0:0:0:
216,186,40780,1,0,1:0:0:0:
228,233,40866,1,0,1:0:0:0:
208,277,40952,1,0,1:0:0:0:
168,304,41037,2,0,L|102:293,3,49.5000015106202,2|0|0|0,1:0|1:0|1:0|1:0,0:0:0:0:
298,366,41380,2,0,L|364:355,3,49.5000015106202,10|0|0|0,1:0|1:0|1:0|1:0,1:0:0:0:
502,249,41722,6,0,B|408:232|408:232|401:226|401:226|302:208,1,198.000006042481,2|10,1:0|1:0,0:0:0:0:
172,64,42237,1,0,1:0:0:0:
44,175,42408,2,0,B|50:223|50:223|48:230|48:230|55:287,1,99.0000030212403,2|0,1:0|1:0,1:0:0:0:
95,337,42665,1,0,1:0:0:0:
108,329,42751,2,0,L|162:318,1,49.5000015106202,10|0,1:0|1:0,0:0:0:0:
265,141,42922,2,0,L|198:126,1,49.5000015106202,0|0,1:0|1:0,0:0:0:0:
54,41,43094,5,4,1:0:0:0:
8,87,43180,1,8,0:0:0:0:
14,153,43265,1,8,0:0:0:0:
72,189,43351,1,8,0:0:0:0:
135,167,43437,1,8,1:2:0:0:
163,106,43522,1,8,0:0:0:0:
224,77,43608,1,8,0:0:0:0:
288,98,43694,1,8,0:0:0:0:
314,159,43780,1,8,1:0:0:0:
281,217,43865,1,8,0:3:0:0:
277,282,43951,1,8,0:3:0:0:
323,329,44037,1,8,0:3:0:0:
391,325,44122,1,8,1:2:0:0:
431,271,44208,1,4,0:3:0:0:
421,204,44294,1,4,0:3:0:0:
361,173,44380,1,4,0:3:0:0:
297,189,44465,6,0,B|299:233|330:253|330:253|317:309|317:309|347:340|346:393,1,202.500007724762,4|0,1:2|0:0,0:0:0:0:
203,235,45192,1,10,0:0:0:0:
502,118,45465,1,0,0:0:0:0:
324,73,45737,2,0,L|341:134,1,33.7500012874604
324,178,45919,6,0,B|299:215|299:215|151:181,1,168.750006437302,2|0,1:2|0:0,0:0:0:0:
116,143,46465,1,0,1:0:0:0:
103,148,46555,1,0,1:0:0:0:
88,154,46646,2,0,B|73:189|73:189|87:217,1,67.5000025749208,10|0,0:0|0:0,0:0:0:0:
134,277,46919,1,0,0:0:0:0:
131,288,47010,1,4,1:2:0:0:
225,114,47192,1,0,0:0:0:0:
276,301,47374,6,0,B|341:293|341:293|348:288|348:288|435:280,1,135.000005149842,4|2,1:2|0:0,0:0:0:0:
510,156,47919,1,0,1:0:0:0:
346,115,48101,2,0,L|357:182,1,67.5000025749208,10|0,0:0|0:0,0:0:0:0:
194,321,48465,2,0,B|187:284|187:284|205:254,1,67.5000025749208,2|0,1:2|0:0,0:0:0:0:
285,48,48828,6,0,B|272:15|272:15|111:62,1,202.500007724762,2|0,1:2|1:0,0:0:0:0:
5,18,49555,1,10,0:0:0:0:
135,153,49919,1,4,1:2:0:0:
45,214,50101,1,0,0:0:0:0:
43,222,50192,1,0,0:0:0:0:
41,231,50283,6,0,B|0:267|0:267|172:229,1,202.500007724762,4|0,1:2|3:0,0:0:0:0:
314,124,51083,2,0,P|386:115|333:185,1,202.500007724762,10|0,0:0|0:0,0:0:0:0:
78,128,51883,6,0,B|126:81|126:81|93:241,1,202.500007724762,2|0,1:2|1:0,0:0:0:0:
174,234,52690,1,0,1:0:0:0:
176,222,52806,2,0,L|188:154,1,67.5000025749208,10|0,0:0|0:0,0:0:0:0:
316,72,53267,2,0,L|327:138,1,67.5000025749208,4|0,1:2|0:0,0:0:0:0:
366,267,53729,5,4,1:0:0:0:
256,192,53901,12,0,59246,0:0:0:0:
