osu file format v14

[General]
AudioFilename: audio.mp3
AudioLeadIn: 0
PreviewTime: 494
Countdown: 0
SampleSet: Soft
StackLeniency: 0.7
Mode: 0
LetterboxInBreaks: 0
WidescreenStoryboard: 1

[Editor]
Bookmarks: 11551,22522,33494,44465
DistanceSpacing: 1.3
BeatDivisor: 4
GridSize: 16
TimelineZoom: 1.7

[Metadata]
Title:Twilight Symphony
TitleUnicode:Twilight Symphony
Artist:DRAGON EYES
ArtistUnicode:DRAGON EYES
Creator:Mildly Accurate
Version:Crescendo of the Night
Source:
Tags:narrative paradogi -ascended- -_ascended_- - ascended - lokidoki dooe -doodle power metal instrumental forsaken gods フォーセイクン・ゴッズ dragon guardian thousand eyes kouta アーサー arthur spaced streams
BeatmapID:3015347
BeatmapSetID:1468542

[Difficulty]
HPDrainRate:5.5
CircleSize:4.2
OverallDifficulty:9.2
ApproachRate:9.6
SliderMultiplier:1.6
SliderTickRate:1

[Events]
//Background and Video events
0,0,"female.jpg",0,0
//Break Periods
//Storyboard Layer 0 (Background)
//Storyboard Layer 1 (Fail)
//Storyboard Layer 2 (Pass)
//Storyboard Layer 3 (Foreground)
//Storyboard Layer 4 (Overlay)
//Storyboard Sound Samples

[TimingPoints]
580,342.857142857143,4,2,1,70,1,0
580,-250,4,2,1,70,0,0
10180,-100,4,2,1,70,0,0
11208,-200,4,2,1,70,0,0
11551,-76.9230769230769,4,2,1,70,0,0
14294,-100,4,2,1,70,0,0
16351,-76.9230769230769,4,2,1,70,0,0
19094,-200,4,2,1,70,0,0
19780,-100,4,2,1,70,0,0
21837,-58.8235294117647,4,2,1,70,0,0
22522,-76.9230769230769,4,2,1,70,0,0
22951,-76.9230769230769,4,2,1,70,0,0
23637,-76.9230769230769,4,2,1,70,0,0
24323,-76.9230769230769,4,2,1,70,0,0
25694,-76.9230769230769,4,2,1,70,0,0
26380,-76.9230769230769,4,2,1,70,0,0
27665,-76.9230769230769,4,2,1,50,0,0
27751,-76.9230769230769,4,2,1,70,0,0
28437,-76.9230769230769,4,2,1,70,0,0
29123,-76.9230769230769,4,2,1,70,0,0
29808,-76.9230769230769,4,2,1,70,0,0
31180,-76.9230769230769,4,2,1,70,0,0
31866,-76.9230769230769,4,2,1,70,0,0
33494,-250,4,2,1,60,0,0
33580,-250,4,2,1,70,0,0
33837,-166.666666666667,4,2,1,70,0,0
34180,-100,4,2,1,70,0,0
34865,-76.9230769230769,4,2,1,70,0,0
35551,-66.6666666666667,4,2,1,70,0,0
36237,-200,4,2,1,70,0,0
36580,-142.857142857143,4,2,1,70,0,0
36922,-90.9090909090909,4,2,1,70,0,0
37608,-71.4285714285714,4,2,1,70,0,0
38294,-62.5,4,2,1,70,0,0
38980,-166.666666666667,4,2,1,70,0,0
39322,-125,4,2,1,70,0,0
39665,-83.3333333333333,4,2,1,70,0,0
40351,-66.6666666666667,4,2,1,70,0,0
41037,-58.8235294117647,4,2,1,70,0,0
41722,-100,4,2,1,70,0,0
43094,-55.5555555555556,4,2,1,70,0,0
43780,-100,4,2,1,70,0,0
44122,-166.666666666667,4,2,1,70,0,0
44465,363.636363636364,4,2,1,70,1,0
50283,400,4,2,1,70,1,0
50283,-125,4,2,1,70,0,0
51083,-166.666666666667,4,2,1,70,0,0
51883,461.538461538462,4,2,1,70,1,0
51883,-200,4,2,1,70,0,0
53729,1379.31034482758,4,2,1,70,1,0
59246,-100,4,2,1,70,0,0

[Colours]
Combo1 : 141,219,207
Combo2 : 11,151,185
Combo3 : 111,216,229
Combo4 : 196,229,237

[HitObjects]
28,80,580,6,0,B|169:54|169:54|246:122|246:122|388:97,1,384,4|4,1:2|1:2,0:0:0:0:
367,14,3322,6,0,P|310:53|466:84,1,384,4|4,1:2|1:2,0:0:0:0:
382,98,6065,6,0,B|311:176|384:255|407:230|493:316|408:388|408:388|420:368|423:341,1,384,4|4,1:2|1:2,0:0:0:0:
336,335,8808,6,0,B|253:319|253:319|209:359|209:359|126:344,1,224,4|0,1:2|0:0,0:0:0:0:
131,345,10180,6,0,L|122:297,1,40,0|4,1:0|0:3,0:0:0:0:
8,214,10351,1,8,0:3:0:0:
8,214,10437,1,8,0:3:0:0:
8,214,10522,2,0,L|-1:261,1,40,0|8,1:0|0:3,0:0:0:0:
150,158,10694,1,8,0:3:0:0:
150,158,10780,1,8,0:3:0:0:
150,158,10865,5,10,0:0:0:0:
143,118,10950,1,4,0:3:0:0:
136,79,11036,1,0,1:0:0:0:
129,39,11122,1,0,1:0:0:0:
122,0,11208,2,0,L|109:58,1,60,12|0,0:0|0:0,0:0:0:0:
14,113,11551,5,4,1:0:0:0:
48,147,11636,1,0,1:0:0:0:
99,165,11722,1,0,1:0:0:0:
150,158,11808,1,0,1:0:0:0:
192,127,11893,1,10,1:0:0:0:
219,81,11980,1,0,1:0:0:0:
254,48,12065,1,0,1:0:0:0:
304,31,12151,1,0,1:0:0:0:
355,37,12237,1,10,1:0:0:0:
397,68,12322,1,0,1:0:0:0:
423,112,12407,1,0,1:0:0:0:
427,163,12493,1,0,1:0:0:0:
409,211,12579,1,10,1:0:0:0:
371,247,12664,1,0,1:0:0:0:
322,262,12750,1,0,1:0:0:0:
271,254,12836,1,0,1:0:0:0:
235,216,12922,1,10,1:0:0:0:
198,178,13007,1,0,1:0:0:0:
150,158,13093,1,0,1:0:0:0:
97,160,13179,1,0,1:0:0:0:
50,184,13265,1,10,1:0:0:0:
23,228,13351,1,0,1:0:0:0:
15,279,13437,1,0,1:0:0:0:
29,328,13522,1,0,1:0:0:0:
68,362,13608,6,0,L|80:299,3,51.999997619629,10|0|0|0,1:0|1:0|1:0|1:0,1:0:0:0:
235,216,13951,2,0,L|246:279,3,51.999997619629,10|0|0|0,1:0|1:0|1:0|1:0,1:0:0:0:
394,351,14293,5,10,1:0:0:0:
432,362,14379,1,0,1:0:0:0:
471,353,14465,1,0,1:0:0:0:
499,327,14550,1,0,1:0:0:0:
512,289,14636,1,10,1:0:0:0:
505,250,14722,1,0,1:0:0:0:
480,220,14808,1,0,1:0:0:0:
442,205,14893,1,0,1:0:0:0:
401,210,14980,1,10,1:0:0:0:
361,204,15065,1,0,1:0:0:0:
329,181,15151,1,0,1:0:0:0:
312,143,15237,1,0,1:0:0:0:
318,104,15323,1,10,1:0:0:0:
339,72,15408,1,0,1:0:0:0:
374,56,15494,1,0,1:0:0:0:
414,58,15580,1,0,1:0:0:0:
448,77,15665,1,10,1:0:0:0:
426,108,15751,1,0,1:0:0:0:
391,126,15837,1,0,1:0:0:0:
350,125,15923,1,0,1:0:0:0:
318,104,16008,1,10,1:0:0:0:
290,75,16094,1,0,1:0:0:0:
256,55,16179,1,0,1:0:0:0:
217,53,16265,1,0,1:0:0:0:
183,73,16351,6,0,L|171:136,3,51.999997619629,10|0|0|0,1:0|1:0|1:0|1:0,1:0:0:0:
1,182,16694,2,0,L|9:233,3,51.999997619629,10|0|0|0,1:0|1:0|1:0|1:0,1:0:0:0:
125,360,17037,5,4,1:2:0:0:
170,381,17122,1,0,1:0:0:0:
221,378,17208,1,0,1:0:0:0:
263,347,17294,1,0,1:0:0:0:
291,303,17380,1,10,1:0:0:0:
333,272,17466,1,0,1:0:0:0:
384,269,17552,1,0,1:0:0:0:
429,290,17637,1,0,1:0:0:0:
455,334,17722,1,10,1:0:0:0:
413,365,17808,1,0,1:0:0:0:
362,368,17894,1,0,1:0:0:0:
317,347,17979,1,0,1:0:0:0:
291,303,18065,1,10,1:0:0:0:
291,250,18151,1,0,1:0:0:0:
313,202,18237,1,0,1:0:0:0:
357,175,18322,1,0,1:0:0:0:
409,171,18408,1,10,1:0:0:0:
460,168,18493,1,0,1:0:0:0:
500,136,18579,1,0,1:0:0:0:
512,87,18665,1,0,1:0:0:0:
497,39,18750,1,10,1:0:0:0:
456,9,18836,1,0,1:0:0:0:
404,9,18922,1,0,1:0:0:0:
363,39,19008,1,0,1:0:0:0:
354,58,19094,5,10,1:0:0:0:
340,71,19179,1,0,1:0:0:0:
324,83,19265,1,0,1:0:0:0:
306,92,19351,1,0,1:0:0:0:
287,98,19436,1,10,1:0:0:0:
267,100,19522,1,0,1:0:0:0:
248,98,19608,1,0,1:0:0:0:
229,93,19694,1,0,1:0:0:0:
193,73,19780,5,10,1:0:0:0:
223,99,19865,1,0,1:0:0:0:
243,133,19951,1,0,1:0:0:0:
248,172,20037,1,0,1:0:0:0:
240,211,20122,1,10,1:0:0:0:
219,245,20208,1,0,1:0:0:0:
187,269,20294,1,0,1:0:0:0:
149,280,20380,1,0,1:0:0:0:
110,276,20465,1,10,1:0:0:0:
73,259,20551,1,0,1:0:0:0:
49,227,20637,1,0,1:0:0:0:
39,188,20722,1,0,1:0:0:0:
41,148,20808,1,10,1:0:0:0:
60,113,20894,1,0,1:0:0:0:
90,88,20980,1,0,1:0:0:0:
128,78,21065,1,0,1:0:0:0:
167,83,21151,1,10,1:0:0:0:
202,103,21237,1,0,1:0:0:0:
222,137,21322,1,0,1:0:0:0:
229,175,21408,1,0,1:0:0:0:
222,215,21494,1,10,1:0:0:0:
195,245,21580,1,0,1:0:0:0:
157,261,21665,1,0,1:0:0:0:
117,257,21751,1,0,1:0:0:0:
69,208,21837,5,8,0:3:0:0:
132,185,21922,1,8,0:3:0:0:
198,201,22008,1,4,0:3:0:0:
240,254,22094,1,4,0:3:0:0:
262,318,22180,1,8,0:0:0:0:
312,363,22265,1,8,0:0:0:0:
378,378,22351,1,8,0:0:0:0:
443,358,22437,1,8,0:0:0:0:
487,305,22522,5,4,1:0:0:0:
349,147,22694,2,0,L|369:257,1,103.999995239258,10|0,0:0|0:0,0:0:0:0:
368,249,22951,1,0,1:0:0:0:
368,249,23037,1,10,0:0:0:0:
265,100,23208,1,0,1:2:0:0:
490,63,23380,2,0,L|470:173,1,103.999995239258,10|0,0:0|0:0,0:0:0:0:
471,165,23637,1,0,1:0:0:0:
471,165,23722,1,10,0:0:0:0:
404,16,23894,5,0,1:0:0:0:
262,195,24065,2,0,P|199:169|176:127,1,103.999995239258,10|0,0:0|0:0,0:0:0:0:
180,140,24322,1,0,1:0:0:0:
180,140,24408,1,10,0:0:0:0:
191,331,24580,6,0,L|202:267,1,51.999997619629,0|0,1:0|0:0,0:0:0:0:
16,173,24751,1,10,0:0:0:0:
16,173,24837,2,0,L|26:225,1,51.999997619629,0|0,1:0|0:0,0:0:0:0:
265,100,25008,1,0,1:0:0:0:
265,100,25094,2,0,L|276:36,1,51.999997619629,10|0,0:0|0:0,0:0:0:0:
0,0,25265,5,4,1:2:0:0:
114,182,25437,2,0,P|122:249|98:290,1,103.999995239258,10|0,0:0|0:0,0:0:0:0:
107,279,25694,1,0,1:0:0:0:
107,279,25780,1,10,0:0:0:0:
258,127,25951,1,0,1:0:0:0:
192,340,26122,2,0,P|137:381|90:380,1,103.999995239258,10|0,0:0|0:0,0:0:0:0:
104,383,26379,1,0,1:0:0:0:
104,383,26464,1,10,0:0:0:0:
114,182,26637,5,0,1:0:0:0:
201,359,26808,1,10,0:0:0:0:
299,275,26980,1,0,0:0:0:0:
299,275,27065,1,0,1:0:0:0:
299,275,27151,1,10,0:0:0:0:
132,198,27322,6,0,P|117:230|118:258,1,51.999997619629,0|0,1:0|0:0,0:0:0:0:
211,79,27494,1,10,0:0:0:0:
211,79,27580,2,0,P|180:81|148:100,1,51.999997619629,0|4,1:0|0:0,0:0:0:0:
390,66,27751,1,0,1:0:0:0:
390,66,27837,2,0,P|371:39|344:23,1,51.999997619629,12|0,0:0|0:0,0:0:0:0:
468,243,28008,5,4,1:0:0:0:
301,121,28180,2,0,L|321:231,1,103.999995239258,10|0,0:0|0:0,0:0:0:0:
319,224,28437,1,0,1:0:0:0:
319,224,28522,1,10,0:0:0:0:
390,66,28694,1,0,1:0:0:0:
486,266,28865,2,0,L|466:377,1,103.999995239258,10|0,0:0|0:0,0:0:0:0:
467,369,29122,1,0,1:0:0:0:
467,369,29208,1,10,0:0:0:0:
414,190,29380,5,0,1:0:0:0:
268,364,29551,2,0,P|203:385|158:369,1,103.999995239258,10|0,0:0|0:0,0:0:0:0:
170,375,29808,1,0,1:0:0:0:
170,375,29894,1,10,0:0:0:0:
207,261,30065,6,0,P|208:235|202:210,1,51.999997619629,0|0,1:0|0:0,0:0:0:0:
31,51,30237,1,10,0:0:0:0:
31,51,30322,2,0,P|53:64|78:71,1,51.999997619629,0|0,1:0|0:0,0:0:0:0:
315,0,30494,1,0,1:0:0:0:
315,0,30580,2,0,P|288:13|271:34,1,51.999997619629,10|0,0:0|0:0,0:0:0:0:
65,208,30751,5,4,1:2:0:0:
166,0,30922,2,0,L|186:109,1,103.999995239258,10|0,0:0|0:0,0:0:0:0:
184,102,31180,1,0,1:0:0:0:
184,102,31265,1,10,0:0:0:0:
428,301,31437,1,0,1:0:0:0:
349,90,31608,2,0,L|329:200,1,103.999995239258,10|0,0:0|0:0,0:0:0:0:
330,192,31865,1,0,1:0:0:0:
330,192,31951,1,10,0:0:0:0:
134,349,32122,5,4,1:2:0:0:
107,357,32208,1,8,0:3:0:0:
73,357,32294,1,8,0:3:0:0:
40,344,32379,1,8,0:3:0:0:
14,315,32465,1,0,1:0:0:0:
0,274,32551,1,8,0:3:0:0:
11,226,32637,1,8,0:3:0:0:
49,188,32722,1,4,0:3:0:0:
105,178,32808,5,0,1:0:0:0:
161,203,32893,1,4,0:3:0:0:
225,182,32979,1,4,0:3:0:0:
252,114,33065,1,4,0:3:0:0:
209,48,33151,6,0,L|197:111,1,51.999997619629,8|8,0:0|0:0,0:0:0:0:
381,188,33322,2,0,L|369:124,1,51.999997619629,8|8,0:0|0:0,0:0:0:0:
189,31,33494,5,4,1:0:0:0:
184,54,33580,1,0,1:0:0:0:
181,77,33665,1,0,1:0:0:0:
177,100,33751,1,0,1:0:0:0:
150,124,33837,5,10,1:0:0:0:
157,159,33923,1,0,1:0:0:0:
164,193,34008,1,0,1:0:0:0:
171,228,34094,1,0,1:0:0:0:
159,281,34181,5,2,1:0:0:0:
201,251,34266,1,0,1:0:0:0:
252,243,34352,1,0,1:0:0:0:
298,266,34438,1,0,1:0:0:0:
327,308,34523,1,10,1:0:0:0:
354,352,34609,1,0,1:0:0:0:
400,376,34695,1,0,1:0:0:0:
451,372,34780,1,0,1:0:0:0:
496,330,34865,5,2,1:0:0:0:
512,270,34950,1,0,1:0:0:0:
489,211,35036,1,0,1:0:0:0:
433,182,35122,1,0,1:0:0:0:
371,178,35207,1,10,1:0:0:0:
319,142,35293,1,0,1:0:0:0:
304,81,35379,1,0,1:0:0:0:
327,23,35464,1,0,1:0:0:0:
390,0,35551,5,2,1:0:0:0:
367,62,35637,1,0,1:0:0:0:
309,94,35723,1,0,1:0:0:0:
243,83,35809,1,0,1:0:0:0:
193,35,35894,2,0,L|204:98,1,60.0000022888184,10|0,1:0|1:0,1:0:0:0:
234,279,36065,2,0,L|224:217,1,60.0000022888184,0|0,1:0|1:0,1:0:0:0:
35,58,36237,5,2,1:0:0:0:
40,87,36323,1,0,1:0:0:0:
44,116,36408,1,0,1:0:0:0:
48,146,36494,1,0,1:0:0:0:
76,176,36580,5,10,1:0:0:0:
69,217,36666,1,0,1:0:0:0:
61,257,36751,1,0,1:0:0:0:
54,299,36837,1,0,1:0:0:0:
76,351,36922,5,2,1:0:0:0:
121,384,37007,1,0,1:0:0:0:
178,384,37093,1,0,1:0:0:0:
229,357,37179,1,0,1:0:0:0:
256,307,37264,1,10,1:0:0:0:
249,249,37350,1,0,1:0:0:0:
209,207,37436,1,0,1:0:0:0:
154,192,37521,1,0,1:0:0:0:
91,217,37608,5,2,1:0:0:0:
136,266,37693,1,0,1:0:0:0:
202,276,37779,1,0,1:0:0:0:
259,240,37865,1,0,1:0:0:0:
289,180,37950,1,10,1:0:0:0:
339,135,38036,1,0,1:0:0:0:
405,127,38122,1,0,1:0:0:0:
465,155,38207,1,0,1:0:0:0:
496,219,38294,5,2,1:0:0:0:
485,289,38381,1,0,1:0:0:0:
439,340,38465,1,0,1:0:0:0:
368,347,38551,1,0,1:0:0:0:
304,316,38637,2,0,P|283:288|270:250,1,64,10|0,1:0|1:0,1:0:0:0:
371,80,38808,2,0,P|357:112|334:139,1,64,0|0,1:0|1:0,1:0:0:0:
135,244,38980,5,4,1:2:0:0:
170,237,39065,1,0,1:0:0:0:
206,232,39151,1,0,1:0:0:0:
242,225,39237,1,0,1:0:0:0:
273,261,39322,5,10,1:0:0:0:
319,270,39407,1,0,1:0:0:0:
366,278,39493,1,0,1:0:0:0:
413,287,39579,1,0,1:0:0:0:
473,269,39665,5,2,1:0:0:0:
507,217,39750,1,0,1:0:0:0:
503,154,39836,1,0,1:0:0:0:
464,104,39922,1,0,1:0:0:0:
404,88,40007,1,10,1:0:0:0:
346,111,40093,1,0,1:0:0:0:
312,163,40179,1,0,1:0:0:0:
315,224,40264,1,0,1:0:0:0:
304,291,40351,5,2,1:0:0:0:
265,345,40436,1,0,1:0:0:0:
199,365,40522,1,0,1:0:0:0:
132,354,40608,1,0,1:0:0:0:
88,302,40693,1,10,1:0:0:0:
76,235,40779,1,0,1:0:0:0:
105,173,40865,1,0,1:0:0:0:
164,138,40951,1,0,1:0:0:0:
238,143,41037,5,2,1:0:0:0:
299,184,41122,1,0,1:0:0:0:
373,195,41208,1,0,1:0:0:0:
441,165,41294,1,0,1:0:0:0:
476,98,41380,2,0,L|462:176,1,68.0000012969971,10|0,1:0|1:0,1:0:0:0:
429,355,41551,2,0,L|442:276,1,68.0000012969971,0|0,1:0|1:0,1:0:0:0:
351,38,41722,5,2,1:0:0:0:
306,43,41807,1,0,1:0:0:0:
263,50,41893,1,0,1:0:0:0:
219,58,41979,1,0,1:0:0:0:
175,67,42064,1,10,1:0:0:0:
132,74,42150,1,0,1:0:0:0:
88,81,42236,1,0,1:0:0:0:
45,91,42321,1,0,1:0:0:0:
0,100,42408,6,0,L|47:108,1,40,2|0,1:0|1:0,1:0:0:0:
168,247,42580,1,0,1:0:0:0:
168,247,42665,2,0,L|151:202,1,40,0|10,1:0|1:0,1:0:0:0:
211,28,42837,1,0,1:0:0:0:
211,28,42922,2,0,L|180:64,1,40,0|0,1:0|1:0,0:0:0:0:
18,249,43094,5,4,1:0:0:0:
48,322,43180,1,8,0:0:0:0:
113,365,43265,1,8,0:0:0:0:
192,364,43351,1,8,0:0:0:0:
257,319,43437,1,8,1:2:0:0:
316,267,43522,1,8,0:0:0:0:
394,258,43608,1,8,0:0:0:0:
464,295,43694,1,8,0:0:0:0:
495,369,43780,5,8,1:0:0:0:
444,359,43865,1,8,0:3:0:0:
405,323,43951,1,8,0:3:0:0:
394,271,44037,1,8,0:3:0:0:
372,249,44122,5,8,1:2:0:0:
372,218,44207,1,4,0:3:0:0:
388,191,44293,1,4,0:3:0:0:
415,176,44379,1,4,0:3:0:0:
416,155,44465,6,0,P|531:150|427:61,1,320,4|10,1:2|0:0,0:0:0:0:
43,99,45919,5,2,1:2:0:0:
43,99,46101,2,0,B|106:87|106:87|140:98|140:98|203:86,1,160,0|0,1:0|1:0,0:0:0:0:
199,86,46555,1,0,1:0:0:0:
199,86,46646,1,10,0:0:0:0:
79,268,47010,2,0,L|92:189,1,80,4|0,1:2|0:0,0:0:0:0:
157,312,47374,6,0,B|142:339|115:351|115:351|204:336|204:336|210:340|210:340|303:324,1,240,4|0,1:2|1:0,0:0:0:0:
416,368,48101,1,10,0:0:0:0:
300,189,48465,1,2,1:2:0:0:
500,267,48828,5,2,1:2:0:0:
500,267,49010,2,0,B|486:190|486:190|491:182|491:182|477:106,1,160,0|0,1:0|1:0,0:0:0:0:
373,34,49555,2,0,L|359:112,1,80,10|0,0:0|0:0,0:0:0:0:
261,151,49919,2,0,L|247:72,1,80,4|0,1:2|0:0,0:0:0:0:
126,26,50283,6,0,P|76:27|3:88,1,128,4|2,1:2|0:0,0:0:0:0:
59,183,51083,6,0,P|40:217|53:291,1,95.9999970703126,10|2,0:0|0:0,0:0:0:0:
145,305,51883,5,2,1:2:0:0:
145,305,52113,2,0,P|165:338|215:360,1,80,0|0,1:0|1:0,0:0:0:0:
200,357,52690,1,0,1:0:0:0:
200,357,52806,1,10,0:0:0:0:
322,319,53267,5,4,1:2:0:0:
336,215,53729,5,4,1:0:0:0:
256,192,53901,12,0,59246,0:0:0:0:
