osu file format v14

[General]
AudioFilename: audio.mp3
AudioLeadIn: 0
PreviewTime: 494
Countdown: 0
SampleSet: Soft
StackLeniency: 0.7
Mode: 0
LetterboxInBreaks: 0
WidescreenStoryboard: 1

[Editor]
Bookmarks: 11551,22522,33494,44465
DistanceSpacing: 1.6
BeatDivisor: 4
GridSize: 16
TimelineZoom: 1.9

[Metadata]
Title:Twilight Symphony
TitleUnicode:Twilight Symphony
Artist:DRAGON EYES
ArtistUnicode:DRAGON EYES
Creator:Mildly Accurate
Version:Ascended's Hard
Source:
Tags:narrative paradogi -ascended- -_ascended_- - ascended - lokidoki dooe -doodle power metal instrumental forsaken gods フォーセイクン・ゴッズ dragon guardian thousand eyes kouta アーサー arthur spaced streams
BeatmapID:3018288
BeatmapSetID:1468542

[Difficulty]
HPDrainRate:4
CircleSize:3.6
OverallDifficulty:6
ApproachRate:7.5
SliderMultiplier:1.4
SliderTickRate:1

[Events]
//Background and Video events
0,0,"female.jpg",0,0
//Break Periods
//Storyboard Layer 0 (Background)
//Storyboard Layer 1 (Fail)
//Storyboard Layer 2 (Pass)
//Storyboard Layer 3 (Foreground)
//Storyboard Layer 4 (Overlay)
//Storyboard Sound Samples

[TimingPoints]
580,342.857142857143,4,2,1,70,1,0
580,-166.666666666667,4,2,1,70,0,0
3322,-166.666666666667,4,2,1,70,0,0
10180,-100,4,2,1,70,0,0
11551,-90.9090909090909,4,2,1,70,0,0
22522,-100,4,2,1,70,0,0
27665,-100,4,2,1,50,0,0
27751,-100,4,2,1,70,0,0
33494,-90.9090909090909,4,2,1,60,0,0
33580,-90.9090909090909,4,2,1,70,0,0
44465,363.636363636364,4,2,1,70,1,0
44465,-125,4,2,1,70,0,0
50283,400,4,2,1,70,1,0
50283,-133.333333333333,4,2,1,70,0,0
51883,461.538461538462,4,2,1,70,1,0
51883,-133.333333333333,4,2,1,70,0,0
53729,1379.31034482758,4,2,1,70,1,0

[Colours]
Combo1 : 141,219,207
Combo2 : 11,151,185
Combo3 : 111,216,229
Combo4 : 196,229,237

[HitObjects]
295,366,580,6,0,B|268:102|575:49|546:219|436:131|411:284,1,503.999984619141,4|4,1:2|1:2,0:0:0:0:
255,29,3322,6,0,B|180:8|108:43|208:197|40:212|-8:205|-86:-15|109:11|156:67|166:104|226:100,1,503.999984619141,4|4,1:2|1:2,0:0:0:0:
18,224,6065,6,0,B|-25:308|31:373|31:373|136:219|332:230,1,503.999984619141,4|4,1:2|1:2,0:0:0:0:
456,362,8808,6,0,P|467:283|507:187,1,167.999994873047,4|0,1:2|0:0,0:0:0:0:
430,48,10180,6,0,P|402:42|357:70,1,70,0|8,1:0|0:3,0:0:0:0:
346,83,10437,1,8,0:3:0:0:
346,83,10522,2,0,P|318:88|273:61,1,70,0|8,1:0|0:3,0:0:0:0:
189,101,10865,2,0,P|185:77|177:59,3,35,10|4|0|0,0:0|0:3|1:0|1:0,0:0:0:0:
168,38,11208,1,12,0:0:0:0:
50,159,11551,6,0,P|64:194|70:232,1,77.0000023498536,4|0,1:0|1:0,0:0:0:0:
62,266,11808,1,0,1:0:0:0:
62,266,11894,2,0,P|80:304|120:306,1,77.0000023498536,10|0,1:0|1:0,0:0:0:0:
195,257,12237,1,10,1:0:0:0:
260,332,12408,1,0,1:0:0:0:
260,332,12494,1,0,1:0:0:0:
260,332,12580,2,0,P|297:317|340:310,1,77.0000023498536,10|0,1:0|1:0,0:0:0:0:
436,299,12922,6,0,P|459:335|501:343,2,77.0000023498536,10|0|10,1:0|1:0|1:0,0:0:0:0:
472,208,13437,1,0,1:0:0:0:
430,124,13608,2,0,P|434:100|442:82,3,38.5000011749268,10|0|0|0,1:0|1:0|1:0|1:0,1:0:0:0:
451,61,13951,1,10,1:0:0:0:
288,84,14294,6,0,P|259:120|264:155,1,77.0000023498536,10|0,1:0|1:0,0:0:0:0:
270,182,14551,1,0,1:0:0:0:
270,182,14637,2,0,P|234:153|199:158,1,77.0000023498536,10|0,1:0|1:0,0:0:0:0:
145,231,14980,1,10,1:0:0:0:
50,221,15151,1,0,1:0:0:0:
50,221,15237,1,0,1:0:0:0:
50,221,15322,2,0,P|40:178|23:139,1,77.0000023498536,10|0,1:0|1:0,0:0:0:0:
75,55,15665,6,0,P|52:19|10:11,2,77.0000023498536,10|0|10,1:0|1:0|1:0,0:0:0:0:
163,18,16180,1,0,1:0:0:0:
249,66,16351,1,10,1:0:0:0:
249,66,16522,1,0,1:0:0:0:
351,49,16694,2,0,P|359:24|370:10,3,38.5000011749268,10|0|0|0,1:0|1:0|1:0|1:0,1:0:0:0:
343,99,17037,6,0,P|363:131|372:168,1,77.0000023498536,4|0,1:2|1:0,0:0:0:0:
396,194,17294,1,0,1:0:0:0:
396,194,17380,2,0,P|375:226|366:263,1,77.0000023498536,10|0,1:0|1:0,0:0:0:0:
418,348,17722,1,10,1:0:0:0:
321,381,17894,1,0,1:0:0:0:
321,381,17980,1,0,1:0:0:0:
321,381,18065,2,0,P|286:348|283:309,1,77.0000023498536,10|0,1:0|1:0,0:0:0:0:
217,245,18408,6,0,P|207:207|187:175,2,77.0000023498536,10|0|10,1:0|1:0|1:0,0:0:0:0:
293,187,18922,1,0,1:0:0:0:
366,263,19094,2,0,P|390:267|410:264,3,38.5000011749268,10|0|0|0,1:0|1:0|1:0|1:0,0:0:0:0:
438,265,19437,1,10,1:0:0:0:
511,103,19780,6,0,P|475:57|444:60,1,77.0000023498536,10|0,1:0|1:0,0:0:0:0:
441,31,20037,1,0,1:0:0:0:
441,31,20122,2,0,P|403:43|363:47,1,77.0000023498536,10|0,1:0|1:0,0:0:0:0:
280,26,20465,1,10,1:0:0:0:
212,96,20637,1,0,1:0:0:0:
212,96,20722,1,0,1:0:0:0:
212,96,20808,2,0,P|166:59|169:28,1,77.0000023498536,10|0,1:0|1:0,0:0:0:0:
72,83,21151,6,0,P|62:38|49:-4,2,77.0000023498536,10|0|10,1:0|1:0|1:0,0:0:0:0:
37,168,21665,1,0,1:0:0:0:
104,231,21837,1,8,0:3:0:0:
129,219,21922,1,8,0:3:0:0:
155,212,22008,1,4,0:3:0:0:
182,207,22094,1,4,0:3:0:0:
210,210,22180,2,0,P|199:252|196:286,1,77.0000023498536,8|8,0:0|0:0,0:0:0:0:
274,357,22522,6,0,P|321:343|331:314,1,70,4|10,1:0|0:0,0:0:0:0:
420,312,22865,2,0,P|427:242|445:174,1,140,2|0,3:0|1:2,0:0:0:0:
407,94,23380,2,0,P|385:67|351:64,2,70,10|0|10,0:0|0:0|0:0,0:0:0:0:
340,153,23894,6,0,P|270:160|202:178,1,140,0|0,1:0|0:0,0:0:0:0:
122,134,24408,1,10,0:0:0:0:
122,134,24580,2,0,B|69:121|69:121|32:156,2,105,0|0|10,1:0|1:0|0:0,0:0:0:0:
191,61,25265,5,4,1:2:0:0:
191,61,25437,2,0,P|213:22|298:45,1,140,10|10,0:0|0:0,0:0:0:0:
380,83,25951,2,0,P|362:130|358:166,1,70,0|10,1:0|0:0,0:0:0:0:
271,133,26294,1,0,0:0:0:0:
354,268,26637,6,0,P|379:237|411:236,1,70,0|10,1:0|0:0,0:0:0:0:
443,324,26980,1,0,0:0:0:0:
352,366,27151,1,10,0:0:0:0:
352,366,27237,1,0,0:0:0:0:
352,366,27322,2,0,P|309:352|277:350,1,70,0|10,1:0|0:0,0:0:0:0:
259,331,27580,1,0,1:0:0:0:
259,331,27665,2,0,P|216:345|184:347,1,70,4|12,0:0|0:0,0:0:0:0:
99,376,28008,6,0,P|54:356|46:319,1,70,4|10,1:0|0:0,0:0:0:0:
0,263,28351,2,0,P|9:217|94:202,1,140,2|0,3:0|1:0,0:0:0:0:
173,256,28865,1,10,0:0:0:0:
173,256,29037,2,0,P|182:217|200:178,1,70,0|10,0:0|0:0,0:0:0:0:
135,115,29380,6,0,P|144:69|229:54,1,140,0|0,1:0|0:0,0:0:0:0:
304,98,29894,1,10,0:0:0:0:
304,98,30065,2,0,B|342:57|342:57|397:73,2,105,0|0|10,1:0|1:0|0:0,0:0:0:0:
288,187,30751,5,4,1:2:0:0:
288,187,30922,2,0,P|324:281|332:353,1,140,10|10,0:0|0:0,0:0:0:0:
410,370,31437,2,0,P|449:353|462:318,1,70,0|10,1:0|0:0,0:0:0:0:
412,250,31780,1,0,0:0:0:0:
228,307,32122,5,4,1:2:0:0:
145,267,32294,1,8,0:3:0:0:
70,323,32465,2,0,P|30:305|18:277,1,70,0|8,1:0|0:3,0:0:0:0:
52,200,32808,1,0,1:0:0:0:
46,174,32893,1,4,0:3:0:0:
40,148,32979,1,4,0:3:0:0:
31,124,33065,1,4,0:3:0:0:
21,99,33150,1,8,0:0:0:0:
181,30,33494,6,0,P|219:52|259:57,1,77.0000023498536,4|0,1:0|1:0,0:0:0:0:
342,18,33837,1,10,1:0:0:0:
418,87,34008,1,0,1:0:0:0:
418,87,34094,1,0,1:0:0:0:
418,87,34180,2,0,P|436:98|454:125,3,38.5000011749268,2|0|0|0,1:0|1:0|1:0|1:0,0:0:0:0:
477,127,34522,2,0,P|481:147|475:179,3,38.5000011749268,10|0|0|0,1:0|1:0|1:0|1:0,0:0:0:0:
469,197,34865,6,0,P|425:210|406:235,1,77.0000023498536,2|0,1:0|1:0,0:0:0:0:
398,267,35122,1,0,1:0:0:0:
398,267,35208,1,10,1:0:0:0:
313,222,35380,1,0,1:0:0:0:
221,238,35551,2,0,P|196:248|180:259,3,38.5000011749268,2|0|0|0,1:0|1:0|1:0|1:0,0:0:0:0:
155,237,35894,2,0,P|145:212|134:196,3,38.5000011749268,10|0|0|0,1:0|1:0|1:0|1:0,1:0:0:0:
108,185,36237,6,0,P|65:203|54:240,1,77.0000023498536,2|0,1:0|1:0,0:0:0:0:
30,318,36580,1,10,1:0:0:0:
116,364,36751,1,0,1:0:0:0:
116,364,36837,1,0,1:0:0:0:
116,364,36922,2,0,P|139:352|156:349,3,38.5000011749268,2|0|0|0,1:0|1:0|1:0|1:0,0:0:0:0:
178,327,37265,2,0,P|196:331|213:341,3,38.5000011749268,10|0|0|0,1:0|1:0|1:0|1:0,0:0:0:0:
237,366,37608,6,0,P|276:349|309:345,1,77.0000023498536,2|0,1:0|1:0,0:0:0:0:
397,366,37951,1,10,1:0:0:0:
475,306,38122,1,0,1:0:0:0:
475,306,38208,1,0,1:0:0:0:
475,306,38294,2,0,P|482:260|496:232,1,77.0000023498536,2|0,1:0|1:0,0:0:0:0:
411,184,38637,2,0,P|408:164|400:147,3,38.5000011749268,10|0|0|0,1:0|1:0|1:0|1:0,1:0:0:0:
373,125,38980,6,0,P|323:128|301:154,1,77.0000023498536,4|0,1:2|1:0,0:0:0:0:
236,204,39322,2,0,P|198:206|168:183,1,77.0000023498536,10|0,1:0|1:0,0:0:0:0:
116,108,39665,2,0,P|121:82|130:62,3,38.5000011749268,2|0|0|0,1:0|1:0|1:0|1:0,0:0:0:0:
153,50,40008,2,0,P|179:55|199:64,3,38.5000011749268,10|0|0|0,1:0|1:0|1:0|1:0,0:0:0:0:
215,82,40351,6,0,P|256:65|293:57,1,77.0000023498536,2|0,1:0|1:0,0:0:0:0:
361,3,40694,1,10,1:0:0:0:
455,30,40865,1,0,1:0:0:0:
455,30,40951,1,0,1:0:0:0:
455,30,41037,2,0,P|436:72|431:108,1,77.0000023498536,2|0,1:0|1:0,0:0:0:0:
374,178,41380,2,0,P|382:195|385:214,3,38.5000011749268,10|0|0|0,1:0|1:0|1:0|1:0,1:0:0:0:
377,247,41722,6,0,B|297:238|329:304|260:332,1,154.000004699707,2|10,1:0|1:0,0:0:0:0:
183,288,42237,1,0,1:0:0:0:
117,348,42408,2,0,P|65:319|62:283,1,77.0000023498536,2|0,1:0|1:0,1:0:0:0:
65,271,42665,1,0,1:0:0:0:
65,271,42751,1,10,1:0:0:0:
16,184,42922,1,0,1:0:0:0:
123,171,43094,6,0,P|164:154|201:146,1,77.0000023498536,4|8,1:0|0:0,0:0:0:0:
293,177,43437,1,8,1:2:0:0:
311,154,43522,1,8,0:0:0:0:
320,127,43608,1,8,0:0:0:0:
318,98,43694,1,8,0:0:0:0:
301,70,43780,2,0,P|263:49|225:57,1,77.0000023498536,8|8,1:0|0:3,0:0:0:0:
158,0,44122,2,0,P|117:12|96:44,1,77.0000023498536,8|4,1:2|0:3,0:0:0:0:
90,64,44380,5,4,0:3:0:0:
90,64,44465,2,0,P|114:133|124:182,1,112,4|2,1:2|0:0,0:0:0:0:
88,321,45192,2,0,B|62:286|62:286|18:307,2,84,10|0|0,0:0|0:0|0:0,0:0:0:0:
179,365,45919,5,2,1:2:0:0:
179,365,46101,2,0,P|217:355|293:349,1,112,0|0,1:0|1:0,0:0:0:0:
314,354,46555,1,0,1:0:0:0:
314,354,46646,2,0,B|351:336|351:336|377:370,2,84,10|0|0,0:0|0:0|0:0,0:0:0:0:
271,262,47374,6,0,P|281:200|308:87,1,168,4|0,1:2|1:0,0:0:0:0:
326,9,48101,2,0,B|284:-7|284:-7|251:25,2,84,10|0|0,0:0|0:0|0:0,0:0:0:0:
423,51,48828,5,2,1:2:0:0:
423,51,49010,2,0,P|480:50|496:117,1,112,0|0,1:0|1:0,0:0:0:0:
497,185,49555,5,10,0:0:0:0:
418,320,49919,1,4,1:2:0:0:
277,273,50283,6,0,P|204:264|134:313,1,157.500006008148,4|0,1:2|3:0,0:0:0:0:
54,262,51083,1,10,0:0:0:0:
11,113,51483,1,2,0:0:0:0:
147,30,51883,5,2,1:2:0:0:
147,30,52113,2,0,P|195:62|254:56,1,105.000004005432,0|0,1:0|1:0,0:0:0:0:
273,57,52690,2,0,P|267:36|263:21,1,26.2500010013581,0|10,1:0|0:0,0:0:0:0:
406,177,53267,1,4,1:2:0:0:
231,219,53729,5,4,1:0:0:0:
256,192,53901,12,0,59246,0:0:0:0:
