osu file format v14

[General]
AudioFilename: audio.mp3
AudioLeadIn: 0
PreviewTime: -1
Countdown: 0
SampleSet: Soft
StackLeniency: 0.7
Mode: 0
LetterboxInBreaks: 0
WidescreenStoryboard: 0

[Editor]
Bookmarks: 242779
DistanceSpacing: 0.6
BeatDivisor: 4
GridSize: 8
TimelineZoom: 2.7

[Metadata]
Title:Hoshi Furu Yoru
TitleUnicode:星降る夜
Artist:DRAGON EYES
ArtistUnicode:DRAGON EYES
Creator:BreadedFish
Version:Extra
Source:
Tags:
BeatmapID:1270678
BeatmapSetID:601491

[Difficulty]
HPDrainRate:8
CircleSize:4.5
OverallDifficulty:9
ApproachRate:9.7
SliderMultiplier:2.2
SliderTickRate:1

[Events]
//Background and Video events
0,0,"de.jpg",0,0
//Break Periods
//Storyboard Layer 0 (Background)
//Storyboard Layer 1 (Fail)
//Storyboard Layer 2 (Pass)
//Storyboard Layer 3 (Foreground)
//Storyboard Layer 4 (Overlay)
//Storyboard Sound Samples

[TimingPoints]
99,333.333333333333,4,2,0,50,1,0
1432,-100,4,2,0,50,0,0
2765,-100,4,2,0,50,0,0
4098,-100,4,2,0,50,0,0
5432,-100,4,2,0,50,0,0
8098,-100,4,2,0,50,0,0
10765,-100,4,2,0,50,0,0
12098,-100,4,2,0,50,0,0
13432,-100,4,2,0,50,0,0
14765,-100,4,2,0,50,0,0
16098,-100,4,2,0,50,0,0
18765,-100,4,2,0,50,0,0
21432,-133.333333333333,4,3,0,50,0,0
30765,-100,4,3,0,50,0,0
32099,-66.6666666666667,4,2,0,50,0,0
36098,-100,4,2,0,50,0,0
37432,-66.6666666666667,4,2,0,50,0,0
40098,-66.6666666666667,4,2,0,50,0,0
41432,-100,4,3,0,50,0,0
44098,-66.6666666666667,4,3,0,50,0,1
62765,-80,4,2,0,50,0,0
64098,-80,4,2,0,50,0,0
65432,-80,4,2,0,50,0,0
66765,-80,4,2,0,50,0,0
68265,-80,4,2,0,50,0,0
70765,-80,4,2,0,50,0,0
73432,-80,4,2,0,50,0,0
74765,-80,4,2,0,50,0,0
76098,-80,4,2,0,50,0,0
77432,-80,4,2,0,50,0,0
78765,-80,4,2,0,50,0,0
81432,-80,4,2,0,50,0,0
84098,-80,4,3,0,50,0,0
86432,-133.333333333333,4,3,0,50,0,0
93432,-100,4,3,0,50,0,0
94765,-66.6666666666667,4,2,0,50,0,0
102765,-66.6666666666667,4,2,0,50,0,0
104098,-100,4,3,0,50,0,0
106765,-66.6666666666667,4,3,0,50,0,1
130098,-100,4,3,0,50,0,0
141432,-66.6666666666667,4,3,0,50,0,0
153432,-50,4,3,0,50,0,0
154765,-66.6666666666667,4,3,0,50,0,0
173432,-100,4,3,0,50,0,0
176098,-100,4,3,0,50,0,0
178765,-66.6666666666667,4,3,0,50,0,0
184098,-100,4,2,0,50,0,0
188098,-100,4,2,0,50,0,0
189432,-100,4,3,0,50,0,0
194765,-66.6666666666667,4,3,0,50,0,1
205432,-66.6666666666667,4,2,0,50,0,1
206765,-66.6666666666667,4,3,0,50,0,1
216098,-100,4,3,0,50,0,1
218765,-66.6666666666667,4,3,0,50,0,1
223765,-200,4,3,0,50,0,1
224098,-66.6666666666667,4,3,0,50,0,1
228098,-100,4,3,0,50,0,1
229432,352.941176470588,4,2,0,50,1,0
229432,-133.333333333333,4,2,0,50,0,0
235079,400,4,2,0,50,1,0
235079,-100,4,2,0,50,0,0
238412,-357.142857142857,4,2,0,50,0,0

[HitObjects]
164,95,99,5,6,0:0:0:0:
140,118,182,1,0,0:0:0:0:
130,149,265,1,0,0:0:0:0:
129,181,348,1,0,0:0:0:0:
138,212,432,1,2,0:0:0:0:
301,159,598,1,0,0:0:0:0:
80,254,765,1,10,0:0:0:0:
242,86,932,1,0,0:0:0:0:
172,318,1098,1,10,0:0:0:0:
158,33,1265,1,0,0:0:0:0:
444,85,1432,5,6,0:0:0:0:
414,66,1515,1,0,0:0:0:0:
381,54,1598,1,0,0:0:0:0:
346,50,1682,1,0,0:0:0:0:
313,51,1765,1,2,0:0:0:0:
281,60,1848,1,0,0:0:0:0:
253,78,1932,1,0,0:0:0:0:
230,102,2015,1,0,0:0:0:0:
212,129,2098,2,4,P|160:169|86:186,1,110,6|2,0:0|0:0,0:0:0:0:
123,72,2432,2,4,P|175:32|249:15,1,110,6|2,0:0|0:0,0:0:0:0:
424,89,2765,5,6,0:0:0:0:
424,123,2848,1,0,0:0:0:0:
412,157,2932,1,0,0:0:0:0:
392,184,3015,1,0,0:0:0:0:
364,205,3098,1,2,0:0:0:0:
155,192,3265,1,0,0:0:0:0:
347,113,3432,1,10,0:0:0:0:
214,308,3598,1,0,0:0:0:0:
195,38,3765,1,10,0:0:0:0:
353,290,3932,1,0,0:0:0:0:
144,262,4098,5,6,0:0:0:0:
128,231,4182,1,0,0:0:0:0:
124,196,4265,1,0,0:0:0:0:
133,162,4348,1,0,0:0:0:0:
153,134,4432,2,2,P|197:102|262:77,1,110
441,42,4765,1,6,0:0:0:0:
470,54,4848,1,0,0:0:0:0:
495,79,4932,1,0,0:0:0:0:
510,110,5015,1,0,0:0:0:0:
512,145,5098,2,2,P|499:196|452:254,1,110
308,328,5432,5,6,0:0:0:0:
374,139,5598,2,2,L|440:134,2,55
201,200,5932,1,0,0:0:0:0:
404,282,6098,1,6,0:0:0:0:
320,64,6265,2,2,L|386:56,2,55
132,108,6598,1,0,0:0:0:0:
328,242,6765,1,6,0:0:0:0:
248,17,6932,1,0,0:0:0:0:
118,215,7098,1,0,0:0:0:0:
30,14,7265,1,0,0:0:0:0:
237,147,7432,1,6,0:0:0:0:
4,107,7598,2,2,L|62:126,2,55
270,47,7932,1,0,0:0:0:0:
87,230,8098,5,14,0:0:0:0:
88,250,8182,1,0,0:0:0:0:
95,270,8265,1,0,0:0:0:0:
107,287,8348,1,0,0:0:0:0:
123,301,8432,1,0,0:0:0:0:
142,310,8515,1,0,0:0:0:0:
162,312,8598,2,10,P|206:309|222:291,1,55
317,82,8765,2,6,P|273:85|257:103,1,55
312,287,8932,2,10,P|343:295|380:283,1,55
379,21,9098,5,14,0:0:0:0:
363,11,9182,1,0,0:0:0:0:
345,4,9265,1,0,0:0:0:0:
326,2,9348,1,0,0:0:0:0:
308,6,9432,1,0,0:0:0:0:
287,11,9515,1,0,0:0:0:0:
268,21,9598,1,0,0:0:0:0:
252,36,9682,1,0,0:0:0:0:
243,53,9765,1,0,0:0:0:0:
237,75,9848,1,0,0:0:0:0:
234,95,9932,2,8,P|232:123|237:150,1,55
326,304,10098,2,6,P|336:279|338:251,1,55
307,98,10265,2,8,P|306:124|313:151,1,55
408,294,10432,2,10,P|423:316|445:333,2,55
412,155,10765,5,6,0:0:0:0:
405,189,10848,1,0,0:0:0:0:
388,219,10932,1,0,0:0:0:0:
362,243,11015,1,0,0:0:0:0:
331,257,11098,1,2,0:0:0:0:
127,170,11265,1,0,0:0:0:0:
389,45,11432,1,10,0:0:0:0:
250,290,11598,1,0,0:0:0:0:
220,0,11765,1,10,0:0:0:0:
458,148,11932,1,0,0:0:0:0:
189,223,12098,5,6,0:0:0:0:
159,207,12182,1,0,0:0:0:0:
137,182,12265,1,0,0:0:0:0:
125,151,12348,1,0,0:0:0:0:
125,117,12432,1,0,0:0:0:0:
138,87,12515,1,0,0:0:0:0:
158,61,12598,1,0,0:0:0:0:
188,47,12682,1,0,0:0:0:0:
220,48,12765,1,4,0:0:0:0:
248,63,12848,1,0,0:0:0:0:
270,88,12932,1,0,0:0:0:0:
288,115,13015,1,0,0:0:0:0:
309,139,13098,2,2,P|373:184|425:202,1,110
204,134,13432,5,2,0:0:0:0:
197,168,13515,1,0,0:0:0:0:
201,203,13599,1,0,0:0:0:0:
215,234,13682,1,0,0:0:0:0:
236,254,13765,1,6,0:0:0:0:
411,299,13932,1,0,0:0:0:0:
376,71,14098,1,10,0:0:0:0:
320,314,14265,1,0,0:0:0:0:
477,160,14432,1,10,0:0:0:0:
275,182,14598,1,0,0:0:0:0:
477,160,14765,5,6,0:0:0:0:
483,125,14848,1,0,0:0:0:0:
479,91,14932,1,0,0:0:0:0:
464,59,15015,1,0,0:0:0:0:
441,33,15098,2,2,P|388:3|323:5,1,110
184,134,15432,1,6,0:0:0:0:
177,168,15515,1,0,0:0:0:0:
181,202,15598,1,0,0:0:0:0:
196,234,15682,1,0,0:0:0:0:
219,260,15765,2,2,P|272:290|335:282,1,110
460,209,16098,5,6,0:0:0:0:
273,195,16265,2,2,L|336:178,2,55
405,336,16598,1,0,0:0:0:0:
441,116,16765,1,6,0:0:0:0:
158,133,16932,2,2,L|212:116,2,55
334,253,17265,1,0,0:0:0:0:
365,0,17432,1,6,0:0:0:0:
452,212,17598,1,0,0:0:0:0:
267,35,17765,1,2,0:0:0:0:
203,269,17932,1,0,0:0:0:0:
351,145,18098,1,6,0:0:0:0:
103,216,18265,2,2,L|187:191,2,55
417,59,18598,1,0,0:0:0:0:
292,268,18765,5,6,0:0:0:0:
291,248,18848,1,0,0:0:0:0:
284,228,18932,1,0,0:0:0:0:
272,211,19015,1,0,0:0:0:0:
256,197,19098,1,0,0:0:0:0:
237,188,19182,1,0,0:0:0:0:
221,182,19265,2,10,P|182:182|146:195,1,55
0,275,19432,2,6,P|39:275|69:269,1,55
240,105,19598,2,10,P|201:105|165:118,1,55
238,333,19765,5,6,0:0:0:0:
254,343,19848,1,0,0:0:0:0:
272,350,19932,1,0,0:0:0:0:
291,352,20015,1,0,0:0:0:0:
310,350,20098,1,0,0:0:0:0:
329,344,20182,1,0,0:0:0:0:
345,333,20265,1,0,0:0:0:0:
358,319,20348,1,0,0:0:0:0:
368,302,20432,1,0,0:0:0:0:
374,284,20515,1,0,0:0:0:0:
378,271,20598,6,10,P|379:231|367:199,1,55
271,37,20765,2,6,P|281:82|304:108,1,55
453,280,20932,2,10,P|464:244|458:205,1,55
494,49,21098,2,10,P|481:13|460:-13,2,55
468,353,21432,5,6,0:0:0:0:
468,353,22432,1,6,0:0:0:0:
418,56,22765,1,6,0:0:0:0:
418,56,23765,5,6,0:0:0:0:
194,230,24098,2,0,P|330:247|288:137,1,288.750011014939
267,210,24765,2,0,P|403:227|361:117,1,288.750011014939
256,192,25432,12,8,26432,0:0:0:0:
77,320,26765,5,6,0:0:0:0:
77,320,27765,1,6,0:0:0:0:
112,55,28098,1,6,0:0:0:0:
112,55,29098,5,6,0:0:0:0:
350,194,29432,2,4,P|300:89|274:214,1,288.750011014939
299,154,30098,2,4,P|176:186|281:249,1,288.750011014939
247,194,30765,2,8,L|183:242,3,55
383,124,31098,2,8,L|447:81,3,55
333,267,31432,2,8,L|266:318,3,55
460,207,31765,2,8,L|523:164,3,55
194,310,32098,5,6,0:0:0:0:
143,323,32182,1,0,0:0:0:0:
93,312,32265,1,0,0:0:0:0:
54,278,32348,1,0,0:0:0:0:
35,229,32432,1,0,0:0:0:0:
42,177,32515,1,0,0:0:0:0:
73,135,32598,1,0,0:0:0:0:
120,113,32682,1,0,0:0:0:0:
172,115,32765,5,6,0:0:0:0:
212,156,32848,1,0,0:0:0:0:
261,186,32932,1,0,0:0:0:0:
318,187,33015,1,0,0:0:0:0:
370,163,33098,1,4,0:0:0:0:
389,108,33182,1,0,0:0:0:0:
373,52,33265,1,2,0:0:0:0:
326,18,33348,1,0,0:0:0:0:
267,17,33432,5,6,0:0:0:0:
272,74,33515,1,0,0:0:0:0:
307,119,33598,1,0,0:0:0:0:
355,150,33682,1,0,0:0:0:0:
396,189,33765,1,0,0:0:0:0:
426,237,33848,1,0,0:0:0:0:
425,295,33932,1,0,0:0:0:0:
392,342,34015,1,0,0:0:0:0:
348,379,34098,6,6,P|281:371|232:342,1,82.5000031471254
99,280,34265,2,6,P|166:288|215:317,1,82.5000031471254
310,303,34432,6,6,P|250:271|214:226,1,82.5000031471254
113,121,34599,2,6,P|172:152|208:197,1,82.5000031471254
313,223,34765,5,6,0:0:0:0:
367,204,34848,1,0,0:0:0:0:
405,160,34932,1,0,0:0:0:0:
415,103,35015,1,0,0:0:0:0:
409,45,35098,1,0,0:0:0:0:
393,101,35182,1,0,0:0:0:0:
405,160,35265,1,0,0:0:0:0:
439,206,35348,1,0,0:0:0:0:
496,216,35432,5,0,0:0:0:0:
463,168,35515,1,0,0:0:0:0:
405,160,35598,1,0,0:0:0:0:
355,190,35682,1,0,0:0:0:0:
301,211,35765,1,0,0:0:0:0:
248,187,35848,1,0,0:0:0:0:
238,129,35932,1,0,0:0:0:0:
259,75,36015,1,0,0:0:0:0:
300,38,36098,5,0,0:0:0:0:
300,38,36182,1,0,0:0:0:0:
300,38,36265,2,4,L|313:121,1,55
200,243,36432,1,0,0:0:0:0:
200,243,36515,1,0,0:0:0:0:
200,243,36598,2,4,L|190:163,1,55
135,35,36765,1,0,0:0:0:0:
135,35,36848,1,0,0:0:0:0:
135,35,36932,2,4,L|124:122,1,55
91,333,37098,1,0,0:0:0:0:
91,333,37181,1,0,0:0:0:0:
91,333,37265,2,4,L|171:316,1,55
259,138,37432,5,6,0:0:0:0:
286,87,37515,1,0,0:0:0:0:
337,61,37598,1,0,0:0:0:0:
394,69,37682,1,0,0:0:0:0:
433,110,37765,1,0,0:0:0:0:
446,165,37848,1,0,0:0:0:0:
426,219,37932,1,0,0:0:0:0:
377,249,38015,1,0,0:0:0:0:
320,257,38098,5,4,0:0:0:0:
265,236,38182,1,0,0:0:0:0:
211,215,38265,1,0,0:0:0:0:
162,222,38348,1,0,0:0:0:0:
126,257,38432,1,6,0:0:0:0:
122,306,38515,1,0,0:0:0:0:
147,348,38598,1,2,0:0:0:0:
192,368,38682,1,0,0:0:0:0:
240,358,38765,5,6,0:0:0:0:
231,309,38848,1,0,0:0:0:0:
231,259,38932,1,0,0:0:0:0:
243,211,39015,1,0,0:0:0:0:
269,169,39098,1,0,0:0:0:0:
306,136,39182,1,0,0:0:0:0:
352,118,39265,1,0,0:0:0:0:
400,126,39348,1,0,0:0:0:0:
438,157,39432,6,4,P|401:186|369:201,1,82.5000031471254
160,270,39598,1,0,0:0:0:0:
111,258,39682,1,0,0:0:0:0:
76,222,39765,1,6,0:0:0:0:
71,172,39848,1,0,0:0:0:0:
94,127,39932,1,2,0:0:0:0:
138,105,40015,1,0,0:0:0:0:
187,109,40098,5,6,0:0:0:0:
230,147,40182,1,0,0:0:0:0:
279,175,40265,1,0,0:0:0:0:
336,169,40348,1,0,0:0:0:0:
371,122,40432,1,0,0:0:0:0:
385,66,40515,1,0,0:0:0:0:
385,8,40598,2,4,P|352:32|332:71,1,82.5000031471254
301,278,40765,5,6,0:0:0:0:
347,244,40848,1,0,0:0:0:0:
404,255,40932,1,0,0:0:0:0:
440,299,41015,1,0,0:0:0:0:
431,355,41098,1,0,0:0:0:0:
395,309,41182,1,0,0:0:0:0:
404,255,41265,1,0,0:0:0:0:
430,203,41348,1,0,0:0:0:0:
471,162,41432,6,8,L|526:121,2,55
285,293,41682,1,4,0:0:0:0:
287,313,41765,2,8,L|374:386,1,110
219,207,42015,1,4,0:0:0:0:
202,207,42098,2,8,L|158:318,1,110
220,76,42348,1,4,0:0:0:0:
214,64,42432,2,8,L|101:99,1,110
379,41,42682,1,4,0:0:0:0:
383,25,42765,6,8,L|329:-3,3,55
460,130,43098,2,8,L|514:158,3,55
453,326,43432,1,4,0:0:0:0:
453,326,43516,1,0,0:0:0:0:
453,326,43598,1,0,0:0:0:0:
453,326,43682,1,0,0:0:0:0:
453,326,43766,1,0,0:0:0:0:
424,300,43849,1,0,0:0:0:0:
388,285,43932,1,0,0:0:0:0:
349,281,44015,1,0,0:0:0:0:
292,293,44098,5,6,0:0:0:0:
242,323,44182,1,0,0:0:0:0:
184,317,44265,1,2,0:0:0:0:
133,288,44348,1,0,0:0:0:0:
112,233,44432,1,6,0:0:0:0:
115,175,44515,1,0,0:0:0:0:
145,126,44598,1,0,0:0:0:0:
193,94,44682,1,0,0:0:0:0:
235,151,44765,5,4,0:0:0:0:
276,111,44848,1,0,0:0:0:0:
332,95,44932,1,0,0:0:0:0:
385,115,45015,1,0,0:0:0:0:
419,160,45098,1,0,0:0:0:0:
363,178,45182,1,0,0:0:0:0:
307,162,45265,1,0,0:0:0:0:
276,111,45348,1,0,0:0:0:0:
265,53,45432,5,4,0:0:0:0:
292,103,45515,1,0,0:0:0:0:
296,160,45598,1,0,0:0:0:0:
284,217,45682,1,0,0:0:0:0:
264,270,45765,1,6,0:0:0:0:
287,262,45848,1,0,0:0:0:0:
307,282,45932,2,4,L|204:353,1,82.5000031471254
151,154,46098,1,6,0:0:0:0:
170,139,46181,1,0,0:0:0:0:
196,150,46265,2,4,L|125:253,1,82.5000031471254
22,87,46432,1,6,0:0:0:0:
34,66,46515,1,0,0:0:0:0:
62,67,46599,2,4,L|32:188,1,82.5000031471254
203,237,46765,5,6,0:0:0:0:
248,218,46848,1,0,0:0:0:0:
283,182,46932,1,0,0:0:0:0:
300,136,47015,1,0,0:0:0:0:
296,86,47098,1,0,0:0:0:0:
266,45,47182,1,0,0:0:0:0:
222,22,47265,1,0,0:0:0:0:
172,18,47348,1,0,0:0:0:0:
123,31,47432,5,0,0:0:0:0:
149,72,47515,1,0,0:0:0:0:
189,100,47598,1,0,0:0:0:0:
238,107,47682,1,0,0:0:0:0:
287,109,47765,5,0,0:0:0:0:
334,122,47848,1,0,0:0:0:0:
375,149,47932,1,0,0:0:0:0:
404,188,48015,1,0,0:0:0:0:
422,233,48098,1,0,0:0:0:0:
365,220,48182,1,0,0:0:0:0:
326,176,48265,1,0,0:0:0:0:
334,122,48348,1,0,0:0:0:0:
363,71,48432,5,6,0:0:0:0:
338,49,48515,1,0,0:0:0:0:
354,16,48598,2,4,L|450:37,1,82.5000031471254
222,143,48765,5,6,0:0:0:0:
191,144,48848,1,0,0:0:0:0:
171,116,48931,2,4,L|265:89,1,82.5000031471254
277,295,49098,5,6,0:0:0:0:
251,311,49181,1,0,0:0:0:0:
220,295,49264,2,4,L|291:227,1,82.5000031471254
455,334,49432,5,6,0:0:0:0:
397,329,49515,1,0,0:0:0:0:
353,291,49598,1,0,0:0:0:0:
335,235,49682,1,0,0:0:0:0:
339,175,49765,1,0,0:0:0:0:
369,126,49848,1,0,0:0:0:0:
425,111,49932,5,4,0:0:0:0:
398,161,50015,1,0,0:0:0:0:
339,175,50098,1,0,0:0:0:0:
286,150,50182,1,0,0:0:0:0:
248,106,50265,1,0,0:0:0:0:
233,50,50348,1,0,0:0:0:0:
267,3,50432,5,4,0:0:0:0:
281,58,50515,1,0,0:0:0:0:
249,106,50598,1,0,0:0:0:0:
200,137,50682,1,0,0:0:0:0:
143,126,50765,5,6,0:0:0:0:
154,157,50848,1,0,0:0:0:0:
138,186,50932,2,4,L|43:142,1,82.5000031471254
233,235,51098,5,6,0:0:0:0:
257,259,51181,1,0,0:0:0:0:
255,292,51265,2,4,L|150:294,1,82.5000031471254
381,283,51432,5,6,0:0:0:0:
413,297,51515,1,0,0:0:0:0:
422,328,51599,2,4,L|325:367,1,82.5000031471254
120,383,51765,1,6,0:0:0:0:
120,383,51848,1,0,0:0:0:0:
120,383,51932,2,4,L|211:367,1,82.5000031471254
274,293,52098,5,6,0:0:0:0:
277,271,52182,1,0,0:0:0:0:
276,249,52265,1,0,0:0:0:0:
270,228,52348,1,0,0:0:0:0:
258,208,52432,1,0,0:0:0:0:
250,187,52515,1,0,0:0:0:0:
245,166,52598,1,0,0:0:0:0:
244,144,52682,1,0,0:0:0:0:
248,121,52765,5,4,0:0:0:0:
268,94,52848,1,0,0:0:0:0:
295,76,52932,1,0,0:0:0:0:
327,69,53015,1,0,0:0:0:0:
360,73,53098,1,0,0:0:0:0:
388,90,53182,1,0,0:0:0:0:
411,113,53265,1,0,0:0:0:0:
427,142,53348,1,0,0:0:0:0:
435,173,53432,5,4,0:0:0:0:
433,217,53515,1,0,0:0:0:0:
418,257,53598,1,0,0:0:0:0:
388,289,53682,1,0,0:0:0:0:
340,308,53765,1,0,0:0:0:0:
288,306,53848,1,0,0:0:0:0:
240,284,53932,2,4,L|175:223,1,82.5000031471254
84,152,54098,5,6,0:0:0:0:
84,152,54182,1,0,0:0:0:0:
84,152,54265,2,4,L|159:93,1,82.5000031471254
278,0,54432,1,6,0:0:0:0:
278,0,54515,1,0,0:0:0:0:
278,0,54598,2,4,L|301:85,1,82.5000031471254
332,258,54765,5,14,0:0:0:0:
288,295,54848,1,0,0:0:0:0:
232,312,54932,1,0,0:0:0:0:
174,307,55015,1,0,0:0:0:0:
173,233,55098,5,0,0:0:0:0:
115,221,55182,1,0,0:0:0:0:
60,238,55265,1,0,0:0:0:0:
25,283,55348,1,0,0:0:0:0:
103,304,55432,5,0,0:0:0:0:
135,256,55515,1,0,0:0:0:0:
151,200,55598,1,0,0:0:0:0:
140,142,55682,1,0,0:0:0:0:
104,96,55765,5,0,0:0:0:0:
90,151,55848,1,0,0:0:0:0:
131,191,55932,1,0,0:0:0:0:
188,189,56015,1,0,0:0:0:0:
234,154,56098,5,0,0:0:0:0:
284,125,56182,1,0,0:0:0:0:
341,118,56265,1,0,0:0:0:0:
394,137,56348,1,0,0:0:0:0:
433,180,56432,5,6,0:0:0:0:
459,183,56515,1,0,0:0:0:0:
453,215,56598,2,4,L|383:259,1,82.5000031471254
274,228,56765,5,6,0:0:0:0:
293,218,56848,1,0,0:0:0:0:
310,241,56931,2,4,L|263:309,1,82.5000031471254
139,262,57098,5,6,0:0:0:0:
157,249,57181,1,0,0:0:0:0:
175,271,57264,2,4,L|155:351,1,82.5000031471254
324,336,57432,5,6,0:0:0:0:
357,289,57515,1,0,0:0:0:0:
369,232,57598,1,0,0:0:0:0:
366,173,57682,1,0,0:0:0:0:
341,121,57765,1,0,0:0:0:0:
301,79,57848,1,0,0:0:0:0:
251,48,57932,1,0,0:0:0:0:
193,41,58015,1,0,0:0:0:0:
140,65,58098,5,4,0:0:0:0:
171,114,58182,1,0,0:0:0:0:
219,145,58265,1,0,0:0:0:0:
273,162,58348,1,0,0:0:0:0:
330,171,58432,1,4,0:0:0:0:
377,203,58515,1,0,0:0:0:0:
400,255,58598,1,0,0:0:0:0:
388,312,58682,1,0,0:0:0:0:
341,346,58765,5,4,0:0:0:0:
289,320,58848,1,0,0:0:0:0:
231,312,58932,1,0,0:0:0:0:
176,329,59015,1,0,0:0:0:0:
131,365,59098,5,6,0:0:0:0:
103,365,59182,1,0,0:0:0:0:
92,334,59265,2,4,L|137:246,1,82.5000031471254
74,215,59432,5,6,0:0:0:0:
47,204,59516,1,0,0:0:0:0:
48,172,59599,2,4,L|121:105,1,82.5000031471254
49,78,59765,5,6,0:0:0:0:
28,57,59849,1,0,0:0:0:0:
41,28,59932,2,4,L|134:-4,1,82.5000031471254
272,56,60098,5,6,0:0:0:0:
285,112,60182,1,0,0:0:0:0:
276,168,60265,1,0,0:0:0:0:
248,218,60348,1,0,0:0:0:0:
198,249,60432,1,0,0:0:0:0:
140,255,60515,1,0,0:0:0:0:
84,240,60598,1,0,0:0:0:0:
47,194,60682,1,0,0:0:0:0:
38,137,60765,5,6,0:0:0:0:
93,150,60848,1,2,0:0:0:0:
149,165,60932,1,2,0:0:0:0:
204,179,61015,1,2,0:0:0:0:
259,194,61098,1,4,0:0:0:0:
314,212,61182,1,4,0:0:0:0:
368,230,61265,1,4,0:0:0:0:
423,244,61348,1,4,0:0:0:0:
482,332,61432,5,14,0:0:0:0:
482,332,62765,5,6,0:0:0:0:
489,284,62848,1,0,0:0:0:0:
477,237,62931,1,0,0:0:0:0:
447,198,63014,1,0,0:0:0:0:
405,172,63098,1,2,0:0:0:0:
178,235,63264,1,0,0:0:0:0:
392,270,63431,1,10,0:0:0:0:
213,70,63598,1,0,0:0:0:0:
272,309,63764,1,10,0:0:0:0:
328,153,63931,1,0,0:0:0:0:
75,173,64098,5,6,0:0:0:0:
56,217,64181,1,0,0:0:0:0:
62,264,64264,1,0,0:0:0:0:
89,304,64348,1,0,0:0:0:0:
133,321,64431,1,2,0:0:0:0:
180,322,64514,1,0,0:0:0:0:
219,294,64598,1,0,0:0:0:0:
241,251,64681,1,0,0:0:0:0:
255,205,64764,2,4,P|281:152|336:95,1,137.5,6|2,0:0|0:0,0:0:0:0:
507,19,65098,2,4,P|480:71|426:129,1,137.5,6|2,0:0|0:0,0:0:0:0:
179,178,65431,5,6,0:0:0:0:
138,151,65515,1,0,0:0:0:0:
116,107,65598,1,0,0:0:0:0:
117,59,65681,1,0,0:0:0:0:
134,14,65764,1,2,0:0:0:0:
377,49,65931,1,0,0:0:0:0:
213,83,66098,1,10,0:0:0:0:
408,148,66264,1,0,0:0:0:0:
265,22,66431,1,10,0:0:0:0:
346,209,66598,1,0,0:0:0:0:
475,84,66764,5,6,0:0:0:0:
487,130,66848,1,0,0:0:0:0:
486,177,66931,1,0,0:0:0:0:
464,219,67014,1,0,0:0:0:0:
430,253,67098,2,2,P|366:292|275:279,1,137.5
288,24,67432,5,6,0:0:0:0:
328,49,67516,1,0,0:0:0:0:
359,84,67599,1,0,0:0:0:0:
372,130,67682,1,0,0:0:0:0:
370,178,67766,2,2,P|349:250|274:302,1,137.5
122,312,68098,5,6,0:0:0:0:
285,207,68264,2,2,L|208:213,2,68.75
381,327,68598,1,0,0:0:0:0:
192,342,68764,1,6,0:0:0:0:
195,117,68931,2,2,L|121:123,2,68.75
285,207,69264,1,0,0:0:0:0:
71,209,69431,1,6,0:0:0:0:
195,11,69598,1,0,0:0:0:0:
360,174,69764,1,0,0:0:0:0:
195,117,69931,1,0,0:0:0:0:
384,17,70098,1,6,0:0:0:0:
367,284,70264,2,2,L|280:285,2,68.75
509,93,70598,1,0,0:0:0:0:
169,43,70764,5,14,0:0:0:0:
130,72,70848,1,0,0:0:0:0:
116,117,70931,1,0,0:0:0:0:
133,161,71014,1,0,0:0:0:0:
169,193,71098,1,0,0:0:0:0:
216,199,71181,1,0,0:0:0:0:
263,189,71264,2,10,P|306:170|331:131,1,68.75
440,22,71432,2,10,P|397:41|372:80,1,68.75
370,225,71598,2,10,P|399:188|402:141,1,68.75
330,9,71764,5,14,0:0:0:0:
291,38,71848,1,0,0:0:0:0:
281,85,71931,1,0,0:0:0:0:
294,131,72014,1,0,0:0:0:0:
332,160,72098,5,0,0:0:0:0:
379,153,72181,1,0,0:0:0:0:
423,172,72265,1,0,0:0:0:0:
445,214,72348,1,0,0:0:0:0:
443,260,72431,1,0,0:0:0:0:
406,293,72514,1,0,0:0:0:0:
358,302,72598,2,8,P|321:307|275:303,1,68.75
68,255,72765,2,8,P|105:250|151:254,1,68.75
307,215,72932,2,8,P|270:220|224:216,1,68.75
17,168,73099,2,8,P|54:163|100:167,1,68.75
259,48,73265,2,8,P|264:85|260:131,1,68.75
250,300,73431,5,6,0:0:0:0:
283,334,73514,1,0,0:0:0:0:
331,334,73598,1,0,0:0:0:0:
370,307,73681,1,0,0:0:0:0:
377,259,73764,1,2,0:0:0:0:
175,92,73931,1,0,0:0:0:0:
311,263,74098,1,10,0:0:0:0:
336,63,74265,1,0,0:0:0:0:
135,192,74431,1,10,0:0:0:0:
420,170,74598,1,0,0:0:0:0:
99,110,74764,5,6,0:0:0:0:
67,146,74848,1,0,0:0:0:0:
53,191,74931,1,0,0:0:0:0:
63,238,75015,1,0,0:0:0:0:
94,274,75098,1,0,0:0:0:0:
141,281,75181,1,0,0:0:0:0:
183,259,75264,1,0,0:0:0:0:
224,233,75348,1,0,0:0:0:0:
271,224,75431,1,4,0:0:0:0:
316,240,75514,1,0,0:0:0:0:
345,278,75598,1,0,0:0:0:0:
342,325,75681,1,0,0:0:0:0:
309,360,75764,2,2,P|291:297|324:227,1,137.5
469,64,76098,5,2,0:0:0:0:
474,111,76181,1,0,0:0:0:0:
468,159,76265,1,0,0:0:0:0:
443,200,76348,1,0,0:0:0:0:
405,229,76431,1,6,0:0:0:0:
202,63,76598,1,0,0:0:0:0:
386,129,76765,1,10,0:0:0:0:
168,181,76931,1,0,0:0:0:0:
378,34,77098,1,10,0:0:0:0:
322,265,77264,1,0,0:0:0:0:
119,121,77431,5,6,0:0:0:0:
96,163,77514,1,0,0:0:0:0:
101,211,77598,1,0,0:0:0:0:
132,247,77681,1,0,0:0:0:0:
179,257,77765,2,2,P|254:227|298:186,1,137.5
432,32,78098,1,6,0:0:0:0:
457,72,78181,1,0,0:0:0:0:
466,118,78264,1,0,0:0:0:0:
459,166,78348,1,0,0:0:0:0:
434,207,78431,2,2,P|394:261|335:312,1,137.5
226,32,78764,5,6,0:0:0:0:
371,128,78931,2,2,L|295:144,2,68.75
432,32,79264,1,0,0:0:0:0:
192,162,79431,1,6,0:0:0:0:
354,246,79598,2,2,L|278:262,2,68.75
426,167,79931,1,0,0:0:0:0:
173,284,80098,1,6,0:0:0:0:
439,298,80264,1,0,0:0:0:0:
345,135,80431,1,2,0:0:0:0:
269,338,80598,1,0,0:0:0:0:
200,106,80764,1,6,0:0:0:0:
358,233,80932,2,2,L|282:249,2,68.75
453,148,81264,1,0,0:0:0:0:
181,268,81431,5,6,0:0:0:0:
139,243,81514,1,0,0:0:0:0:
115,200,81598,1,0,0:0:0:0:
110,152,81681,1,0,0:0:0:0:
130,108,81764,1,0,0:0:0:0:
166,76,81848,1,0,0:0:0:0:
213,67,81931,2,10,P|258:68|305:87,1,68.75
427,167,82098,2,10,P|382:166|335:147,1,68.75
294,2,82265,2,10,P|334:22|367:60,1,68.75
417,257,82431,5,6,0:0:0:0:
384,291,82514,1,0,0:0:0:0:
341,314,82598,1,0,0:0:0:0:
295,329,82681,1,0,0:0:0:0:
247,336,82764,1,0,0:0:0:0:
198,333,82848,1,0,0:0:0:0:
152,318,82931,1,0,0:0:0:0:
109,295,83015,1,0,0:0:0:0:
76,261,83098,1,6,0:0:0:0:
59,215,83181,1,0,0:0:0:0:
52,167,83264,6,10,P|51:127|63:95,1,55
156,10,83432,2,10,P|157:50|145:82,1,55
137,213,83598,2,10,P|136:173|148:141,1,55
242,17,83766,2,10,P|243:57|231:89,1,55
221,198,83932,2,10,P|261:197|293:209,1,55
448,333,84098,5,6,0:0:0:0:
448,333,85098,5,6,0:0:0:0:
409,55,85432,1,6,0:0:0:0:
448,333,86432,5,6,0:0:0:0:
208,136,86765,2,0,P|316:103|290:230,1,288.750011014939
274,162,87432,2,0,P|307:269|180:243,1,288.750011014939
256,192,88098,12,8,89181,0:0:0:0:
83,320,89432,5,6,0:0:0:0:
83,320,90432,1,6,0:0:0:0:
147,36,90765,1,6,0:0:0:0:
83,320,91765,5,6,0:0:0:0:
401,67,92098,2,0,B|465:144|355:218|355:218|284:124,1,288.750011014939
139,256,92765,2,0,B|193:339|296:256|296:256|227:160,1,288.750011014939
171,87,93432,2,8,L|131:36,3,55
304,152,93765,2,8,L|344:203,3,55
233,43,94098,2,8,L|193:-8,3,55
366,108,94431,2,8,L|406:159,3,55
438,36,94765,5,6,0:0:0:0:
479,76,94849,1,0,0:0:0:0:
497,130,94932,1,0,0:0:0:0:
486,186,95015,1,0,0:0:0:0:
452,233,95099,1,0,0:0:0:0:
398,253,95182,1,0,0:0:0:0:
341,244,95265,1,0,0:0:0:0:
297,205,95349,1,0,0:0:0:0:
266,156,95432,5,6,0:0:0:0:
210,141,95515,1,0,0:0:0:0:
156,164,95599,1,0,0:0:0:0:
125,212,95682,1,0,0:0:0:0:
131,269,95765,1,4,0:0:0:0:
171,310,95849,1,0,0:0:0:0:
228,315,95932,1,2,0:0:0:0:
278,286,96015,1,0,0:0:0:0:
291,230,96098,5,6,0:0:0:0:
241,261,96182,1,0,0:0:0:0:
228,315,96265,1,0,0:0:0:0:
253,367,96349,1,0,0:0:0:0:
305,375,96432,1,0,0:0:0:0:
358,354,96515,1,0,0:0:0:0:
376,298,96599,1,0,0:0:0:0:
379,240,96682,1,0,0:0:0:0:
374,182,96765,6,6,P|364:138|342:92,1,82.5000031471254
201,0,96932,2,6,P|211:44|233:90,1,82.5000031471254
426,78,97098,6,6,P|394:45|352:17,1,82.5000031471254
149,101,97265,2,6,P|180:133|222:161,1,82.5000031471254
459,205,97432,5,6,0:0:0:0:
454,262,97515,1,0,0:0:0:0:
423,311,97599,1,0,0:0:0:0:
376,345,97682,1,0,0:0:0:0:
318,342,97765,1,0,0:0:0:0:
270,308,97849,1,0,0:0:0:0:
217,285,97932,1,0,0:0:0:0:
160,296,98015,1,0,0:0:0:0:
122,340,98099,5,0,0:0:0:0:
179,332,98182,1,0,0:0:0:0:
217,285,98265,1,0,0:0:0:0:
215,226,98349,1,0,0:0:0:0:
179,180,98432,1,0,0:0:0:0:
175,122,98515,1,0,0:0:0:0:
204,71,98599,1,0,0:0:0:0:
253,42,98682,1,0,0:0:0:0:
317,45,98765,5,0,0:0:0:0:
317,45,98849,1,0,0:0:0:0:
317,45,98932,2,4,L|324:143,1,82.5000031471254
373,321,99099,1,0,0:0:0:0:
373,321,99182,1,0,0:0:0:0:
373,321,99265,2,4,L|362:230,1,82.5000031471254
429,28,99432,1,0,0:0:0:0:
429,28,99515,1,0,0:0:0:0:
429,28,99599,2,4,L|417:122,1,82.5000031471254
477,349,99765,1,0,0:0:0:0:
477,349,99848,1,0,0:0:0:0:
477,349,99931,2,4,L|466:258,1,82.5000031471254
329,19,100099,5,6,0:0:0:0:
274,36,100182,1,0,0:0:0:0:
233,77,100265,1,0,0:0:0:0:
219,133,100349,1,0,0:0:0:0:
229,189,100432,1,0,0:0:0:0:
201,239,100515,1,0,0:0:0:0:
143,250,100599,1,0,0:0:0:0:
99,212,100682,1,0,0:0:0:0:
105,154,100765,5,4,0:0:0:0:
147,113,100849,1,0,0:0:0:0:
204,111,100932,1,0,0:0:0:0:
255,136,101015,1,0,0:0:0:0:
294,178,101099,1,6,0:0:0:0:
345,204,101182,1,0,0:0:0:0:
400,188,101265,1,2,0:0:0:0:
422,134,101349,1,0,0:0:0:0:
411,77,101432,5,6,0:0:0:0:
359,50,101515,1,0,0:0:0:0:
301,48,101598,1,0,0:0:0:0:
249,76,101682,1,0,0:0:0:0:
215,123,101765,1,0,0:0:0:0:
209,185,101849,1,0,0:0:0:0:
227,239,101932,1,0,0:0:0:0:
267,279,102015,1,0,0:0:0:0:
322,296,102099,6,4,P|358:277|390:252,1,82.5000031471254
352,84,102265,1,0,0:0:0:0:
301,48,102348,1,0,0:0:0:0:
243,40,102432,1,6,0:0:0:0:
191,66,102515,1,0,0:0:0:0:
138,92,102599,1,2,0:0:0:0:
83,72,102682,1,0,0:0:0:0:
70,15,102765,5,6,0:0:0:0:
124,35,102849,1,0,0:0:0:0:
138,92,102932,1,0,0:0:0:0:
127,148,103015,1,0,0:0:0:0:
101,200,103099,1,0,0:0:0:0:
101,257,103182,1,0,0:0:0:0:
124,309,103265,2,4,P|159:338|222:360,1,82.5000031471254
390,354,103432,5,6,0:0:0:0:
432,314,103515,1,0,0:0:0:0:
447,257,103599,1,0,0:0:0:0:
421,205,103682,1,0,0:0:0:0:
389,156,103765,1,0,0:0:0:0:
365,103,103848,1,0,0:0:0:0:
383,47,103932,1,0,0:0:0:0:
432,17,104015,1,0,0:0:0:0:
482,40,104099,2,8,L|491:117,2,55
282,45,104348,5,8,0:0:0:0:
244,68,104432,2,8,P|249:114|287:178,1,110
192,154,104682,1,8,0:0:0:0:
169,193,104766,2,8,P|191:233|252:276,1,110
163,299,105015,1,8,0:0:0:0:
159,339,105099,2,8,P|196:367|269:382,1,110
356,371,105348,1,8,0:0:0:0:
400,367,105432,6,8,L|352:301,3,55
455,250,105765,2,8,L|422:205,3,55
463,118,106098,1,4,0:0:0:0:
463,118,106182,1,0,0:0:0:0:
463,118,106264,1,0,0:0:0:0:
463,118,106348,1,0,0:0:0:0:
463,118,106432,1,0,0:0:0:0:
452,154,106515,1,0,0:0:0:0:
431,186,106598,1,0,0:0:0:0:
398,206,106681,1,0,0:0:0:0:
360,213,106764,5,6,0:0:0:0:
302,204,106848,1,0,0:0:0:0:
246,220,106931,1,2,0:0:0:0:
204,259,107014,1,0,0:0:0:0:
200,317,107098,1,6,0:0:0:0:
256,304,107181,1,0,0:0:0:0:
287,255,107264,1,0,0:0:0:0:
302,204,107348,1,0,0:0:0:0:
289,147,107431,5,4,0:0:0:0:
257,98,107514,1,0,0:0:0:0:
207,67,107598,1,0,0:0:0:0:
149,72,107681,1,0,0:0:0:0:
107,111,107764,1,0,0:0:0:0:
158,137,107848,1,0,0:0:0:0:
215,137,107931,1,0,0:0:0:0:
257,98,108015,1,0,0:0:0:0:
295,55,108098,5,4,0:0:0:0:
352,48,108182,1,0,0:0:0:0:
397,82,108264,1,0,0:0:0:0:
401,140,108348,1,0,0:0:0:0:
366,185,108431,1,6,0:0:0:0:
360,242,108514,1,0,0:0:0:0:
410,271,108598,2,4,L|474:203,1,82.5000031471254
254,246,108765,1,6,0:0:0:0:
226,296,108848,1,0,0:0:0:0:
260,342,108932,2,4,L|345:304,1,82.5000031471254
121,264,109098,1,6,0:0:0:0:
75,299,109181,1,0,0:0:0:0:
89,354,109265,2,4,L|182:352,1,82.5000031471254
173,196,109431,5,6,0:0:0:0:
152,142,109514,1,0,0:0:0:0:
99,116,109598,1,0,0:0:0:0:
45,136,109681,1,0,0:0:0:0:
21,188,109764,1,0,0:0:0:0:
79,185,109848,1,0,0:0:0:0:
127,154,109931,1,0,0:0:0:0:
171,117,110014,1,0,0:0:0:0:
224,95,110098,5,0,0:0:0:0:
281,96,110181,1,0,0:0:0:0:
326,131,110264,1,0,0:0:0:0:
346,185,110348,1,0,0:0:0:0:
326,239,110432,5,0,0:0:0:0:
301,186,110515,1,0,0:0:0:0:
326,131,110598,1,0,0:0:0:0:
369,93,110681,1,0,0:0:0:0:
426,92,110764,1,0,0:0:0:0:
472,127,110848,1,0,0:0:0:0:
496,178,110931,1,0,0:0:0:0:
485,234,111014,1,0,0:0:0:0:
439,270,111098,5,6,0:0:0:0:
441,327,111181,1,0,0:0:0:0:
477,371,111264,2,4,L|516:289,1,82.5000031471254
355,234,111432,5,6,0:0:0:0:
302,255,111515,1,0,0:0:0:0:
273,304,111598,2,4,L|363:312,1,82.5000031471254
311,156,111765,5,6,0:0:0:0:
273,113,111848,1,0,0:0:0:0:
217,102,111931,2,4,L|239:189,1,82.5000031471254
192,341,112098,5,6,0:0:0:0:
134,336,112181,1,0,0:0:0:0:
89,299,112264,1,0,0:0:0:0:
73,242,112348,1,0,0:0:0:0:
88,186,112431,1,0,0:0:0:0:
129,146,112514,1,0,0:0:0:0:
186,138,112598,5,4,0:0:0:0:
234,107,112681,1,0,0:0:0:0:
247,51,112764,1,0,0:0:0:0:
210,5,112848,1,0,0:0:0:0:
152,12,112932,1,0,0:0:0:0:
116,57,113015,1,0,0:0:0:0:
131,112,113098,5,4,0:0:0:0:
186,138,113181,1,0,0:0:0:0:
237,163,113264,1,0,0:0:0:0:
272,208,113348,1,0,0:0:0:0:
257,259,113431,5,6,0:0:0:0:
199,266,113514,1,0,0:0:0:0:
161,221,113598,2,4,L|126:147,1,82.5000031471254
307,206,113765,5,6,0:0:0:0:
251,186,113848,1,0,0:0:0:0:
237,129,113932,2,4,L|237:47,1,82.5000031471254
372,174,114098,5,6,0:0:0:0:
328,133,114181,1,0,0:0:0:0:
337,75,114265,2,4,L|369:0,1,82.5000031471254
473,159,114432,5,6,0:0:0:0:
482,218,114515,1,0,0:0:0:0:
439,258,114599,2,4,L|366:296,1,82.5000031471254
226,343,114764,5,6,0:0:0:0:
201,341,114848,1,0,0:0:0:0:
179,329,114931,1,0,0:0:0:0:
163,310,115014,1,0,0:0:0:0:
157,285,115098,1,0,0:0:0:0:
161,252,115181,1,0,0:0:0:0:
173,221,115264,1,0,0:0:0:0:
175,187,115348,1,0,0:0:0:0:
163,147,115431,5,4,0:0:0:0:
132,119,115514,1,0,0:0:0:0:
90,119,115598,1,0,0:0:0:0:
63,150,115681,1,0,0:0:0:0:
66,190,115764,1,0,0:0:0:0:
109,214,115848,1,0,0:0:0:0:
158,209,115931,1,0,0:0:0:0:
203,190,116014,1,0,0:0:0:0:
248,169,116098,5,4,0:0:0:0:
304,159,116181,1,0,0:0:0:0:
358,176,116264,1,0,0:0:0:0:
385,227,116348,1,0,0:0:0:0:
369,282,116431,1,0,0:0:0:0:
316,305,116514,1,0,0:0:0:0:
259,289,116598,2,4,L|321:214,1,82.5000031471254
472,77,116765,5,0,0:0:0:0:
472,77,116848,1,0,0:0:0:0:
472,77,116932,2,4,L|449:174,1,82.5000031471254
472,353,117098,5,0,0:0:0:0:
472,353,117181,1,0,0:0:0:0:
472,353,117265,2,4,L|450:256,1,82.5000031471254
390,34,117431,5,14,0:0:0:0:
349,74,117514,1,0,0:0:0:0:
330,129,117598,1,0,0:0:0:0:
332,186,117681,1,0,0:0:0:0:
359,236,117764,5,0,0:0:0:0:
302,223,117848,1,0,0:0:0:0:
244,227,117931,1,0,0:0:0:0:
193,255,118014,1,0,0:0:0:0:
160,303,118098,5,0,0:0:0:0:
211,278,118181,1,0,0:0:0:0:
244,227,118265,1,0,0:0:0:0:
238,169,118348,1,0,0:0:0:0:
207,120,118431,5,0,0:0:0:0:
216,63,118514,1,0,0:0:0:0:
267,35,118598,1,0,0:0:0:0:
320,56,118681,1,0,0:0:0:0:
327,113,118765,5,0,0:0:0:0:
269,117,118848,1,0,0:0:0:0:
207,120,118932,1,0,0:0:0:0:
150,124,119014,1,0,0:0:0:0:
91,122,119098,5,6,0:0:0:0:
53,78,119181,1,0,0:0:0:0:
97,41,119264,2,4,L|197:64,1,82.5000031471254
88,246,119432,5,6,0:0:0:0:
75,189,119515,1,0,0:0:0:0:
131,177,119598,2,4,L|208:244,1,82.5000031471254
33,352,119765,5,6,0:0:0:0:
46,295,119848,1,0,0:0:0:0:
101,308,119931,2,4,L|141:402,1,82.5000031471254
411,366,120098,5,6,0:0:0:0:
389,312,120181,1,0,0:0:0:0:
355,264,120265,1,0,0:0:0:0:
307,231,120348,1,0,0:0:0:0:
252,212,120431,1,0,0:0:0:0:
194,204,120514,1,0,0:0:0:0:
136,213,120598,1,0,0:0:0:0:
83,236,120681,1,0,0:0:0:0:
39,273,120764,5,4,0:0:0:0:
96,281,120848,1,0,0:0:0:0:
152,270,120931,1,0,0:0:0:0:
204,245,121014,1,0,0:0:0:0:
252,212,121098,1,4,0:0:0:0:
303,184,121182,1,0,0:0:0:0:
360,176,121265,1,0,0:0:0:0:
415,191,121348,1,0,0:0:0:0:
464,220,121431,5,4,0:0:0:0:
406,218,121514,1,0,0:0:0:0:
360,176,121598,1,0,0:0:0:0:
355,118,121681,1,0,0:0:0:0:
390,73,121764,5,6,0:0:0:0:
448,77,121848,1,0,0:0:0:0:
421,128,121931,2,4,L|292:144,1,82.5000031471254
151,129,122098,5,6,0:0:0:0:
93,125,122182,1,0,0:0:0:0:
120,74,122265,2,4,L|249:58,1,82.5000031471254
271,195,122432,5,6,0:0:0:0:
321,224,122516,1,0,0:0:0:0:
274,258,122599,2,4,L|151:215,1,82.5000031471254
272,0,122764,5,6,0:0:0:0:
289,55,122848,1,0,0:0:0:0:
280,111,122931,1,0,0:0:0:0:
251,161,123014,1,0,0:0:0:0:
207,199,123098,1,0,0:0:0:0:
152,217,123181,1,0,0:0:0:0:
94,214,123264,1,0,0:0:0:0:
47,178,123348,1,0,0:0:0:0:
36,121,123431,5,6,0:0:0:0:
93,125,123514,1,2,0:0:0:0:
141,157,123598,1,2,0:0:0:0:
152,217,123681,1,2,0:0:0:0:
141,274,123765,1,4,0:0:0:0:
157,328,123848,1,4,0:0:0:0:
210,350,123931,1,4,0:0:0:0:
265,336,124014,1,4,0:0:0:0:
302,291,124098,5,14,0:0:0:0:
292,233,124182,1,0,0:0:0:0:
292,175,124265,1,0,0:0:0:0:
309,120,124348,1,0,0:0:0:0:
341,71,124432,5,0,0:0:0:0:
345,128,124515,1,0,0:0:0:0:
292,175,124598,1,0,0:0:0:0:
234,167,124682,1,0,0:0:0:0:
188,131,124765,5,0,0:0:0:0:
131,119,124848,1,0,0:0:0:0:
78,143,124932,1,0,0:0:0:0:
47,191,125015,1,0,0:0:0:0:
46,248,125098,5,0,0:0:0:0:
79,295,125182,1,0,0:0:0:0:
128,324,125265,1,0,0:0:0:0:
184,332,125348,1,0,0:0:0:0:
239,314,125432,5,0,0:0:0:0:
292,276,125515,1,0,0:0:0:0:
353,251,125598,1,0,0:0:0:0:
415,275,125682,1,0,0:0:0:0:
454,327,125765,5,0,0:0:0:0:
395,356,125848,1,0,0:0:0:0:
332,332,125932,1,0,0:0:0:0:
292,276,126015,1,0,0:0:0:0:
288,210,126098,1,0,0:0:0:0:
309,146,126182,1,0,0:0:0:0:
346,92,126265,1,0,0:0:0:0:
390,43,126348,1,0,0:0:0:0:
452,19,126432,5,0,0:0:0:0:
436,82,126515,1,0,0:0:0:0:
401,137,126598,1,0,0:0:0:0:
351,181,126682,1,0,0:0:0:0:
288,210,126765,5,0,0:0:0:0:
284,152,126848,1,0,0:0:0:0:
275,94,126932,1,0,0:0:0:0:
243,45,127015,1,0,0:0:0:0:
194,14,127098,5,0,0:0:0:0:
204,62,127182,1,0,0:0:0:0:
209,110,127265,1,0,0:0:0:0:
201,158,127348,1,0,0:0:0:0:
179,203,127432,2,0,P|156:236|113:268,3,82.5000031471254
0,368,127765,2,0,P|23:335|66:303,3,82.5000031471254
216,363,128098,5,0,0:0:0:0:
249,311,128181,1,0,0:0:0:0:
263,251,128264,1,0,0:0:0:0:
254,190,128347,1,0,0:0:0:0:
225,136,128431,1,0,0:0:0:0:
179,95,128514,1,0,0:0:0:0:
121,73,128597,1,0,0:0:0:0:
60,73,128681,1,0,0:0:0:0:
2,94,128764,5,0,0:0:0:0:
71,123,128848,1,0,0:0:0:0:
141,148,128932,1,0,0:0:0:0:
210,173,129015,1,0,0:0:0:0:
278,201,129098,1,0,0:0:0:0:
348,227,129182,1,0,0:0:0:0:
415,256,129265,1,0,0:0:0:0:
484,281,129348,1,0,0:0:0:0:
507,369,129432,5,0,0:0:0:0:
273,334,130098,6,8,L|199:340,2,73.3333333333333
369,243,130432,2,8,L|457:237,2,73.3333333333333
184,180,130765,1,14,0:0:0:0:
184,180,132098,5,6,0:0:0:0:
403,70,133432,1,6,0:0:0:0:
403,70,134765,1,6,0:0:0:0:
286,338,136098,5,6,0:0:0:0:
286,338,137432,1,6,0:0:0:0:
310,69,138765,1,6,0:0:0:0:
99,288,140098,6,8,L|159:304,3,55
317,287,140432,2,8,L|257:271,3,55
81,201,140765,6,8,L|141:217,3,55
307,204,141099,2,8,L|247:188,3,55
57,107,141432,1,6,0:0:0:0:
25,155,141515,1,0,0:0:0:0:
10,210,141598,1,0,0:0:0:0:
29,264,141682,1,0,0:0:0:0:
78,293,141765,1,4,0:0:0:0:
135,289,141848,1,0,0:0:0:0:
182,255,141932,1,0,0:0:0:0:
205,202,142015,1,0,0:0:0:0:
208,144,142098,5,4,0:0:0:0:
176,193,142182,1,0,0:0:0:0:
182,255,142265,1,0,0:0:0:0:
220,297,142348,1,0,0:0:0:0:
277,303,142432,1,4,0:0:0:0:
321,266,142515,1,0,0:0:0:0:
341,212,142598,1,0,0:0:0:0:
334,154,142682,1,0,0:0:0:0:
305,104,142765,5,4,0:0:0:0:
307,46,142848,1,0,0:0:0:0:
358,18,142932,1,0,0:0:0:0:
412,35,143015,1,0,0:0:0:0:
426,90,143098,1,10,0:0:0:0:
392,137,143182,1,0,0:0:0:0:
334,154,143265,1,4,0:0:0:0:
276,160,143348,1,0,0:0:0:0:
219,147,143432,1,10,0:0:0:0:
161,152,143515,1,0,0:0:0:0:
110,180,143598,1,4,0:0:0:0:
90,234,143682,1,0,0:0:0:0:
106,289,143765,1,10,0:0:0:0:
154,319,143848,1,0,0:0:0:0:
211,312,143932,1,4,0:0:0:0:
238,261,144015,1,0,0:0:0:0:
249,210,144098,5,6,0:0:0:0:
249,210,144182,1,0,0:0:0:0:
249,210,144265,2,4,L|209:128,1,82.5000031471254
33,32,144432,5,6,0:0:0:0:
33,32,144516,1,0,0:0:0:0:
33,32,144599,2,4,L|73:114,1,82.5000031471254
154,319,144765,5,6,0:0:0:0:
154,319,144849,1,0,0:0:0:0:
154,319,144932,2,4,L|236:279,1,82.5000031471254
401,142,145098,5,6,0:0:0:0:
401,142,145182,1,0,0:0:0:0:
401,142,145265,2,4,L|319:182,1,82.5000031471254
77,306,145432,5,6,0:0:0:0:
95,360,145515,1,0,0:0:0:0:
148,381,145598,1,0,0:0:0:0:
205,369,145682,1,0,0:0:0:0:
230,317,145765,1,4,0:0:0:0:
245,261,145848,1,0,0:0:0:0:
278,213,145932,1,0,0:0:0:0:
331,190,146015,1,0,0:0:0:0:
388,193,146098,2,4,P|437:221|479:256,1,82.5000031471254
314,304,146265,2,4,P|265:276|223:241,1,82.5000031471254
72,162,146432,2,4,P|100:113|135:71,1,82.5000031471254
95,300,146598,2,4,P|67:349|32:391,1,82.5000031471254
224,62,146765,5,6,0:0:0:0:
272,30,146848,1,0,0:0:0:0:
329,35,146932,1,0,0:0:0:0:
362,81,147015,1,0,0:0:0:0:
348,136,147098,1,0,0:0:0:0:
298,167,147182,1,0,0:0:0:0:
240,170,147265,1,0,0:0:0:0:
183,157,147348,1,0,0:0:0:0:
126,169,147432,5,4,0:0:0:0:
94,217,147515,1,0,0:0:0:0:
107,272,147598,1,0,0:0:0:0:
152,307,147682,1,0,0:0:0:0:
209,305,147765,1,0,0:0:0:0:
258,275,147848,1,0,0:0:0:0:
289,225,147932,1,0,0:0:0:0:
298,167,148015,1,0,0:0:0:0:
283,111,148098,5,4,0:0:0:0:
268,167,148182,1,0,0:0:0:0:
289,225,148265,1,0,0:0:0:0:
338,254,148348,1,0,0:0:0:0:
395,242,148432,1,0,0:0:0:0:
426,194,148515,1,0,0:0:0:0:
418,136,148598,1,0,0:0:0:0:
384,88,148682,1,0,0:0:0:0:
343,47,148765,5,4,0:0:0:0:
354,103,148848,1,0,0:0:0:0:
380,153,148932,1,0,0:0:0:0:
426,194,149015,1,0,0:0:0:0:
478,216,149098,1,0,0:0:0:0:
494,271,149182,1,0,0:0:0:0:
476,325,149265,1,0,0:0:0:0:
422,346,149348,1,0,0:0:0:0:
366,327,149432,5,12,0:0:0:0:
307,297,149515,1,0,0:0:0:0:
241,295,149598,1,0,0:0:0:0:
180,323,149682,1,0,0:0:0:0:
135,371,149765,1,0,0:0:0:0:
195,346,149848,1,0,0:0:0:0:
241,295,149932,1,0,0:0:0:0:
261,232,150015,1,0,0:0:0:0:
254,166,150098,5,12,0:0:0:0:
227,197,150182,1,0,0:0:0:0:
288,174,150265,1,0,0:0:0:0:
318,115,150348,1,0,0:0:0:0:
303,50,150432,1,0,0:0:0:0:
249,12,150515,1,0,0:0:0:0:
183,20,150598,1,0,0:0:0:0:
147,76,150682,1,0,0:0:0:0:
168,138,150765,5,4,0:0:0:0:
200,195,150848,1,0,0:0:0:0:
189,260,150932,1,0,0:0:0:0:
137,300,151015,1,0,0:0:0:0:
71,299,151098,1,0,0:0:0:0:
123,258,151182,1,0,0:0:0:0:
189,260,151265,1,0,0:0:0:0:
253,272,151348,1,0,0:0:0:0:
309,306,151432,5,4,0:0:0:0:
276,304,151515,1,0,0:0:0:0:
257,276,151598,1,0,0:0:0:0:
262,243,151682,1,0,0:0:0:0:
282,217,151765,1,0,0:0:0:0:
310,200,151848,1,0,0:0:0:0:
343,198,151932,1,0,0:0:0:0:
375,199,152015,1,0,0:0:0:0:
407,195,152098,5,12,0:0:0:0:
446,182,152182,1,0,0:0:0:0:
455,142,152265,1,0,0:0:0:0:
444,102,152348,1,0,0:0:0:0:
414,72,152432,1,0,0:0:0:0:
373,67,152515,1,0,0:0:0:0:
332,76,152598,1,0,0:0:0:0:
297,98,152682,1,0,0:0:0:0:
263,121,152765,5,12,0:0:0:0:
210,144,152848,1,0,0:0:0:0:
154,125,152932,1,0,0:0:0:0:
137,69,153015,1,0,0:0:0:0:
171,22,153098,1,0,0:0:0:0:
229,17,153182,1,0,0:0:0:0:
276,50,153265,1,0,0:0:0:0:
297,98,153348,1,0,0:0:0:0:
300,164,153432,5,12,0:0:0:0:
260,111,153515,1,0,0:0:0:0:
276,50,153598,1,0,0:0:0:0:
335,19,153682,1,0,0:0:0:0:
396,41,153765,1,0,0:0:0:0:
435,93,153848,1,0,0:0:0:0:
436,159,153932,1,0,0:0:0:0:
404,216,154015,1,0,0:0:0:0:
365,237,154098,5,4,0:0:0:0:
336,254,154182,1,0,0:0:0:0:
316,263,154265,1,0,0:0:0:0:
306,268,154348,1,0,0:0:0:0:
296,273,154432,1,0,0:0:0:0:
286,278,154515,1,0,0:0:0:0:
276,283,154598,2,4,P|222:292|163:273,1,110
32,86,154765,5,6,0:0:0:0:
32,86,154848,1,0,0:0:0:0:
32,86,154932,2,4,L|126:92,1,82.5000031471254
290,9,155098,5,6,0:0:0:0:
290,9,155181,1,0,0:0:0:0:
290,9,155265,2,4,L|284:103,1,82.5000031471254
223,217,155432,5,6,0:0:0:0:
223,217,155515,1,0,0:0:0:0:
223,217,155599,2,4,L|229:123,1,82.5000031471254
447,45,155765,5,6,0:0:0:0:
447,45,155848,1,0,0:0:0:0:
447,45,155932,2,4,L|353:39,1,82.5000031471254
84,16,156098,5,6,0:0:0:0:
84,16,156182,1,0,0:0:0:0:
84,16,156265,1,0,0:0:0:0:
84,16,156348,1,0,0:0:0:0:
84,16,156432,2,4,L|174:27,1,82.5000031471254
328,127,156598,2,4,L|246:116,1,82.5000031471254
40,121,156765,2,4,L|130:132,1,82.5000031471254
284,232,156931,2,4,L|202:221,1,82.5000031471254
111,340,157098,1,6,0:0:0:0:
111,340,157182,1,0,0:0:0:0:
111,340,157265,2,4,P|156:364|196:368,1,82.5000031471254
384,254,157432,5,6,0:0:0:0:
429,236,157515,1,0,0:0:0:0:
462,200,157598,1,0,0:0:0:0:
468,151,157682,1,0,0:0:0:0:
449,105,157765,1,0,0:0:0:0:
407,77,157848,1,0,0:0:0:0:
357,69,157932,1,0,0:0:0:0:
309,81,158015,1,0,0:0:0:0:
277,119,158098,5,4,0:0:0:0:
332,136,158182,1,0,0:0:0:0:
383,112,158265,1,0,0:0:0:0:
402,57,158348,1,0,0:0:0:0:
392,0,158432,1,0,0:0:0:0:
353,43,158515,1,0,0:0:0:0:
363,99,158598,1,0,0:0:0:0:
400,144,158682,1,0,0:0:0:0:
436,188,158765,5,4,0:0:0:0:
444,244,158848,1,0,0:0:0:0:
408,290,158932,1,0,0:0:0:0:
350,296,159015,1,0,0:0:0:0:
303,261,159098,1,0,0:0:0:0:
262,218,159182,1,0,0:0:0:0:
205,226,159265,1,0,0:0:0:0:
176,276,159348,1,0,0:0:0:0:
184,333,159432,5,12,0:0:0:0:
213,283,159515,1,0,0:0:0:0:
205,226,159598,1,0,0:0:0:0:
170,179,159682,1,0,0:0:0:0:
122,146,159765,2,12,P|96:114|83:66,1,82.5000031471254
261,150,159932,2,12,P|286:181|299:229,1,82.5000031471254
29,229,160098,5,6,0:0:0:0:
29,229,160182,1,0,0:0:0:0:
29,229,160265,2,4,L|118:253,1,82.5000031471254
208,361,160432,1,6,0:0:0:0:
208,361,160516,1,0,0:0:0:0:
208,361,160598,6,4,L|119:337,1,82.5000031471254
28,146,160765,2,0,L|106:195,1,82.5000031471254
246,281,160932,1,2,0:0:0:0:
134,36,161098,1,8,0:0:0:0:
114,259,161265,1,2,0:0:0:0:
257,43,161432,1,8,0:0:0:0:
0,47,161598,1,2,0:0:0:0:
259,202,161765,1,8,0:0:0:0:
0,215,161932,1,2,0:0:0:0:
82,7,162098,1,8,0:0:0:0:
69,287,162265,1,2,0:0:0:0:
208,0,162432,1,8,0:0:0:0:
276,298,162598,1,2,0:0:0:0:
368,15,162765,5,6,0:0:0:0:
411,52,162848,1,0,0:0:0:0:
432,97,162932,1,0,0:0:0:0:
429,147,163015,1,0,0:0:0:0:
394,183,163098,1,0,0:0:0:0:
345,195,163182,1,0,0:0:0:0:
298,178,163265,1,0,0:0:0:0:
272,136,163348,1,0,0:0:0:0:
276,87,163432,5,4,0:0:0:0:
309,133,163515,1,0,0:0:0:0:
302,184,163598,1,0,0:0:0:0:
262,214,163682,1,0,0:0:0:0:
212,216,163765,1,0,0:0:0:0:
171,189,163848,1,0,0:0:0:0:
148,145,163932,1,0,0:0:0:0:
146,96,164015,1,0,0:0:0:0:
157,49,164098,5,4,0:0:0:0:
182,101,164182,1,0,0:0:0:0:
202,145,164265,1,0,0:0:0:0:
222,190,164348,1,0,0:0:0:0:
242,236,164432,1,4,0:0:0:0:
262,191,164515,1,0,0:0:0:0:
284,147,164598,1,0,0:0:0:0:
305,103,164682,1,0,0:0:0:0:
326,58,164765,5,4,0:0:0:0:
276,87,164848,1,0,0:0:0:0:
247,139,164932,1,0,0:0:0:0:
262,191,165015,1,0,0:0:0:0:
309,224,165098,1,0,0:0:0:0:
367,222,165182,1,0,0:0:0:0:
409,183,165265,1,0,0:0:0:0:
421,127,165348,1,0,0:0:0:0:
405,71,165432,6,4,P|378:113|366:162,1,82.5000031471254
381,324,165598,1,0,0:0:0:0:
381,324,165682,1,0,0:0:0:0:
381,324,165765,1,6,0:0:0:0:
332,354,165848,1,0,0:0:0:0:
274,346,165932,1,0,0:0:0:0:
222,319,166015,1,0,0:0:0:0:
187,273,166098,1,0,0:0:0:0:
159,221,166182,1,0,0:0:0:0:
106,198,166265,1,0,0:0:0:0:
61,234,166348,1,0,0:0:0:0:
73,290,166432,1,0,0:0:0:0:
127,309,166515,1,0,0:0:0:0:
187,273,166598,1,0,0:0:0:0:
230,234,166682,1,0,0:0:0:0:
266,189,166765,6,4,P|304:175|345:178,1,82.5000031471254
512,225,166932,2,4,P|473:238|432:235,1,82.5000031471254
247,114,167098,1,0,0:0:0:0:
195,86,167182,1,0,0:0:0:0:
137,82,167265,1,0,0:0:0:0:
85,107,167348,1,0,0:0:0:0:
53,156,167432,5,0,0:0:0:0:
100,188,167515,1,0,0:0:0:0:
157,194,167598,1,0,0:0:0:0:
213,180,167682,1,0,0:0:0:0:
266,157,167765,1,0,0:0:0:0:
323,160,167848,1,0,0:0:0:0:
377,180,167932,1,0,0:0:0:0:
417,221,168015,1,0,0:0:0:0:
445,270,168098,5,6,0:0:0:0:
398,288,168182,1,0,0:0:0:0:
348,283,168265,1,0,0:0:0:0:
302,264,168348,1,0,0:0:0:0:
253,252,168432,1,0,0:0:0:0:
204,259,168515,1,0,0:0:0:0:
159,279,168598,1,0,0:0:0:0:
125,316,168682,1,0,0:0:0:0:
125,365,168765,5,0,0:0:0:0:
161,332,168848,1,0,0:0:0:0:
159,279,168932,1,0,0:0:0:0:
140,233,169015,1,0,0:0:0:0:
125,185,169098,1,0,0:0:0:0:
129,135,169182,1,0,0:0:0:0:
148,89,169265,1,0,0:0:0:0:
181,52,169348,1,0,0:0:0:0:
228,36,169432,6,4,P|265:52|302:80,1,82.5000031471254
413,240,169598,2,4,P|375:223|338:195,1,82.5000031471254
393,24,169765,1,0,0:0:0:0:
434,50,169848,1,0,0:0:0:0:
462,90,169932,1,0,0:0:0:0:
479,136,170015,1,0,0:0:0:0:
484,184,170098,5,0,0:0:0:0:
435,194,170182,1,0,0:0:0:0:
386,183,170265,1,0,0:0:0:0:
344,157,170348,1,0,0:0:0:0:
309,120,170432,1,0,0:0:0:0:
259,118,170515,1,0,0:0:0:0:
213,136,170598,1,0,0:0:0:0:
182,175,170682,1,0,0:0:0:0:
184,224,170765,5,14,0:0:0:0:
217,188,170848,1,0,0:0:0:0:
213,136,170932,1,0,0:0:0:0:
176,91,171015,1,0,0:0:0:0:
117,92,171098,5,6,0:0:0:0:
83,139,171182,1,0,0:0:0:0:
66,194,171265,1,0,0:0:0:0:
69,251,171348,1,0,0:0:0:0:
94,303,171432,1,0,0:0:0:0:
141,336,171515,1,0,0:0:0:0:
195,353,171598,1,0,0:0:0:0:
251,337,171682,1,0,0:0:0:0:
301,309,171765,1,4,0:0:0:0:
352,284,171848,1,0,0:0:0:0:
409,295,171932,1,0,0:0:0:0:
453,331,172015,1,0,0:0:0:0:
473,384,172098,5,4,0:0:0:0:
453,331,172182,1,0,0:0:0:0:
439,274,172265,1,0,0:0:0:0:
448,217,172348,1,0,0:0:0:0:
481,169,172432,5,4,0:0:0:0:
448,217,172515,1,0,0:0:0:0:
390,224,172598,1,0,0:0:0:0:
335,203,172682,1,0,0:0:0:0:
296,159,172765,1,0,0:0:0:0:
294,101,172848,1,0,0:0:0:0:
322,49,172932,1,0,0:0:0:0:
372,20,173015,1,0,0:0:0:0:
429,18,173098,5,4,0:0:0:0:
394,67,173182,1,0,0:0:0:0:
346,99,173265,1,0,0:0:0:0:
289,100,173348,1,0,0:0:0:0:
252,85,173432,1,4,0:0:0:0:
214,77,173515,1,0,0:0:0:0:
176,83,173598,1,0,0:0:0:0:
139,96,173682,1,0,0:0:0:0:
109,120,173765,1,4,0:0:0:0:
91,154,173848,1,0,0:0:0:0:
89,192,173932,1,0,0:0:0:0:
103,227,174015,1,0,0:0:0:0:
133,249,174098,5,4,0:0:0:0:
171,251,174182,1,0,0:0:0:0:
209,252,174265,1,0,0:0:0:0:
246,258,174348,1,0,0:0:0:0:
279,276,174432,1,0,0:0:0:0:
298,308,174515,1,0,0:0:0:0:
295,346,174598,1,0,0:0:0:0:
264,370,174682,1,0,0:0:0:0:
225,364,174765,6,4,P|221:336|225:309,1,55
331,183,174932,2,4,P|334:210|330:237,1,55
225,309,175098,6,4,P|184:311|141:295,3,55
330,237,175432,2,4,P|370:234|413:250,3,55
191,235,175765,2,4,P|150:237|107:221,3,55
402,34,176098,6,12,L|303:83,1,110
5,207,176432,6,12,L|116:201,1,110
480,196,176765,6,12,L|373:153,1,110
64,23,177098,6,12,L|141:103,1,110
334,347,177432,6,0,L|311:233,1,110
248,16,177765,6,0,L|199:126,1,110
91,329,178098,6,0,L|166:249,1,110
414,31,178432,6,0,L|313:87,1,110
21,203,178765,5,6,0:0:0:0:
21,203,178848,1,0,0:0:0:0:
21,203,178932,2,4,L|97:233,1,82.5000031471254
378,320,179098,1,6,0:0:0:0:
378,320,179182,1,0,0:0:0:0:
378,320,179265,2,4,L|298:264,1,82.5000031471254
119,137,179432,5,14,0:0:0:0:
156,374,179598,1,2,0:0:0:0:
233,65,179765,1,4,0:0:0:0:
319,371,179932,1,2,0:0:0:0:
74,288,180098,1,12,0:0:0:0:
374,232,180265,1,2,0:0:0:0:
103,67,180432,1,4,0:0:0:0:
416,155,180598,1,2,0:0:0:0:
5,142,180765,1,12,0:0:0:0:
226,8,180932,1,2,0:0:0:0:
217,288,181098,1,4,0:0:0:0:
25,18,181265,1,2,0:0:0:0:
144,370,181432,5,0,0:0:0:0:
118,318,181515,1,0,0:0:0:0:
120,260,181598,1,0,0:0:0:0:
151,211,181682,1,0,0:0:0:0:
204,190,181765,1,0,0:0:0:0:
261,192,181848,1,0,0:0:0:0:
318,197,181932,1,0,0:0:0:0:
374,184,182015,1,0,0:0:0:0:
413,142,182098,5,0,0:0:0:0:
421,84,182182,1,0,0:0:0:0:
382,40,182265,1,0,0:0:0:0:
326,24,182348,1,0,0:0:0:0:
277,56,182432,1,0,0:0:0:0:
253,108,182515,1,0,0:0:0:0:
247,165,182598,1,0,0:0:0:0:
253,222,182682,1,0,0:0:0:0:
271,276,182765,5,0,0:0:0:0:
274,218,182848,1,0,0:0:0:0:
247,165,182932,1,0,0:0:0:0:
198,134,183015,1,0,0:0:0:0:
142,119,183098,1,4,0:0:0:0:
198,134,183182,1,0,0:0:0:0:
252,114,183265,1,0,0:0:0:0:
286,67,183348,1,0,0:0:0:0:
294,9,183432,1,4,0:0:0:0:
300,57,183515,1,0,0:0:0:0:
306,105,183598,1,0,0:0:0:0:
312,154,183682,1,0,0:0:0:0:
318,202,183765,1,0,0:0:0:0:
324,250,183848,1,0,0:0:0:0:
330,299,183932,1,0,0:0:0:0:
337,347,184015,1,0,0:0:0:0:
261,372,184098,6,6,P|216:356|162:318,2,73.3333333333333
54,200,184432,2,6,P|99:216|153:254,2,73.3333333333333
260,277,184765,6,6,P|277:244|289:210,2,73.3333333333333
49,301,185099,2,6,P|31:333|20:368,2,73.3333333333333
222,131,185432,6,6,P|294:120|365:136,1,146.666666666667
485,216,185765,6,6,P|503:175|506:143,2,73.3333333333333
349,324,186098,2,6,P|208:286|331:208,1,366.666666666667
437,218,186765,5,2,0:0:0:0:
437,218,186876,1,2,0:0:0:0:
437,218,186987,1,2,0:0:0:0:
437,218,187098,2,6,P|381:142|332:105,1,146.666666666667
81,57,187432,5,2,0:0:0:0:
81,57,187543,1,2,0:0:0:0:
81,57,187654,1,2,0:0:0:0:
81,57,187765,2,6,P|137:133|186:170,1,146.666666666667
312,261,188098,6,8,L|381:238,2,73.3333333333333
379,162,188432,2,8,L|448:139,2,73.3333333333333
212,111,188765,2,8,L|282:89,2,73.3333333333333
134,249,189099,2,8,L|204:227,2,73.3333333333333
36,350,189432,5,4,0:0:0:0:
36,350,189765,1,4,0:0:0:0:
409,247,190098,2,6,P|340:216|199:255,1,220
160,354,190765,6,6,P|226:355|292:326,2,110
409,247,191432,1,4,0:0:0:0:
409,247,192098,5,4,0:0:0:0:
227,82,192432,1,4,0:0:0:0:
143,185,192765,2,6,P|202:197|351:131,1,220
487,41,193432,6,12,L|431:89,3,55
365,243,193765,2,12,L|424:195,3,55
377,57,194098,2,12,L|335:-2,3,55
469,247,194432,2,12,L|510:299,3,55
256,58,194765,5,6,0:0:0:0:
206,61,194848,1,0,0:0:0:0:
168,93,194932,1,4,0:0:0:0:
158,141,195015,1,0,0:0:0:0:
165,189,195098,2,4,L|227:251,1,82.5000031471254
371,330,195265,5,6,0:0:0:0:
421,327,195348,1,0,0:0:0:0:
459,295,195432,1,4,0:0:0:0:
469,247,195515,1,0,0:0:0:0:
462,199,195598,2,4,L|400:137,1,82.5000031471254
270,17,195765,1,6,0:0:0:0:
270,17,195848,1,0,0:0:0:0:
270,17,195932,2,4,L|302:101,1,82.5000031471254
392,255,196098,5,6,0:0:0:0:
371,309,196182,1,0,0:0:0:0:
321,338,196265,1,0,0:0:0:0:
264,349,196348,1,0,0:0:0:0:
206,337,196432,1,0,0:0:0:0:
161,300,196515,1,0,0:0:0:0:
144,244,196598,5,4,0:0:0:0:
186,204,196682,1,0,0:0:0:0:
243,203,196765,1,0,0:0:0:0:
298,218,196848,1,0,0:0:0:0:
355,224,196932,1,0,0:0:0:0:
406,198,197015,1,0,0:0:0:0:
420,142,197098,5,4,0:0:0:0:
369,170,197182,1,0,0:0:0:0:
355,224,197265,1,0,0:0:0:0:
376,277,197348,1,0,0:0:0:0:
431,294,197432,1,4,0:0:0:0:
376,277,197515,1,4,0:0:0:0:
319,268,197598,1,4,0:0:0:0:
261,262,197682,1,4,0:0:0:0:
203,268,197765,1,4,0:0:0:0:
147,283,197848,1,4,0:0:0:0:
93,306,197932,1,4,0:0:0:0:
45,337,198015,1,4,0:0:0:0:
6,380,198098,5,4,0:0:0:0:
57,353,198182,1,0,0:0:0:0:
93,306,198265,1,0,0:0:0:0:
105,249,198348,1,0,0:0:0:0:
111,191,198432,1,4,0:0:0:0:
143,144,198515,1,0,0:0:0:0:
187,107,198598,1,0,0:0:0:0:
244,100,198682,1,0,0:0:0:0:
295,125,198765,5,12,0:0:0:0:
320,176,198848,1,12,0:0:0:0:
371,204,198932,1,12,0:0:0:0:
427,191,199015,1,12,0:0:0:0:
445,136,199098,1,12,0:0:0:0:
419,83,199182,1,12,0:0:0:0:
368,56,199265,1,12,0:0:0:0:
312,42,199348,1,12,0:0:0:0:
260,48,199432,5,14,0:0:0:0:
260,48,199515,1,0,0:0:0:0:
260,48,199598,2,4,L|175:59,1,82.5000031471254
0,154,199765,5,14,0:0:0:0:
0,154,199848,1,0,0:0:0:0:
0,154,199931,2,4,L|85:143,1,82.5000031471254
347,135,200098,5,6,0:0:0:0:
410,154,200182,1,0,0:0:0:0:
446,208,200265,1,0,0:0:0:0:
427,271,200348,1,0,0:0:0:0:
372,309,200432,1,0,0:0:0:0:
306,306,200515,1,0,0:0:0:0:
243,284,200598,1,0,0:0:0:0:
193,239,200682,1,0,0:0:0:0:
150,188,200765,5,0,0:0:0:0:
85,176,200848,1,0,0:0:0:0:
29,211,200932,1,0,0:0:0:0:
21,276,201015,1,0,0:0:0:0:
67,322,201098,1,0,0:0:0:0:
133,327,201182,1,0,0:0:0:0:
197,315,201265,1,0,0:0:0:0:
243,284,201348,1,0,0:0:0:0:
283,231,201432,5,6,0:0:0:0:
219,214,201515,1,0,0:0:0:0:
157,191,201598,1,0,0:0:0:0:
92,172,201682,1,0,0:0:0:0:
28,153,201765,5,4,0:0:0:0:
91,137,201848,1,0,0:0:0:0:
154,121,201931,1,0,0:0:0:0:
218,104,202015,1,0,0:0:0:0:
282,89,202098,5,4,0:0:0:0:
289,155,202182,1,0,0:0:0:0:
336,200,202265,1,0,0:0:0:0:
397,223,202348,1,0,0:0:0:0:
463,225,202432,1,0,0:0:0:0:
403,196,202515,1,0,0:0:0:0:
336,200,202598,1,0,0:0:0:0:
282,239,202682,1,0,0:0:0:0:
248,295,202765,5,6,0:0:0:0:
321,300,202848,1,0,0:0:0:0:
386,263,202932,1,0,0:0:0:0:
403,196,203015,1,0,0:0:0:0:
384,124,203098,1,0,0:0:0:0:
325,77,203182,1,0,0:0:0:0:
251,71,203265,1,0,0:0:0:0:
184,103,203348,1,0,0:0:0:0:
163,175,203432,5,4,0:0:0:0:
229,142,203515,1,0,0:0:0:0:
251,71,203598,1,0,0:0:0:0:
202,13,203682,1,0,0:0:0:0:
128,17,203765,1,4,0:0:0:0:
160,83,203848,1,0,0:0:0:0:
192,150,203932,1,0,0:0:0:0:
226,215,204015,1,0,0:0:0:0:
260,280,204098,5,4,0:0:0:0:
272,231,204182,1,0,0:0:0:0:
282,182,204265,1,0,0:0:0:0:
294,134,204348,1,0,0:0:0:0:
301,84,204432,5,0,0:0:0:0:
315,113,204515,1,0,0:0:0:0:
329,142,204598,1,0,0:0:0:0:
345,171,204682,1,0,0:0:0:0:
361,199,204765,5,4,0:0:0:0:
344,213,204848,1,0,0:0:0:0:
329,223,204932,1,0,0:0:0:0:
314,231,205015,1,0,0:0:0:0:
298,240,205098,1,0,0:0:0:0:
307,253,205182,1,0,0:0:0:0:
315,268,205265,1,0,0:0:0:0:
324,283,205348,1,0,0:0:0:0:
332,297,205432,6,8,B|362:344|362:344|325:342,3,82.5000031471254
204,255,205765,2,8,B|174:208|174:208|211:210,3,82.5000031471254
236,362,206098,6,8,B|189:392|189:392|191:355,3,82.5000031471254
301,208,206431,2,8,B|348:178|348:178|346:215,3,82.5000031471254
147,304,206765,5,0,0:0:0:0:
84,283,206848,1,0,0:0:0:0:
61,220,206932,1,0,0:0:0:0:
74,155,207015,1,0,0:0:0:0:
123,111,207098,1,0,0:0:0:0:
188,118,207181,1,0,0:0:0:0:
241,158,207265,1,0,0:0:0:0:
299,188,207348,1,0,0:0:0:0:
364,186,207431,5,0,0:0:0:0:
419,149,207515,1,0,0:0:0:0:
440,86,207598,1,0,0:0:0:0:
406,28,207682,1,0,0:0:0:0:
342,12,207765,1,0,0:0:0:0:
346,77,207848,1,0,0:0:0:0:
354,143,207932,1,0,0:0:0:0:
358,208,208015,1,0,0:0:0:0:
360,273,208098,5,4,0:0:0:0:
318,231,208182,1,0,0:0:0:0:
266,204,208265,1,0,0:0:0:0:
208,199,208348,1,0,0:0:0:0:
150,204,208432,1,2,0:0:0:0:
97,227,208515,1,0,0:0:0:0:
53,265,208598,1,0,0:0:0:0:
22,314,208682,1,0,0:0:0:0:
4,368,208765,5,4,0:0:0:0:
58,350,208848,1,0,0:0:0:0:
107,318,208932,1,0,0:0:0:0:
145,274,209015,1,0,0:0:0:0:
180,228,209098,1,2,0:0:0:0:
206,175,209182,1,0,0:0:0:0:
210,117,209265,1,0,0:0:0:0:
186,64,209348,1,0,0:0:0:0:
143,24,209432,5,6,0:0:0:0:
156,88,209515,1,4,0:0:0:0:
210,117,209598,1,4,0:0:0:0:
274,129,209682,1,4,0:0:0:0:
337,112,209765,5,4,0:0:0:0:
274,129,209848,1,4,0:0:0:0:
238,185,209932,1,4,0:0:0:0:
231,250,210015,1,4,0:0:0:0:
243,314,210098,5,14,0:0:0:0:
308,277,210182,1,8,0:0:0:0:
341,210,210265,1,8,0:0:0:0:
337,136,210348,1,8,0:0:0:0:
293,74,210432,1,8,0:0:0:0:
224,47,210515,1,8,0:0:0:0:
150,47,210598,1,8,0:0:0:0:
83,80,210682,1,8,0:0:0:0:
53,147,210765,5,14,0:0:0:0:
126,146,210848,1,0,0:0:0:0:
200,140,210932,1,0,0:0:0:0:
273,134,211015,1,0,0:0:0:0:
346,128,211098,5,0,0:0:0:0:
286,173,211182,1,0,0:0:0:0:
227,218,211265,1,0,0:0:0:0:
168,263,211348,1,0,0:0:0:0:
109,309,211432,5,0,0:0:0:0:
152,249,211515,1,0,0:0:0:0:
227,218,211598,1,0,0:0:0:0:
299,235,211682,1,0,0:0:0:0:
351,287,211765,1,0,0:0:0:0:
351,287,211848,1,0,0:0:0:0:
351,287,211932,2,0,L|246:269,1,82.5000031471254
11,266,212098,5,0,0:0:0:0:
28,338,212182,1,0,0:0:0:0:
92,373,212265,1,0,0:0:0:0:
165,366,212348,1,0,0:0:0:0:
214,309,212432,1,0,0:0:0:0:
255,247,212515,1,0,0:0:0:0:
303,191,212598,1,0,0:0:0:0:
371,160,212682,1,0,0:0:0:0:
440,184,212765,5,0,0:0:0:0:
374,218,212848,1,0,0:0:0:0:
303,191,212932,1,0,0:0:0:0:
262,129,213015,1,0,0:0:0:0:
277,56,213098,1,0,0:0:0:0:
336,10,213182,1,0,0:0:0:0:
409,6,213265,2,0,L|416:103,1,82.5000031471254
438,346,213432,5,14,0:0:0:0:
345,106,213598,1,2,0:0:0:0:
246,349,213765,1,4,0:0:0:0:
123,77,213932,1,2,0:0:0:0:
412,218,214098,1,12,0:0:0:0:
115,298,214265,1,2,0:0:0:0:
447,122,214432,1,4,0:0:0:0:
195,6,214598,1,2,0:0:0:0:
344,306,214765,5,14,0:0:0:0:
447,22,214932,1,2,0:0:0:0:
470,335,215098,1,4,0:0:0:0:
337,46,215265,1,2,0:0:0:0:
251,340,215432,1,12,0:0:0:0:
502,124,215598,1,2,0:0:0:0:
166,130,215765,1,4,0:0:0:0:
506,240,215932,1,2,0:0:0:0:
108,276,216098,5,0,0:0:0:0:
108,276,216182,1,0,0:0:0:0:
108,276,216265,2,0,L|178:251,1,55
443,136,216432,5,0,0:0:0:0:
443,136,216516,1,0,0:0:0:0:
443,136,216599,2,0,L|371:145,1,55
62,155,216765,5,0,0:0:0:0:
62,155,216849,1,0,0:0:0:0:
62,155,216932,2,0,L|134:174,1,55
436,319,217098,5,0,0:0:0:0:
436,319,217182,1,0,0:0:0:0:
436,319,217265,2,0,L|385:274,1,55
214,89,217432,5,14,0:0:0:0:
119,340,217598,1,2,0:0:0:0:
46,51,217765,1,4,0:0:0:0:
44,354,217932,1,2,0:0:0:0:
301,153,218098,1,12,0:0:0:0:
0,115,218265,1,2,0:0:0:0:
310,15,218432,1,4,0:0:0:0:
9,235,218598,1,2,0:0:0:0:
337,302,218765,5,6,0:0:0:0:
337,302,218848,1,0,0:0:0:0:
337,302,218932,2,4,L|337:219,1,82.5000031471254
392,53,219098,1,6,0:0:0:0:
431,106,219182,1,0,0:0:0:0:
455,167,219265,1,2,0:0:0:0:
457,232,219348,1,0,0:0:0:0:
444,297,219432,2,4,P|425:344|400:380,1,82.5000031471254
178,356,219598,5,0,0:0:0:0:
131,308,219682,1,0,0:0:0:0:
110,245,219765,1,0,0:0:0:0:
119,179,219848,1,0,0:0:0:0:
151,120,219932,1,0,0:0:0:0:
209,89,220015,1,0,0:0:0:0:
274,89,220098,6,14,P|246:123|201:155,1,82.5000031471254
10,215,220265,1,2,0:0:0:0:
300,201,220432,1,4,0:0:0:0:
31,80,220598,1,2,0:0:0:0:
306,20,220765,1,6,0:0:0:0:
157,243,220932,1,2,0:0:0:0:
86,2,221098,1,4,0:0:0:0:
69,297,221265,1,2,0:0:0:0:
211,19,221432,5,6,0:0:0:0:
243,66,221515,1,0,0:0:0:0:
245,123,221598,1,0,0:0:0:0:
209,169,221682,1,0,0:0:0:0:
154,186,221765,1,2,0:0:0:0:
193,143,221848,1,0,0:0:0:0:
245,123,221932,1,0,0:0:0:0:
301,135,222015,1,0,0:0:0:0:
331,183,222098,5,4,0:0:0:0:
278,207,222182,1,0,0:0:0:0:
224,229,222265,1,0,0:0:0:0:
171,251,222348,1,0,0:0:0:0:
118,276,222432,1,2,0:0:0:0:
166,282,222515,1,0,0:0:0:0:
214,292,222598,1,0,0:0:0:0:
263,301,222682,1,0,0:0:0:0:
311,309,222765,5,4,0:0:0:0:
326,270,222848,1,0,0:0:0:0:
339,230,222932,1,0,0:0:0:0:
346,189,223015,1,0,0:0:0:0:
354,148,223098,1,2,0:0:0:0:
366,169,223182,1,0,0:0:0:0:
377,190,223265,1,0,0:0:0:0:
387,212,223348,1,0,0:0:0:0:
397,234,223432,5,4,0:0:0:0:
399,226,223515,1,0,0:0:0:0:
401,218,223598,1,0,0:0:0:0:
403,209,223682,1,0,0:0:0:0:
405,201,223765,2,4,B|415:176,3,27.5
316,349,224098,5,6,0:0:0:0:
266,350,224182,1,0,0:0:0:0:
216,345,224265,1,0,0:0:0:0:
168,333,224348,1,0,0:0:0:0:
124,309,224432,1,0,0:0:0:0:
84,278,224515,1,0,0:0:0:0:
56,237,224598,1,0,0:0:0:0:
44,188,224682,1,0,0:0:0:0:
56,140,224765,5,4,0:0:0:0:
99,163,224848,1,0,0:0:0:0:
118,208,224932,1,0,0:0:0:0:
125,256,225015,1,0,0:0:0:0:
124,309,225098,2,12,L|96:205,1,82.5000031471254
56,50,225265,2,12,L|148:103,1,82.5000031471254
289,256,225432,5,6,0:0:0:0:
338,251,225515,1,0,0:0:0:0:
382,229,225598,1,0,0:0:0:0:
411,188,225682,1,0,0:0:0:0:
432,143,225765,1,0,0:0:0:0:
433,93,225848,1,0,0:0:0:0:
414,46,225932,1,0,0:0:0:0:
377,12,226015,1,0,0:0:0:0:
328,0,226098,5,4,0:0:0:0:
330,49,226182,1,0,0:0:0:0:
350,94,226265,1,0,0:0:0:0:
385,128,226348,1,0,0:0:0:0:
432,143,226432,2,12,L|297:163,1,82.5000031471254
115,169,226598,2,12,L|236:195,1,82.5000031471254
415,302,226765,5,6,0:0:0:0:
415,302,226848,1,0,0:0:0:0:
415,302,226932,2,4,L|321:315,1,82.5000031471254
98,341,227098,5,6,0:0:0:0:
98,341,227181,1,0,0:0:0:0:
98,341,227265,2,4,L|196:356,1,82.5000031471254
266,361,227432,5,6,0:0:0:0:
266,361,227515,1,0,0:0:0:0:
266,361,227599,2,4,L|273:268,1,82.5000031471254
301,32,227765,1,0,0:0:0:0:
301,32,227848,1,0,0:0:0:0:
301,32,227932,2,0,L|341:139,1,82.5000031471254
441,299,228098,6,8,L|461:372,3,55
465,185,228432,2,8,L|450:131,3,55
350,283,228765,2,8,L|370:356,3,55
383,171,229099,2,8,L|368:117,3,55
261,276,229432,6,12,P|147:268|250:322,1,275.000010490418
205,287,230137,2,8,L|146:263,2,55.0000020980836
313,338,230432,1,0,0:0:0:0:
313,338,230490,2,8,L|363:358,2,55.0000020980836
65,314,230784,1,0,0:0:0:0:
65,314,230843,2,8,L|151:337,2,82.5000031471254
84,147,231314,1,0,0:0:0:0:
59,168,231431,1,0,0:0:0:0:
39,196,231549,1,0,0:0:0:0:
69,32,232255,6,8,B|133:87,1,55.0000020980836
128,168,232490,2,8,B|64:113,1,55.0000020980836
15,91,232696,1,0,0:0:0:0:
15,91,232784,1,0,0:0:0:0:
15,91,232873,1,0,0:0:0:0:
0,192,232961,6,8,B|74:193,1,55.0000020980836
178,253,233196,2,8,B|104:252,1,55.0000020980836
17,289,233402,1,0,0:0:0:0:
17,289,233490,1,0,0:0:0:0:
17,289,233579,1,0,0:0:0:0:
55,365,233667,6,12,P|93:380|133:377,2,82.5000031471254
180,362,234196,2,6,P|222:361|257:369,2,41.2500015735627
416,373,234549,1,0,0:0:0:0:
416,373,234637,1,0,0:0:0:0:
416,373,234726,2,0,L|406:289,1,82.5000031471254
360,114,235079,6,0,B|252:42|182:164|182:164|111:285|-18:238,1,440
283,175,236279,1,0,0:0:0:0:
62,155,236479,1,0,0:0:0:0:
236,247,236679,6,0,P|364:142|199:153,1,440,6|0,0:0|0:0,0:0:0:0:
144,340,237879,1,2,0:0:0:0:
282,173,238145,1,2,0:0:0:0:
143,84,238412,6,0,P|437:118|245:336,1,718.666675439453
256,192,243179,12,0,245479,0:0:0:0:
